#TITLE:FLUTE MAN;
#SUBTITLE:;
#ARTIST:SPARKER;
#TITLETRANSLIT:;
#SUBTITLETRANSLIT:;
#ARTISTTRANSLIT:;
#GENRE:DEEP HOUSE;
#CREDIT:;
#BANNER:FLUTE MAN.png;
#BACKGROUND:FLUTE MAN-bg.png;
#LYRICSPATH:;
#CDTITLE:cdtitle.png;
#MUSIC:FLUTE MAN.ogg;
#OFFSET:-0.359000;
#SAMPLESTART:7.723000;
#SAMPLELENGTH:15.000000;
#SELECTABLE:YES;
#BPMS:0.000000=130.000000
;
#STOPS:
;
#BGCHANGES:;
#KEYSOUNDS:;
#ATTACKS:;

//---------------dance-single - Daff_4K----------------
#NOTES:
     dance-single:
     Daff_4K:
     Beginner:
     3:
     0.131582,0.174621,0.038378,0.000000,0.000000,96.000000,92.000000,4.000000,0.000000,0.000000,0.000000,0.131582,0.174621,0.038378,0.000000,0.000000,96.000000,92.000000,4.000000,0.000000,0.000000,0.000000:
// measure 0
0000
0000
0000
0000
,  // measure 1
0000
0000
0000
0000
,  // measure 2
0000
0000
0000
0000
,  // measure 3
0000
0000
0000
0000
,  // measure 4
1000
0000
0000
0000
,  // measure 5
0001
0000
0100
0100
,  // measure 6
0100
0000
0000
0000
,  // measure 7
0010
0000
1000
0000
,  // measure 8
0001
0000
0000
0000
,  // measure 9
1000
0000
0100
0100
,  // measure 10
0100
0000
0000
0000
,  // measure 11
0010
0010
0010
0000
,  // measure 12
1001
0000
0000
0001
,  // measure 13
0001
0000
0100
0000
,  // measure 14
0001
0000
0000
1000
,  // measure 15
1000
0000
0100
0000
,  // measure 16
1000
0000
0000
0010
,  // measure 17
0010
0000
0100
0000
,  // measure 18
0100
0000
0000
0001
,  // measure 19
0001
0000
0001
0000
,  // measure 20
1001
0000
0000
1000
,  // measure 21
1000
0000
0010
0000
,  // measure 22
1000
0000
0000
0001
,  // measure 23
0001
0000
0010
0000
,  // measure 24
0001
0000
0000
0100
,  // measure 25
0100
0000
0010
0000
,  // measure 26
0010
0000
0000
1000
,  // measure 27
1000
0000
0001
0000
,  // measure 28
0001
0000
0000
0000
,  // measure 29
1000
0000
0000
0000
,  // measure 30
0010
0000
0000
0000
,  // measure 31
0100
0100
0100
0000
,  // measure 32
0001
0000
0000
0010
,  // measure 33
0010
0000
0100
0000
,  // measure 34
0010
0000
0000
0001
,  // measure 35
0001
0000
0100
0000
,  // measure 36
0010
0000
0000
1000
,  // measure 37
1000
0000
0100
0000
,  // measure 38
0010
0000
0000
0001
,  // measure 39
0001
0000
1000
0000
,  // measure 40
1001
0000
0000
0000
,  // measure 41
0001
0000
0001
0000
,  // measure 42
1000
0000
0000
0000
,  // measure 43
0010
0000
0010
0000
,  // measure 44
0100
0000
0000
0000
,  // measure 45
0001
0000
0010
0010
,  // measure 46
0010
0000
0000
0000
,  // measure 47
0100
0000
1000
0000
,  // measure 48
0001
0000
0000
0000
,  // measure 49
0100
0000
0010
0010
,  // measure 50
0010
0000
1000
0000
,  // measure 51
0100
0100
0100
0000
,  // measure 52
1001
0000
0000
0000
;

//---------------dance-single - Daff_4K----------------
#NOTES:
     dance-single:
     Daff_4K:
     Easy:
     5:
     0.187779,0.249458,0.009595,0.172702,0.000000,137.000000,136.000000,1.000000,18.000000,0.000000,0.000000,0.187779,0.249458,0.009595,0.172702,0.000000,137.000000,136.000000,1.000000,18.000000,0.000000,0.000000:
0000
0000
0000
0000
,
0000
0000
0000
0000
,
0000
0000
0000
0000
,
0000
0000
0000
0000
,
1000
0000
0010
0000
,
1000
0000
0100
0010
,
0001
0000
0100
0000
,
0001
0000
1000
0000
,
0001
0000
0010
0000
,
0001
0000
0100
0010
,
1000
0000
0100
0000
,
2000
3001
0002
1003
,
2000
0000
0001
0000
,
3010
1000
0010
0000
,
0200
0000
0010
0000
,
0301
1000
0001
0000
,
0002
0000
1000
0000
,
0013
0001
0010
0000
,
0200
0000
0010
0000
,
1300
0001
1000
0000
,
2000
0000
0010
0000
,
3001
1000
0010
0000
,
0200
0000
0010
0000
,
0301
1000
0100
0010
,
0002
0000
0010
0000
,
1003
0001
0010
0000
,
0200
0000
0010
0000
,
1300
0001
0100
0010
,
1000
0000
0001
0000
,
0100
0010
0100
0000
,
0001
0000
1000
0000
,
0200
0310
0020
0031
,
0002
0000
1000
0000
,
0103
0010
1000
0001
,
2000
0000
0100
0000
,
3010
0010
0100
0001
,
2000
0000
0001
0000
,
3100
0010
0001
1000
,
0002
0000
0100
0000
,
0013
0010
0100
1000
,
0001
0000
0100
0000
,
1000
1000
0100
0001
,
1000
0000
0100
0000
,
0001
0001
0100
1000
,
0001
0000
0100
0000
,
0010
0010
1000
0001
,
1000
0000
0100
0000
,
0010
0001
1000
0000
,
0010
0100
0001
0000
,
0010
0100
1000
0001
,
1000
0010
0001
0010
,
2000
3001
0002
1003
,
1001
0000
0000
0000
;

//---------------dance-single - Daff_4K----------------
#NOTES:
     dance-single:
     Daff_4K:
     Medium:
     8:
     0.339921,0.399133,0.134323,0.287836,0.000000,248.000000,234.000000,14.000000,30.000000,0.000000,0.000000,0.339921,0.399133,0.134323,0.287836,0.000000,248.000000,234.000000,14.000000,30.000000,0.000000,0.000000:
0000
0000
0000
0000
,
0000
0000
0000
0000
,
0000
0000
0000
0000
,
0000
0000
0000
0000
,
1000
0100
0001
0100
,
1000
0001
0110
1001
,
0001
0100
1000
0100
,
0001
1000
0110
1001
,
1000
0010
1000
0000
0001
0010
0001
0000
,
1000
0001
1000
0000
0110
0000
1001
0000
,
0001
0100
0001
1000
0100
1000
0001
0000
,
0200
0320
2030
3001
,
1002
0100
1000
0103
,
0001
1000
0001
0000
0020
0000
0130
0000
,
2000
0010
0001
3010
,
0100
0010
0100
0000
0001
1000
0001
0000
,
2000
0100
0001
3100
,
1000
0001
1000
0000
0020
0000
0130
0000
,
0002
0010
1000
0013
,
0100
0010
0100
0000
1000
0001
1000
0001
,
0200
0010
1000
0310
,
0100
0001
1000
0000
0002
0000
0013
0000
,
0200
1000
0010
1300
,
0001
0100
0001
0000
1000
0001
1000
0000
,
0200
0010
0001
0310
,
0100
1000
0001
0000
2000
0000
3010
0000
,
0200
0001
0010
0301
,
1000
0100
1000
0000
0001
1000
0001
0000
,
1000
0100
0001
0100
,
1000
0010
0001
0010
,
1000
0100
1000
0001
0100
0001
1000
0000
,
0200
0320
0032
2003
,
3002
0000
0010
0000
,
0100
0100
0103
0000
,
2001
0100
3002
0010
,
0103
0010
0100
0000
0001
1000
0001
0000
,
0020
0100
0032
1000
,
0103
0010
0100
0000
0002
0000
1003
0000
,
0002
0100
2003
0010
,
3100
0010
0100
0000
1000
0001
1000
0000
,
1001
0000
0001
0010
0001
0000
1000
0001
,
1000
0000
0001
0100
0001
0000
1000
0000
,
0001
0000
1000
0010
1000
0000
0001
1000
,
0001
0000
1000
0100
1000
0000
0001
0000
,
1000
0010
0001
0010
,
1000
0001
0110
1001
,
0001
0100
0001
0000
1000
0100
1000
0000
,
0001
1000
0001
0000
0110
0000
1001
0000
,
1000
0010
0100
0010
0100
0001
1000
0000
,
0001
0010
0100
0010
0100
1000
0001
0000
,
0100
0100
0100
0000
0010
0010
0010
0000
,
2000
3002
0023
0130
,
1001
0000
0000
0000
;

//---------------dance-single - Daff_4K----------------
#NOTES:
     dance-single:
     Daff_4K:
     Hard:
     11:
     0.450943,0.523862,0.498916,0.470132,0.230269,329.000000,277.000000,52.000000,49.000000,0.000000,0.000000,0.450943,0.523862,0.498916,0.470132,0.230269,329.000000,277.000000,52.000000,49.000000,0.000000,0.000000:
0000
0000
0000
0000
,
0000
0000
0000
0000
,
0000
0000
0000
0000
,
0000
0000
0000
0000
,
2001
3010
0012
0103
,
2100
3001
1010
0101
,
1002
0013
2010
3100
,
0102
1003
0011
1100
,
1002
0000
0103
0010
0100
0001
1000
0100
,
0010
0100
1000
0001
0101
0000
1010
0000
,
1001
0000
0000
0001
0010
0001
0010
0100
1000
0100
1000
0001
,
0200
0310
1001
0110
,
2001
0000
0000
0000
0000
0000
3100
0000
0000
0000
0000
0000
0012
0000
0000
0000
0000
0000
2003
0000
0000
0000
0000
0010
,
0000
0000
3010
0000
0000
0000
1000
0000
0000
0100
0000
0000
0001
0000
0000
0000
0000
0000
1000
0000
0000
0010
0000
0000
,
0002
0000
0000
0000
0000
0000
0103
0000
0000
0000
0000
0000
2010
0000
0000
0000
0000
0000
3200
0000
0000
0000
0000
0010
,
0000
0000
0310
0000
0000
0000
0001
0000
0000
1000
0000
0000
0020
0000
0000
0000
0000
0000
0130
0000
0000
0000
0000
0000
,
1002
0000
0000
0000
0000
0000
0103
0000
0000
0000
0000
0000
2010
0000
0000
0000
0000
0000
3002
0000
0000
0000
0000
0010
,
0000
0000
0013
0000
0000
0000
0001
0000
0000
0100
0000
0000
1000
0000
0000
0000
0000
0000
0001
0000
0000
0010
0000
0000
,
2000
0000
0000
0000
0000
0000
3100
0000
0000
0000
0000
0000
0012
0000
0000
0000
0000
0000
0203
0000
0000
0000
0000
0010
,
0000
0000
0310
0000
0000
0000
1000
0000
0000
0001
0000
0000
0010
0000
0000
0100
0000
0000
1000
0000
0001
0000
0000
1000
,
0002
0000
0000
0000
0000
0000
0103
0000
0000
0010
0000
0000
2000
0000
0000
0000
0000
0000
0001
0000
0000
0000
0000
0100
,
0000
0000
3100
0000
0000
0000
1000
0000
0000
0010
0000
0000
0001
0000
0000
0000
0000
0000
1000
0000
0000
0100
0000
0000
,
0002
0000
0000
0000
0000
0000
0013
0000
0000
0000
0000
0000
1200
0000
0000
0000
0000
0000
0001
0000
0000
0000
0000
0010
,
0000
0000
0310
0000
0000
0000
0001
0000
0000
0100
0000
0000
0010
0000
0000
1000
0000
0000
0001
0000
0000
0000
0000
0000
,
2001
0000
0000
0000
0000
0000
3100
0000
0000
0010
0000
0000
0002
0000
0000
0000
0000
0000
1000
0000
0000
0000
0000
0100
,
0000
0000
0103
0000
0000
0000
0001
0000
0000
0010
0000
0000
1000
0000
0000
0000
0000
0000
0001
0000
0000
0100
0000
0000
,
2000
0000
0000
0000
0000
0000
3010
0000
0000
0000
0000
0000
0201
0000
0000
0000
0000
0000
1000
0000
0000
0000
0000
0010
,
0000
0000
0310
0000
0000
0000
1000
0000
0000
0100
0000
0000
0010
0000
0000
0001
0000
0000
1000
0000
0000
0000
0000
0000
,
2001
0000
3010
0100
0010
1000
0001
0010
,
0100
0010
0001
1000
0010
0100
0001
0000
,
1001
0000
0000
1000
0100
1000
0100
0010
0001
0010
0001
1000
,
0020
0130
1001
0110
,
1002
0100
0010
1000
,
2003
0100
0010
0001
,
3020
0000
0000
0000
0000
0000
0100
0000
0000
0000
0000
0000
2030
0000
0000
0000
0000
0000
0001
0000
0000
0000
0000
0100
,
0000
0000
3100
0000
0000
0000
1000
0000
0000
0010
0000
0000
0100
0000
0000
0010
0000
0000
1000
0000
0000
0001
0000
0000
,
0020
0000
0000
0000
0000
0000
1030
0000
0000
0000
0000
0000
0210
0000
0000
0000
0000
0000
2300
0000
0000
0000
0000
0001
,
0000
0000
3001
0000
0000
0000
1000
0000
0000
0010
0000
0000
0001
0000
0000
0010
0000
0000
1000
0000
0000
0001
0000
0000
,
0020
0000
0000
0000
0000
0000
0100
0000
0000
0000
0000
0000
0032
0000
0000
0000
0000
0000
1000
0000
0000
0000
0000
0100
,
0000
0000
0103
0000
0000
0000
0001
0000
0000
0010
0000
0000
0100
0000
0000
0010
0000
0000
0001
0000
0000
0000
0000
0000
,
2001
3010
0012
0103
,
2100
0000
3001
1000
0010
0100
0001
0000
,
1002
0013
2010
3100
,
0102
0000
1003
0001
0010
0100
1000
0000
,
1002
0103
2100
3010
,
0012
1003
1010
0101
,
1001
0000
1000
0100
0001
0100
1000
0001
,
0100
1000
0100
0001
1001
0000
0110
0000
,
1001
0000
0000
1000
0010
0100
0010
0100
0001
1000
0000
0000
,
1001
0000
0000
0001
0010
0100
0010
0100
1000
0001
0000
0000
,
1000
0100
1000
0100
1000
0000
0000
0000
0001
0100
0001
0100
0001
0000
0000
0000
,
1001
0110
1001
0110
,
1001
0000
0000
0000
;

//---------------dance-single - Daff_4K----------------
#NOTES:
     dance-single:
     Daff_4K:
     Challenge:
     14:
     0.574301,0.673536,0.278242,0.479727,0.585267,419.000000,390.000000,29.000000,50.000000,0.000000,0.000000,0.574301,0.673536,0.278242,0.479727,0.585267,419.000000,390.000000,29.000000,50.000000,0.000000,0.000000:
0000
0000
0000
0000
,
0000
0000
0000
0000
,
0000
0000
0000
0000
,
0000
0000
0000
0000
,
1001
0000
0000
0000
0000
1000
0010
0000
0000
0100
0000
0000
0010
0000
0000
0000
0000
1000
0010
0000
0000
0001
0000
0000
,
0010
0000
0000
0000
0000
1000
0001
0000
0000
0010
0000
0000
0011
0000
0000
0000
0000
0000
1100
0000
0000
0000
0000
0000
,
1001
0000
0000
0000
0000
0001
0010
0000
0000
0100
0000
0000
0010
0000
0000
0000
0000
0001
0010
0000
0000
1000
0000
0000
,
0010
0000
0000
0000
0000
0001
1000
0000
0000
0010
0000
0000
0110
0000
0000
0000
0000
0100
0001
0000
0000
1000
0000
0000
,
1001
0000
0000
0000
0000
0001
0010
0000
0000
0100
0000
0000
1000
0000
0000
0010
0000
0100
0010
0000
0000
1000
0000
0000
,
0001
0000
0000
0010
0000
0100
0010
0000
0000
0001
0000
0000
1001
0000
0000
1000
0000
0000
1001
0000
0000
0001
0000
0000
,
1000
0010
1000
0010
0100
0001
0010
0001
0010
0100
1000
0001
,
2000
0000
0010
0000
0000
0000
3002
0000
0010
0000
0000
0000
2003
0000
0100
0000
0000
0000
3002
0000
0100
0003
0000
0000
,
2001
0000
0000
0000
0000
0000
0100
0000
0000
0000
0000
0000
3002
0000
0000
0000
0000
0000
0013
0000
0000
0200
0000
1000
,
0000
0000
1000
0000
0000
0000
1300
0000
0000
0001
0000
0000
0200
0000
0000
0000
0000
0000
0310
0000
0000
1000
0000
0010
,
2000
0000
0000
0000
0000
0000
0001
0000
0000
0000
0000
0000
3200
0000
0000
0000
0000
0000
0310
0000
0000
0002
0000
1000
,
0000
0000
1000
0000
0000
0000
0103
0000
0000
0010
0000
0000
2000
0000
0000
0000
0000
0000
3100
0000
0000
0100
0000
0010
,
0002
0000
0000
0000
0000
0000
0100
0000
0000
0000
0000
0000
2003
0000
0000
0000
0000
0000
3010
0000
0000
0200
0000
0001
,
0000
0000
0001
0000
0000
0000
0301
0000
0000
1000
0000
0000
0200
0000
0000
0000
0000
0000
0310
0000
0000
0001
0000
0010
,
0002
0000
0000
0000
0000
0000
1000
0000
0000
0000
0000
0000
0203
0000
0000
0000
0000
0000
0310
0000
0000
2000
0000
0001
,
0000
0000
0001
0000
0000
0000
3100
0000
0000
0001
0000
0000
1000
0000
0000
0010
0000
0000
0001
0000
1000
0000
0000
0001
,
2000
0000
0000
0000
0000
0000
3010
0000
0000
0100
0000
0000
0002
0000
0000
0000
0000
0000
1003
0000
0000
0001
0000
1000
,
0000
0000
0201
0000
0000
0000
0310
0000
0000
1000
0000
0000
0200
0000
0000
0000
0000
0000
0310
0000
0000
0001
0000
0010
,
0002
0000
0000
0000
0000
0000
0103
0000
0000
0010
0000
0000
2000
0000
0000
0000
0000
0000
3100
0000
0000
0010
0000
0100
,
0000
0000
0012
0000
0000
0000
0103
0000
0000
1000
0000
0000
0100
0000
0000
0010
0000
0000
1000
0000
0001
0000
0000
1000
,
0002
0000
0000
0000
0000
0000
0013
0000
0000
0100
0000
0000
2000
0000
0000
0000
0000
0000
3001
0000
0000
1000
0000
0001
,
0000
0000
1200
0000
0000
0000
0310
0000
0000
0001
0000
0000
0200
0000
0000
0000
0000
0000
0310
0000
0000
1000
0000
0010
,
2000
0000
0000
0000
0000
0000
3100
0000
0000
0010
0000
0000
0002
0000
0000
0000
0000
0000
0103
0000
0000
0010
0000
0100
,
0000
0000
2010
0000
0000
0000
3100
0000
0000
0001
0000
0000
0100
0000
0000
0010
0000
0000
0001
0000
0000
0000
0000
0000
,
1001
0000
0000
0000
0000
1000
0010
0000
0000
0100
0000
0000
0010
0000
0000
0001
0000
0000
0010
0000
0000
1000
0000
0000
,
0100
0010
0100
0001
0100
1000
0010
0100
,
0001
0010
0001
0010
0100
1000
0010
1000
0010
0100
0001
1000
,
0002
0010
0000
2003
0010
0000
3002
0100
0000
2003
0100
0000
,
3020
0100
2030
0100
,
3002
0000
0000
0000
0000
0000
0100
0000
0000
0000
0000
0000
0013
0000
0100
0000
0000
0110
0000
0000
1001
0000
0000
1000
,
0002
0000
0000
0000
0000
0000
0013
0000
0000
0100
0000
0000
0010
0000
0000
0001
0000
0000
1000
0000
0001
0000
0000
1010
,
0000
0000
1020
0000
0000
0000
0130
0000
0000
0001
0000
0000
1000
0000
0000
0100
0000
0000
0010
0000
0001
0100
0000
0001
,
0200
0000
0000
0000
0000
0000
0310
0000
0000
1000
0000
0000
0001
0000
0000
0010
0000
0000
0100
0000
1000
0000
0000
1001
,
0000
0000
1002
0000
0000
0000
0103
0000
0000
1000
0000
0000
0100
0000
0000
0010
0000
0000
0100
0000
0001
1000
0000
0001
,
2000
0000
0000
0000
0000
0000
3010
0000
0000
0100
0000
0000
0010
0000
0000
1000
0000
0000
0001
0000
1000
0000
0000
0011
,
0000
0000
0021
0000
0000
0000
0130
0000
0000
1000
0000
0000
0001
0000
0000
0100
0000
0010
0100
0000
0000
0001
0000
0000
,
1001
0000
0000
0000
0000
1000
0100
0000
0000
0001
0000
0000
0100
0000
0000
0000
0000
0100
0010
0000
0000
0001
0000
0000
,
1000
0000
0000
0000
0000
1000
0010
0000
0000
0100
0000
0000
0001
0000
0000
0010
0000
0100
0010
0000
0100
1000
0000
0001
,
1000
0000
0000
0000
0000
0001
0100
0000
0000
1000
0000
0000
0100
0000
0000
0000
0000
0100
0010
0000
0000
1000
0000
0000
,
0001
0000
0000
0000
0000
0001
0010
0000
0000
0100
0000
0000
1000
0000
0000
0010
0000
0100
0010
0000
0100
0001
0000
0000
,
1001
0000
0000
0000
0000
1000
0100
0000
0000
0010
0000
0000
0001
0000
0000
0000
0000
0001
0100
0000
0000
0010
0000
0000
,
1000
0000
0000
0000
0000
1000
0100
0000
0000
0010
0000
0000
0011
0000
0000
0000
0000
0000
1100
0000
0000
0000
0000
0000
,
1001
0000
0000
0000
0000
0001
0010
0000
0000
0100
0000
0000
1000
0000
0000
0010
0000
0100
0010
0000
0000
1000
0000
0000
,
0001
0000
0000
0010
0000
0100
0010
0000
0000
0001
0000
0000
1001
0000
0000
0000
0000
1000
0010
0000
0000
0100
0000
0000
,
0001
0010
0001
0010
1000
0010
1000
0010
0001
0100
0010
0100
,
0010
1000
0010
1000
0010
0001
0010
0001
0010
1000
0100
0010
,
0001
0000
0100
0010
0100
0010
1000
0001
1000
0000
0100
0010
0100
0010
0001
1000
,
0002
0000
0010
0000
0000
0000
2003
0000
0010
0000
0000
0000
3002
0000
0100
0000
0000
0000
2003
0000
0100
3000
0000
0000
,
1001
0000
0000
0000
;
