#TITLE:Euphoria;
#SUBTITLE:;
#ARTIST:Loreen;
#TITLETRANSLIT:;
#SUBTITLETRANSLIT:;
#ARTISTTRANSLIT:;
#GENRE:EURODANCE;
#CREDIT:;
#BANNER:Euphoria.png;
#BACKGROUND:Euphoria-bg.png;
#LYRICSPATH:;
#CDTITLE:cdtitle.png;
#MUSIC:Euphoria.ogg;
#OFFSET:-0.276000;
#SAMPLESTART:90.612000;
#SAMPLELENGTH:15.000000;
#SELECTABLE:YES;
#BPMS:0.000000=132.000000
,72.000000=66.000000
,88.000000=132.000000
,120.000000=66.000000
,136.000000=132.000000
;
#STOPS:
;
#BGCHANGES:-0.500=Euphoria.avi=1.000=0=0=0=StretchNoLoop==CrossFade_Fastest==,
99999=-nosongbg-=1.000=0=0=0 // don't automatically add -songbackground-
;
#KEYSOUNDS:;
#ATTACKS:;

//---------------dance-single - Daff_4K----------------
#NOTES:
     dance-single:
     Daff_4K:
     Beginner:
     1:
     0.070942,0.115872,0.057936,0.000000,0.000000,60.000000,53.000000,7.000000,0.000000,0.000000,0.000000,0.070942,0.115872,0.057936,0.000000,0.000000,60.000000,53.000000,7.000000,0.000000,0.000000,0.000000:
// measure 0
0000
0000
0000
0000
,  // measure 1
0000
0000
0000
0000
,  // measure 2
1000
0000
0000
0000
,  // measure 3
0000
0000
0000
0000
,  // measure 4
1000
0000
1000
0000
,  // measure 5
0000
0000
0000
0000
,  // measure 6
0001
0000
0000
0000
,  // measure 7
0000
0000
0000
0000
,  // measure 8
0001
0000
0001
0000
,  // measure 9
0000
0000
0000
0000
,  // measure 10
1000
0000
0000
0000
,  // measure 11
0000
0000
0000
0000
,  // measure 12
0010
0000
0010
0000
,  // measure 13
0000
0000
0000
0000
,  // measure 14
0001
0000
0000
0000
,  // measure 15
0000
0000
0000
0000
,  // measure 16
0010
0000
0010
0000
,  // measure 17
0000
0000
0000
0000
,  // measure 18
1001
0000
0000
0000
,  // measure 19
0000
0000
0000
0000
,  // measure 20
1000
0000
0000
0000
,  // measure 21
0001
0000
0000
0000
,  // measure 22
1001
0000
0000
0000
,  // measure 23
0000
0000
0000
0000
,  // measure 24
1000
0000
1000
0000
,  // measure 25
1000
0000
0000
0000
,  // measure 26
0001
0000
0001
0000
,  // measure 27
0001
0000
0000
0000
,  // measure 28
0010
0000
0010
0000
,  // measure 29
0010
0000
0000
0000
,  // measure 30
1001
0000
0000
0000
,  // measure 31
0000
0000
0000
0000
,  // measure 32
0001
0000
0000
0000
,  // measure 33
1000
0000
0000
0000
,  // measure 34
1001
0000
0000
0000
,  // measure 35
0000
0000
0000
0000
,  // measure 36
0001
0000
0000
0000
,  // measure 37
0000
0000
0000
0000
,  // measure 38
1000
0000
0000
0000
,  // measure 39
0000
0000
0000
0000
,  // measure 40
0010
0000
0010
0000
,  // measure 41
0010
0000
0000
0000
,  // measure 42
1001
0000
0000
0000
,  // measure 43
0000
0000
0000
0000
,  // measure 44
0001
0000
0001
0000
,  // measure 45
0001
0000
0000
0000
,  // measure 46
1000
0000
1000
0000
,  // measure 47
1000
0000
0000
0000
,  // measure 48
0010
0000
0010
0000
,  // measure 49
0010
0000
0000
0000
,  // measure 50
1001
0000
0000
0000
,  // measure 51
0001
0000
0000
0000
,  // measure 52
1000
0000
1000
0000
,  // measure 53
1000
0000
0000
0000
,  // measure 54
0100
0000
0100
0000
,  // measure 55
0100
0000
0000
0000
,  // measure 56
1001
0000
0000
0000
;

//---------------dance-single - Daff_4K----------------
#NOTES:
     dance-single:
     Daff_4K:
     Easy:
     3:
     0.120601,0.189533,0.016553,0.091042,0.000000,102.000000,100.000000,2.000000,11.000000,0.000000,0.000000,0.120601,0.189533,0.016553,0.091042,0.000000,102.000000,100.000000,2.000000,11.000000,0.000000,0.000000:
0000
0000
0000
0000
,
0000
0000
0000
0000
,
0010
0000
0000
0000
,
0000
0000
1000
0001
,
1000
0000
0100
0000
,
0000
0000
0000
0000
,
0010
0000
0000
0000
,
0000
0000
0001
1000
,
0001
0000
0100
0000
,
0000
0000
0000
0000
,
0001
0000
0010
0000
,
0000
0001
0100
0001
,
1000
0000
0001
0000
,
0000
0000
0000
0000
,
1000
0000
0010
0000
,
0000
1000
0100
1000
,
0001
0000
1000
0000
,
0000
0000
0000
0000
,
0020
0000
0030
0000
,
0100
0001
1000
0000
,
0100
1000
0001
0000
,
0010
0010
0010
0000
,
0002
0000
0000
0000
,
1003
0000
0001
1000
,
0010
0000
0100
0000
,
0010
0000
1000
0001
,
0010
0000
0100
0000
,
0010
0000
0001
1000
,
0010
0010
0010
0010
,
0010
0020
0030
0000
,
1001
0000
0000
0000
,
1000
0000
0000
0000
,
0001
0000
0000
0000
,
1000
0000
0000
0000
,
0002
0000
0000
0000
,
0003
0000
0000
0000
,
2000
0000
0000
0000
,
3000
0000
0000
0000
,
0100
0000
0100
0000
,
0010
0000
0010
0000
,
2002
0000
0000
0000
,
0000
3003
0000
0000
,
2000
0000
0000
0000
,
3001
0000
1000
0001
,
0010
0000
0100
0000
,
0010
0000
0001
1000
,
0010
0000
0100
0000
,
0010
0000
1000
0001
,
0010
0010
0010
0010
,
0010
0020
0030
0000
,
0002
0000
0000
0000
,
1003
0000
0001
0100
,
0010
0000
1000
0000
,
0001
0000
1000
0100
,
0010
0000
0001
0000
,
1000
0000
0001
0100
,
0020
0000
0000
0000
,
0000
0030
0000
0000
;

//---------------dance-single - Daff_4K----------------
#NOTES:
     dance-single:
     Daff_4K:
     Medium:
     6:
     0.174990,0.236917,0.091042,0.430382,0.000000,148.000000,137.000000,11.000000,52.000000,0.000000,0.000000,0.174990,0.236917,0.091042,0.430382,0.000000,148.000000,137.000000,11.000000,52.000000,0.000000,0.000000:
0000
0000
0000
0000
,
0000
0000
0000
0000
,
2002
0000
3003
0000
,
0000
1000
0001
1000
,
0020
0000
0000
0200
0000
0000
0000
0000
,
0330
0000
0000
0000
,
2002
0000
3003
0000
,
0000
0001
1000
0001
,
0020
0000
0000
0200
0000
0000
0000
0000
,
0330
0000
0000
0000
,
2001
0000
0020
0000
,
3030
1000
0001
0010
,
0200
0000
0000
0020
0000
0000
0330
0000
,
0000
0000
0001
1000
,
1002
0000
0020
0000
,
0033
0001
1000
0010
,
0200
0000
0000
0020
0000
0000
0000
0000
,
0000
0000
0330
0110
,
1002
0000
0023
0000
,
2030
0000
3020
0000
,
0032
0000
0203
0000
,
0010
0010
0010
0310
,
2000
0010
0001
3100
,
1000
0000
0000
0000
0001
0000
0100
0001
,
0200
0000
0000
0010
0000
0000
0020
0000
,
0330
0000
0000
0000
1000
0000
0100
1000
,
0200
0000
0000
0010
0000
0000
0020
0000
,
0330
0000
0000
0000
0001
0000
1000
0001
,
0200
0010
0010
0010
,
0010
0310
1000
0001
,
2002
0000
0003
0000
,
0200
0000
3300
0000
,
2002
0000
3000
0000
,
0200
0000
0303
0000
,
2001
0000
0000
0000
,
3200
0000
0000
0000
,
0320
0000
0000
0000
,
0032
0000
0000
0000
,
0203
0000
0320
0000
,
2030
0000
3001
0000
,
0220
0000
0000
0000
,
0000
0330
0000
0000
,
0002
0010
1000
0103
,
0001
0000
0000
0000
1000
0000
0010
0100
,
0020
0000
0000
1000
0000
0000
2000
0000
,
3030
0000
0000
0000
0001
0000
0010
0100
,
0020
0000
0000
0001
0000
0000
0002
0000
,
0033
0000
0000
0000
1000
0000
0001
1000
,
0200
0010
0010
0010
,
0010
0310
0001
1000
,
0002
0100
1000
0010
,
2003
0100
0001
0010
,
3001
1000
0001
0010
,
0001
1000
0010
1000
,
0001
1000
0100
0001
,
0100
1000
0001
0100
,
0210
0000
0000
0010
0000
0000
0010
0000
,
0010
0310
0000
0000
;

//---------------dance-single - Daff_4K----------------
#NOTES:
     dance-single:
     Daff_4K:
     Hard:
     10:
     0.288498,0.332408,0.091042,0.662126,0.124149,244.000000,233.000000,11.000000,80.000000,0.000000,0.000000,0.288498,0.332408,0.091042,0.662126,0.124149,244.000000,233.000000,11.000000,80.000000,0.000000,0.000000:
0000
0000
0000
0000
,
0000
0000
0000
0000
,
2002
0000
3003
0000
,
0001
0000
1000
0000
0001
0100
0001
0100
,
0020
0000
0000
1000
0000
0000
2000
0000
0000
0000
0000
0000
0000
0000
0000
0000
,
3030
0000
0000
0000
,
2002
0000
3003
0000
,
1000
0000
0001
0000
1000
0100
1000
0100
,
0020
0000
0000
0001
0000
0000
0002
0000
0000
0000
0000
0000
0000
0000
0000
0000
,
0033
0000
0000
0000
,
2002
0003
0020
3000
,
0100
0000
0130
0000
0001
1000
0001
1000
,
0200
0000
0000
0010
0000
0000
0020
0000
0000
0000
0000
0000
0330
0000
0000
0000
,
0001
0100
0010
1000
,
2002
3000
0020
0003
,
0100
0000
0130
0000
1000
0001
1000
0001
,
0200
0000
0000
0010
0000
0000
0020
0000
0000
0000
0000
0000
0330
0000
0000
0000
,
2000
3002
0023
0130
,
2002
0000
0003
0000
3010
0000
1000
0100
,
0001
0000
0000
0200
0000
0000
2000
0000
0000
3300
0000
0000
0001
0000
0100
0000
,
1000
0000
0000
0200
0000
0000
0002
0000
0000
0303
0000
0000
1000
0000
0200
0000
,
0010
0010
0010
0010
0010
0020
0330
0001
,
2000
0000
0010
0000
0001
0000
3100
1000
,
0020
0000
0130
0000
0001
1000
0001
0010
,
0200
0000
1300
0002
0000
0103
0020
0000
,
1000
0000
0100
0000
1030
0001
1000
0010
,
0200
0000
0301
2000
0000
3100
0020
0000
,
0001
0000
0100
0000
0031
1000
0001
0100
,
0020
0000
0000
1030
0000
0000
0020
0000
0000
0130
0000
0000
0020
0000
0000
0031
,
0000
0000
0020
0000
0000
1030
0000
0000
0200
0000
0000
0000
0310
0000
0000
0000
,
2002
0000
0003
3020
,
0200
0000
0330
0000
,
2002
0000
3000
0023
,
0200
0030
2300
3001
,
2002
0000
0000
0003
,
0020
3000
0200
0030
,
0002
0300
0020
0003
,
0200
0030
2000
0300
,
3020
1000
0100
1000
,
0230
0000
0001
0000
0010
0000
0301
1000
,
0200
0000
0000
0010
0000
0000
0010
0000
0000
0010
0000
0000
0010
0000
0000
0010
,
0000
0020
0000
0000
0330
0000
0110
0000
,
1002
0000
0010
0000
1000
0000
0103
0010
,
2000
0000
3001
0000
1000
0100
1000
0001
,
0200
0000
0310
2000
0000
3100
0020
0000
,
0001
0000
0100
0000
0031
0100
0001
1000
,
0200
0000
0310
0002
0000
0103
0020
0000
,
1000
0000
0100
0000
1030
0001
1000
0100
,
0020
0000
0000
0031
0000
0000
0020
0000
0000
0130
0000
0000
0020
0000
0000
1030
,
0000
0000
0020
0000
0000
0031
0000
0000
0200
0000
0000
0000
0310
0000
0000
0000
,
2001
0000
0010
0000
0100
0000
3001
1000
,
0200
0000
0000
0000
0310
0000
0000
0001
1000
0000
0001
0000
0100
0000
0010
0000
,
1000
0000
0000
0001
0000
0000
1000
0000
0000
0100
0000
0000
0010
0000
0000
0010
,
0000
0000
0001
0000
0000
0001
0000
1000
0001
0000
1000
0000
0100
0000
0010
0000
,
0001
0000
0000
1000
0000
0000
0001
0000
0000
0100
0000
0000
0010
0000
0000
0010
,
0000
0000
1000
0000
0000
1000
0000
0000
0100
0000
0010
0000
0001
0000
0200
0000
,
0010
0000
0000
0010
0000
0000
0010
0000
0000
0010
0000
0000
0010
0000
0000
0010
,
0000
0020
0000
0330
0000
0000
0000
0000
;

//---------------dance-single - Daff_4K↑----------------
#NOTES:
     dance-single:
     Daff_4K↑:
     Challenge:
     11:
     0.367716,0.474868,0.190361,0.595913,0.223467,311.000000,288.000000,23.000000,72.000000,0.000000,0.000000,0.367716,0.474868,0.190361,0.595913,0.223467,311.000000,288.000000,23.000000,72.000000,0.000000,0.000000:
0000
0000
0000
0000
,
0000
0000
0000
0000
,
2002
0000
3003
0000
,
0001
0000
1000
0001
1000
0010
0100
0010
,
1000
0000
0000
0200
0000
0000
0002
0000
0000
0000
0000
0000
0303
0000
0000
0000
,
0100
0010
0001
1000
,
2002
0000
3003
0000
,
1000
0000
0001
1000
0001
0010
0100
0010
,
0001
0000
0000
0200
0000
0000
2000
0000
0000
0000
0000
0000
3300
0000
0000
0000
,
0100
0010
1000
0001
,
0022
0003
0200
0300
,
1030
0000
0010
0000
0001
0010
0001
0100
,
0020
0000
0000
0100
0000
0000
2000
0000
0000
0000
0000
0000
3030
0000
0000
0000
,
1000
0000
0001
0000
0010
0000
0100
2000
,
0020
3000
0200
0300
,
0031
0000
0010
0000
1000
0010
1000
0100
,
0020
0000
0000
0100
0000
0000
0002
0000
0000
0000
0000
0000
0033
0000
0000
0000
,
0002
2003
3020
0130
,
2002
0000
0000
0000
0003
0000
0100
0200
3300
0000
0000
1000
0001
0100
0001
0010
,
2000
0000
0000
3020
0000
0000
0002
0000
0000
0033
0000
0001
1000
0100
1000
0010
,
0002
0000
0000
0023
0000
0000
2000
0000
0000
3030
0000
0000
1000
0001
1000
0200
,
0010
0000
0000
0010
0000
0000
0010
0000
0000
0010
0000
0000
0010
0000
0000
0010
0000
0000
0020
0000
0330
0000
0000
0000
0001
0000
0000
0000
1000
0000
0000
0000
,
1020
0000
0100
0000
0031
0000
0010
1000
,
0200
0000
0000
0000
0310
0000
0000
0001
1000
0000
0001
0000
0010
0000
1000
0000
,
0002
0000
0103
2000
0000
3010
0200
0000
,
1000
0000
0000
0000
0301
0000
0000
1000
0001
0000
1000
0000
0010
0000
0001
0000
,
2000
0000
3100
0002
0000
0013
0200
0000
,
0001
0000
1300
0000
0001
1000
0010
0100
,
0001
0000
0000
0011
0000
0000
1000
0000
0000
1010
0000
0000
0001
0000
0000
1000
,
0000
0000
1001
0000
0000
0001
0000
0000
0200
0000
0000
0000
0310
0000
0000
0000
,
2002
0000
0000
0000
0003
0000
0000
0000
3200
0000
0000
0000
0310
0000
0001
1000
,
0020
0000
0000
0100
0000
0000
0200
0000
0000
0000
0000
0000
0000
0000
0000
0000
0330
0000
0000
0000
0000
0000
0000
0000
0001
0000
0000
0000
1000
0000
0000
0000
,
2002
0000
0000
0000
3000
0000
0000
0000
0203
0000
0000
0000
0310
0000
1000
0001
,
0020
0000
0000
0100
0000
0000
0200
0000
0000
0000
0000
0000
0330
0000
0000
0000
0100
0000
0000
0000
1000
0000
0000
0000
0010
0000
0000
0000
0100
0000
0000
0000
,
0002
0000
0010
0000
1000
0000
0103
0010
,
2000
0100
0001
0010
,
3200
0001
0010
1000
,
0320
0000
1000
0000
0100
0000
0031
1000
,
0020
0001
0100
1000
,
0230
0000
1000
0000
0010
0000
0301
1000
,
0200
0000
0000
0010
0000
0000
0010
0000
0000
0010
0000
0000
0010
0000
0000
0010
,
0000
0020
0000
0000
0330
0000
0110
0000
,
1002
0000
0010
0000
1000
0000
0103
0010
,
2000
0000
0000
0000
3001
0000
0000
1000
0100
0000
0010
0000
0100
0000
0001
0000
,
2000
0000
3010
0200
0000
1300
0002
0000
,
0100
0000
0000
0000
1003
0000
0000
0001
0100
0000
0010
0000
0100
0000
1000
0000
,
0002
0000
0013
0200
0000
0301
2000
0000
,
0100
0000
0001
0000
3010
1000
0001
1000
,
0100
0000
0000
0110
0000
0000
0001
0000
0000
0011
0000
0000
1000
0000
0000
1010
,
0000
0000
0001
0000
0000
1000
0000
0000
0200
0000
0000
0000
0310
0000
0000
0000
,
2001
0000
0010
0000
0001
0000
3100
0010
,
0002
0000
0000
0000
1003
0000
0000
0001
0100
0000
0010
0000
0100
0000
0001
0000
,
1000
0000
0100
1000
0000
0000
0001
0000
0010
0001
0000
0000
0100
0000
0000
0100
,
0000
0000
0010
0000
0000
0010
0000
1000
0100
0000
0010
0000
0100
0000
1000
0000
,
0001
0000
0100
0001
0000
0000
1000
0000
0010
1000
0000
0000
0100
0000
0000
0100
,
0000
0000
0010
0000
0000
0010
0000
0000
0001
0000
1000
0000
0001
0000
0100
0000
,
0110
0000
0000
1010
0000
0000
0110
0000
0000
0011
0000
0000
0110
0000
0000
1010
,
0000
2002
0000
3003
0000
0000
0000
0000
;
