#VERSION:0.83;
#TITLE:Elisha;
#SUBTITLE:;
#ARTIST:DJ YOSHITAKA;
#TITLETRANSLIT:;
#SUBTITLETRANSLIT:;
#ARTISTTRANSLIT:;
#GENRE:TRANCE CORE;
#ORIGIN:;
#CREDIT:;
#BANNER:Elisha.png;
#BACKGROUND:Elisha-bg.png;
#PREVIEWVID:;
#JACKET:Elisha-jacket.png;
#CDIMAGE:;
#DISCIMAGE:;
#LYRICSPATH:;
#CDTITLE:cdtitle.png;
#MUSIC:Elisha.ogg;
#OFFSET:-0.156000;
#SAMPLESTART:77.953003;
#SAMPLELENGTH:15.000000;
#SELECTABLE:YES;
#BPMS:0.000=185.000;
#STOPS:;
#DELAYS:;
#WARPS:;
#TIMESIGNATURES:0.000=4=4;
#TICKCOUNTS:0.000=4;
#COMBOS:0.000=1;
#SPEEDS:0.000=1.000=0.000=0;
#SCROLLS:0.000=1.000;
#FAKES:;
#LABELS:0.000=Song Start;
#BGCHANGES:0.000=Elisha.avi=1.000=0=0=0=StretchNoLoop==CrossFade_Fastest==,
99999=-nosongbg-=1.000=0=0=0 // don't automatically add -songbackground-
;
#KEYSOUNDS:;
#ATTACKS:
;

//---------------dance-single - Daff_4K----------------
#NOTEDATA:;
#CHARTNAME:Daff_4K;
#STEPSTYPE:dance-single;
#DESCRIPTION:Daff_4K;
#CHARTSTYLE:;
#DIFFICULTY:Beginner;
#METER:2;
#RADARVALUES:0.108409,0.185679,0.064584,0.000000,0.000000,94.000000,86.000000,8.000000,0.000000,0.000000,0.000000,0.000000,0.000000,0.000000,0.108409,0.185679,0.064584,0.000000,0.000000,94.000000,86.000000,8.000000,0.000000,0.000000,0.000000,0.000000,0.000000,0.000000;
#CREDIT:Daff_4K;
#NOTES:
// measure 0
0000
0000
0000
0000
,  // measure 1
0000
0000
0000
0000
,  // measure 2
0000
0000
0000
0000
,  // measure 3
0000
0000
0000
0000
,  // measure 4
1000
0000
0000
0000
,  // measure 5
0001
0000
0000
0000
,  // measure 6
1000
0000
0000
0000
,  // measure 7
1001
0000
0000
0000
,  // measure 8
0001
0000
0000
0000
,  // measure 9
0100
0000
0100
0000
,  // measure 10
0100
0000
0000
0000
,  // measure 11
0010
0000
0010
0000
,  // measure 12
0010
0000
0000
0000
,  // measure 13
1000
0000
0000
0000
,  // measure 14
0100
0000
0100
0000
,  // measure 15
0100
0000
0000
0000
,  // measure 16
1001
0000
0000
0000
,  // measure 17
0000
0000
0000
0000
,  // measure 18
0001
0000
0000
0000
,  // measure 19
0000
0000
0000
0000
,  // measure 20
0100
0000
0000
0000
,  // measure 21
0000
0000
0000
0000
,  // measure 22
0010
0000
0000
0000
,  // measure 23
1000
0000
0000
0000
,  // measure 24
0001
0000
0000
0000
,  // measure 25
0000
0000
0000
0000
,  // measure 26
1000
0000
0000
0000
,  // measure 27
0000
0000
0000
0000
,  // measure 28
0100
0000
0000
0000
,  // measure 29
0000
0000
0000
0000
,  // measure 30
0010
0000
0000
0000
,  // measure 31
0001
0000
0000
0000
,  // measure 32
0100
0000
0000
0000
,  // measure 33
0100
0000
0000
0000
,  // measure 34
0010
0000
0000
0000
,  // measure 35
0010
0000
0000
0000
,  // measure 36
1000
0000
0000
0000
,  // measure 37
1000
0000
0000
0000
,  // measure 38
0001
0000
0000
0000
,  // measure 39
0001
0000
0000
0000
,  // measure 40
0010
0000
0000
0000
,  // measure 41
0100
0000
0000
0000
,  // measure 42
1000
0000
0000
0000
,  // measure 43
0001
0000
0000
0000
,  // measure 44
1000
0000
0000
0000
,  // measure 45
0010
0000
0000
0000
,  // measure 46
0100
0000
0000
0000
,  // measure 47
0001
0000
0000
0000
,  // measure 48
1001
0000
0000
0000
,  // measure 49
0000
0000
0000
0000
,  // measure 50
0000
0000
0000
0000
,  // measure 51
0000
0000
0000
0000
,  // measure 52
1000
0000
1000
0000
,  // measure 53
1000
0000
0000
0000
,  // measure 54
0001
0000
0001
0000
,  // measure 55
0001
0000
0000
0000
,  // measure 56
1001
0000
0000
0000
,  // measure 57
0000
0000
0000
0000
,  // measure 58
0000
0000
0000
0000
,  // measure 59
0000
0000
0000
0000
,  // measure 60
1000
0000
1000
0000
,  // measure 61
1000
0000
0000
0000
,  // measure 62
0001
0000
0000
0000
,  // measure 63
0001
0000
0000
0000
,  // measure 64
0100
0000
0100
0000
,  // measure 65
0100
0000
0000
0000
,  // measure 66
0010
0000
0000
0000
,  // measure 67
1000
0000
0000
0000
,  // measure 68
0001
0000
0001
0000
,  // measure 69
0001
0000
0000
0000
,  // measure 70
1000
0000
0000
0000
,  // measure 71
1000
0000
0000
0000
,  // measure 72
0100
0000
0100
0000
,  // measure 73
0100
0000
0000
0000
,  // measure 74
0010
0000
0000
0000
,  // measure 75
0001
0000
0000
0000
,  // measure 76
1000
0000
1000
0000
,  // measure 77
1000
0000
0000
0000
,  // measure 78
0001
0000
0001
0000
,  // measure 79
0001
0000
0000
0000
,  // measure 80
1001
0000
0000
0000
,  // measure 81
1001
0000
0000
0000
,  // measure 82
0100
0000
0100
0000
,  // measure 83
0100
0000
0000
0000
,  // measure 84
1001
0000
0000
0000
,  // measure 85
0000
0000
0000
0000
,  // measure 86
1000
0000
0000
0000
,  // measure 87
0000
0000
0000
0000
,  // measure 88
0001
0000
0000
0000
,  // measure 89
0000
0000
0000
0000
,  // measure 90
0010
0000
0000
0000
,  // measure 91
0100
0000
0000
0000
,  // measure 92
1001
0000
0000
0000
;

//---------------dance-single - Daff_4K----------------
#NOTEDATA:;
#CHARTNAME:Daff_4K;
#STEPSTYPE:dance-single;
#DESCRIPTION:Daff_4K;
#CHARTSTYLE:;
#DIFFICULTY:Easy;
#METER:5;
#RADARVALUES:0.227197,0.371357,0.064584,0.217970,0.000000,197.000000,189.000000,8.000000,27.000000,0.000000,0.000000,0.000000,0.000000,0.000000,0.227197,0.371357,0.064584,0.217970,0.000000,197.000000,189.000000,8.000000,27.000000,0.000000,0.000000,0.000000,0.000000,0.000000;
#CREDIT:Daff_4K;
#NOTES:
0000
0000
0000
0000
,
0000
0000
0000
0000
,
0000
0000
0000
0000
,
0000
0000
0000
0000
,
1000
0010
1000
0000
,
0001
0010
0001
0000
,
1000
0001
1000
0000
,
1001
0000
0000
0000
,
0001
0100
0001
0000
,
1000
0010
1000
0000
,
0100
0010
0100
0000
,
1000
0001
0010
0100
,
1000
0010
1000
0000
,
0001
0100
0001
0000
,
0010
0100
0010
0100
,
2000
0000
3001
0000
,
0200
0000
0000
0000
,
0000
0000
0000
0300
,
0020
0000
0000
0000
,
0000
0000
0000
0030
,
2000
0000
0000
0000
,
0000
0000
0000
3000
,
0002
0000
0000
0000
,
0000
0000
0000
0003
,
0020
0000
0000
0000
,
0000
0000
0000
0030
,
0200
0000
0000
0000
,
0000
0000
0000
0300
,
2000
0000
0000
0000
,
0000
0000
0000
3000
,
0002
0000
0000
0000
,
0000
0000
0000
0003
,
2000
0000
3010
0000
,
1000
0001
1000
0000
,
0002
0000
0013
0000
,
0001
1000
0001
0000
,
0200
0000
0310
0000
,
1000
0001
1000
0000
,
0100
0010
0100
0000
,
1000
0001
1000
0000
,
0002
0000
0103
0000
,
0001
1000
0001
0000
,
2000
0000
3100
0000
,
1000
0001
1000
0000
,
0020
0000
0130
0000
,
0001
1000
0001
0000
,
0010
0100
0010
0000
,
0001
0000
1000
0000
,
2002
0000
0000
0000
,
0000
0000
0000
0000
,
0000
0000
0000
0000
,
0000
0000
3003
0000
,
0001
0100
0001
0100
,
0010
1000
0010
1000
,
0100
0010
0001
1000
,
0010
0100
0001
1000
,
2002
0000
0000
0000
,
0000
0000
0000
0000
,
0000
0000
0000
0000
,
0000
0000
3003
0000
,
0001
0001
0100
0000
,
0010
0010
1000
0001
,
1000
1000
0100
0000
,
0010
0010
0001
1000
,
0010
0010
0100
0000
,
0001
1000
0001
1000
,
0100
0010
0100
0000
,
1000
1000
0001
0001
,
1000
1000
0010
0000
,
0100
0100
0001
1000
,
0001
0001
0010
0000
,
0100
0100
1000
0001
,
0100
0100
0010
0000
,
1000
0001
1000
0001
,
0010
0100
0010
0001
,
2000
0000
3001
0000
,
1000
0010
1000
1000
,
0001
0010
0001
0001
,
0100
0100
0010
0010
,
1000
0001
1000
0001
,
0020
0100
0130
0000
,
2000
0001
3001
0000
,
0110
0000
1001
0000
,
0010
0100
0110
0000
,
2002
0000
0000
0000
,
0000
0000
0000
0000
,
0000
0000
0000
0000
,
3003
0000
0000
0000
,
0020
0000
0000
0000
,
0000
0000
0000
0030
,
2000
0000
0000
3000
,
0002
0000
0000
0003
,
1001
0000
0000
0000
;

//---------------dance-single - Daff_4K----------------
#NOTEDATA:;
#CHARTNAME:Daff_4K;
#STEPSTYPE:dance-single;
#DESCRIPTION:Daff_4K;
#CHARTSTYLE:;
#DIFFICULTY:Medium;
#METER:9;
#RADARVALUES:0.354058,0.594171,0.290627,0.524744,0.000000,307.000000,271.000000,36.000000,65.000000,0.000000,0.000000,0.000000,0.000000,0.000000,0.354058,0.594171,0.290627,0.524744,0.000000,307.000000,271.000000,36.000000,65.000000,0.000000,0.000000,0.000000,0.000000,0.000000;
#CREDIT:Daff_4K;
#NOTES:
0000
0000
0000
0000
,
0000
0000
0000
0000
,
0000
0000
0000
0000
,
0000
0000
0000
0000
,
0001
0010
0001
0000
1000
0000
0001
0100
,
0001
1000
0010
0010
,
1000
0100
1000
0000
0001
0000
1000
0000
,
2002
0000
0000
3003
,
0001
0100
0001
0000
1000
0000
0001
0010
,
0001
1000
0020
0230
,
0301
1000
0001
0000
0010
0000
0100
1000
,
0200
0000
0320
0000
0031
1000
0001
0000
,
1000
0010
1000
0000
0001
0000
1000
0100
,
1000
0001
0200
0310
,
1001
0000
0000
1100
0000
0011
0000
0001
,
2000
3020
0230
0301
,
2001
0000
0000
0000
,
0000
0000
0000
0000
,
3200
0000
0000
0000
,
0000
0000
0000
0000
,
0320
0000
0000
0000
,
0000
0000
0000
0000
,
0032
0000
0000
0000
,
2003
0000
0000
0000
,
3002
0000
0000
0000
,
0000
0000
0000
0000
,
0203
0000
0000
0000
,
0000
0000
0000
0000
,
0320
0000
0000
0000
,
0000
0000
0000
0000
,
2030
0000
0000
0000
,
3002
0000
0000
0000
,
1003
0100
0000
1000
0100
0000
0020
0000
,
0031
0000
1000
0001
0000
2000
0000
3010
,
0000
0100
0000
0001
0100
0000
0002
0000
,
1003
0000
0100
0010
0000
0200
0000
0310
,
0000
0001
0000
1000
0001
0000
2000
0000
,
3010
0000
0100
0001
0000
0200
0000
0301
,
0000
0010
0000
0100
0010
0000
0200
0000
,
1300
0000
0010
0100
0000
0010
0000
1000
,
0001
0010
0000
0001
0010
0000
0200
0000
,
1300
0000
0001
1000
0000
0002
0000
0103
,
0000
0010
0000
1000
0010
0000
2000
0000
,
3001
0000
0010
0100
0000
0020
0000
0130
,
0000
1000
0000
0001
1000
0000
0002
0000
,
0103
0000
0010
1000
0000
0020
0000
1030
,
0000
0100
0000
0010
0100
0000
0020
0000
,
0032
0203
0320
1030
,
2002
0000
0000
0000
,
0000
0000
0000
0000
,
0000
0000
0000
0000
,
0000
0000
0000
3003
,
0001
0010
0001
0000
1000
0010
1000
0000
,
0001
0100
0001
0000
1000
0100
1000
0000
,
0020
0130
0002
1003
,
0200
0310
0002
1003
,
2002
0000
0000
0000
,
0000
0000
0000
0000
,
0000
0000
0000
0000
,
0000
0000
3003
0000
,
0001
0100
0000
0010
0100
0000
0002
0000
,
1003
0000
0001
0010
0000
0110
0000
1001
,
0000
1000
0000
0001
0100
0000
0020
0000
,
1030
0000
0001
1000
0000
1100
0000
0011
,
0000
0001
0000
1000
0001
0000
0200
0000
,
0310
0000
1000
0001
0000
0011
0000
1100
,
0000
1000
0000
0001
0100
0000
0002
0000
,
1003
0000
0001
0100
0000
0110
0000
0010
,
1000
0010
0000
0100
0010
0000
2000
0000
,
3001
0000
1000
0100
0000
0110
0000
1001
,
0000
0001
0000
1000
0010
0000
0200
0000
,
0301
0000
1000
0001
0000
0011
0000
1100
,
0000
1000
0000
0001
1000
0000
0020
0000
,
0130
0000
0001
1000
0000
1100
0000
0011
,
0000
0001
0000
1000
0010
0000
2000
0000
,
3002
0000
0023
0000
0130
1000
0001
0000
,
0100
0010
0100
0000
0001
0000
0011
0000
,
1000
1010
0001
0101
,
1000
1100
0010
0110
,
0001
1000
0110
1001
,
1100
0011
2002
3003
,
0101
1010
2002
3003
,
0001
0000
1000
0001
0000
0011
0000
1100
,
0000
1000
0001
0000
0200
0000
0310
0000
,
2001
0000
0000
0000
,
0000
0000
0000
0000
,
3200
0000
0000
0000
,
0000
0000
0000
0000
,
0320
0000
0000
0000
,
0000
0000
0000
0000
,
0032
0000
0000
0000
,
2000
0000
0000
0000
,
3003
0000
0000
0000
;

//---------------dance-single - Daff_4K----------------
#NOTEDATA:;
#CHARTNAME:Daff_4K;
#STEPSTYPE:dance-single;
#DESCRIPTION:Daff_4K;
#CHARTSTYLE:;
#DIFFICULTY:Hard;
#METER:12;
#RADARVALUES:0.502831,0.668443,0.427868,0.548963,0.060547,436.000000,383.000000,53.000000,68.000000,0.000000,0.000000,0.000000,0.000000,0.000000,0.502831,0.668443,0.427868,0.548963,0.060547,436.000000,383.000000,53.000000,68.000000,0.000000,0.000000,0.000000,0.000000,0.000000;
#CREDIT:Daff_4K;
#NOTES:
0000
0000
0000
0000
,
0000
0000
0000
0000
,
0000
0000
0000
0000
,
0000
0000
0000
0000
,
1000
0001
0200
0000
0301
0000
0001
1000
,
0200
0310
1100
0011
,
0001
1000
0020
0000
1030
0000
1000
0001
,
0011
0000
1100
0000
1000
0010
0100
0001
,
1000
0100
0010
0000
2100
0000
3001
0100
,
0010
0102
0013
1100
,
1000
0001
0100
0000
2010
0000
3001
1000
,
0100
0000
0011
0000
0001
1000
0010
0100
,
0001
0010
0100
0000
0012
0000
1003
0010
,
0100
0000
2010
0000
3100
0010
0001
1000
,
1001
0000
0010
0110
0000
1001
0000
0100
,
0110
0000
1001
0000
0001
0100
0010
1000
,
0200
0000
0000
0000
,
0000
0000
0000
0000
0310
0001
1000
0001
,
2000
0000
0000
0000
,
0000
0000
0000
0000
3010
0100
0001
0100
,
0002
0000
0000
0000
,
0000
0000
0000
0000
1003
0100
1000
0100
,
0020
0000
0000
0000
,
0032
0000
0000
0000
,
2003
0000
0000
0000
,
0000
0000
0000
0000
3010
0100
0010
0100
,
0002
0000
0000
0000
,
0000
0000
0000
0000
0013
0100
0010
0100
,
2000
0000
0000
0000
,
0000
0000
0000
0000
3001
0100
0010
0100
,
0020
0000
0000
0000
,
2030
0000
0000
0000
,
3001
0010
0000
0001
1000
0000
0002
0000
,
0203
0000
0310
1000
0000
0002
0000
0023
,
0000
0130
0000
1000
0001
0000
2000
0000
,
3020
0000
0130
0001
0000
2000
0000
3100
,
0010
0100
0000
1000
0001
0000
0200
0000
,
0320
0000
1030
0001
0000
0020
0000
0230
,
0000
1300
0000
0001
1000
0000
0020
0000
,
0230
0000
0301
2000
0000
3100
0010
0001
,
1000
0100
0000
1000
0001
0000
2000
0000
,
3020
0000
0130
0001
0000
2000
0000
3200
,
0000
0310
0000
0001
1000
0000
0002
0000
,
0203
0000
0310
1000
0000
0002
0000
0013
,
0100
0010
0000
0001
1000
0000
0020
0000
,
0230
0000
0301
1000
0000
0200
0000
0320
,
0000
0031
0000
1000
0001
0000
0020
0000
,
0230
0000
1300
0001
0200
0000
0310
0000
,
2001
0000
0000
0000
0010
0000
0000
0000
0100
0000
0000
0100
0000
0000
0100
0000
,
0000
0000
0010
0000
0010
0000
0000
0000
0001
0000
0000
0001
0000
0000
0001
0000
,
0000
0000
0100
0000
0100
0000
0000
0000
0010
0000
0000
0010
0000
0000
0010
0000
,
0000
0000
0100
0000
0100
0000
0000
0000
0001
0000
0000
0001
0000
0000
3001
0000
,
1000
0010
0001
0010
1000
0001
0010
1000
,
0010
0001
1000
0100
0010
0001
0100
0010
,
1000
0001
0020
0000
0130
1000
0020
0000
,
0130
0001
0010
0100
1000
0010
0100
0001
,
2002
0000
0000
0000
,
0000
0000
0000
0000
,
0000
0000
0000
0000
,
0000
3003
0110
1001
,
0001
0100
0010
1000
0100
0000
1100
0000
,
0011
0000
0001
1000
0000
0101
0000
0100
,
0010
1000
0001
1000
0100
0000
0011
0000
,
1100
0000
1000
0001
0000
0101
0000
0010
,
1000
0001
1000
0100
0010
0000
0110
0000
,
1001
0000
0001
0100
0000
0110
0000
1001
,
0000
1100
0000
0010
0001
0000
0101
0000
,
1010
0000
1000
0001
0000
0011
0000
1100
,
1000
0010
0100
0001
0010
0000
0011
0000
,
1100
0000
1000
0001
0000
1010
0000
0010
,
0100
0001
1000
0001
0010
0000
1100
0000
,
0011
0000
0001
1000
0000
1010
0000
0100
,
0001
1000
0001
0010
0100
0000
0110
0000
,
1001
0000
1000
0010
0000
0110
0000
1001
,
0000
0011
0000
0100
1000
0000
1001
0000
,
0110
0000
1001
0000
0010
0100
0010
0000
,
1000
0000
0100
0000
0010
0000
0001
0000
2000
0000
0000
0010
0000
0000
0001
0000
,
3002
0000
0000
0010
0000
0000
1000
0000
2003
0000
0000
0100
0000
0000
0001
0000
,
3002
0000
0000
0100
0000
0000
1000
0000
2003
0000
0000
0001
0000
0000
0010
0000
,
3020
0000
0000
0230
0000
0000
0302
0000
0000
2003
0000
0000
3100
0000
0010
0000
,
0001
0000
0100
0010
0000
0100
0010
0000
2000
0000
0000
0000
3001
0000
0000
0000
,
1000
0000
0100
0010
0000
0100
0010
0000
0002
0000
0000
0000
1003
0000
0001
0000
,
1000
0100
0010
0011
0000
1100
0000
1000
,
1002
0000
0103
0000
0010
1000
0001
0000
,
2001
0000
0000
0000
,
0000
0000
0000
0000
3100
0010
0100
0010
,
0002
0000
0000
0000
,
0000
0000
0000
0000
0103
0010
0100
0010
,
2000
0000
0000
0000
,
0000
0000
0000
0000
3001
1000
0001
1000
,
0200
0000
0000
0000
,
0020
0000
0000
0000
,
0330
0000
0000
0000
;
