#VERSION:0.83;
#TITLE:電車で電車でGO!GO!GO!GC!;
#SUBTITLE:-GMT remix-;
#ARTIST:Remixed By COSIO feat. 沢城千春;
#TITLETRANSLIT:Densha de Densha de GO!GO!GO!GC!;
#SUBTITLETRANSLIT:;
#ARTISTTRANSLIT:Remixed By COSIO feat. Chiharu Sawashiro;
#GENRE:DENSHA BEAT;
#ORIGIN:;
#CREDIT:;
#BANNER:Densha de Densha de GO!GO!GO!GC! -GMT remix-.png;
#BACKGROUND:Densha de Densha de GO!GO!GO!GC! -GMT remix--bg.png;
#PREVIEWVID:;
#JACKET:Densha de Densha de GO!GO!GO!GC! -GMT remix--jacket.png;
#CDIMAGE:;
#DISCIMAGE:;
#LYRICSPATH:;
#CDTITLE:cdtitle.png;
#MUSIC:Densha de Densha de GO!GO!GO!GC! -GMT remix-.ogg;
#OFFSET:-0.638000;
#SAMPLESTART:7.734000;
#SAMPLELENGTH:15.000000;
#SELECTABLE:YES;
#BPMS:0.000=134.000;
#STOPS:;
#DELAYS:;
#WARPS:;
#TIMESIGNATURES:0.000=4=4;
#TICKCOUNTS:0.000=4;
#COMBOS:0.000=1;
#SPEEDS:0.000=1.000=0.000=0;
#SCROLLS:0.000=1.000;
#FAKES:;
#LABELS:0.000=Song Start;
#BGCHANGES:0.000=Densha de Densha de GO!GO!GO!GC! -GMT remix-.avi=1.000=0=0=0=StretchNoLoop==CrossFade_Fastest==,
99999=-nosongbg-=1.000=0=0=0 // don't automatically add -songbackground-
;
#KEYSOUNDS:;
#ATTACKS:
;

//---------------dance-single - Daff_4K----------------
#NOTEDATA:;
#CHARTNAME:Daff_4K;
#STEPSTYPE:dance-single;
#DESCRIPTION:Daff_4K;
#CHARTSTYLE:;
#DIFFICULTY:Beginner;
#METER:2;
#RADARVALUES:0.100707,0.160621,0.017847,0.000000,0.000000,79.000000,77.000000,2.000000,0.000000,0.000000,0.000000,0.000000,0.000000,0.000000,0.100707,0.160621,0.017847,0.000000,0.000000,79.000000,77.000000,2.000000,0.000000,0.000000,0.000000,0.000000,0.000000,0.000000;
#CREDIT:Daff_4K;
#NOTES:
// measure 0
0000
0000
0000
0000
,  // measure 1
0000
0000
0000
0000
,  // measure 2
0000
0000
0000
0000
,  // measure 3
0000
0000
0000
0000
,  // measure 4
1000
0000
0000
0000
,  // measure 5
0001
0000
0000
0000
,  // measure 6
1000
0000
0000
0000
,  // measure 7
0010
0010
0010
0010
,  // measure 8
0010
0000
0000
0000
,  // measure 9
0100
0000
0000
0000
,  // measure 10
0010
0000
0000
0000
,  // measure 11
0100
0100
0100
0100
,  // measure 12
0100
0000
0000
0000
,  // measure 13
0000
0000
0000
0000
,  // measure 14
0001
0000
0000
0000
,  // measure 15
0001
0000
0000
0000
,  // measure 16
0100
0000
0100
0000
,  // measure 17
0010
0000
0000
0000
,  // measure 18
1000
0000
0000
0000
,  // measure 19
1000
0000
0000
0000
,  // measure 20
0100
0000
0100
0000
,  // measure 21
0010
0000
0000
0000
,  // measure 22
0001
0000
0000
0000
,  // measure 23
0100
0000
0000
0000
,  // measure 24
0010
0000
0010
0000
,  // measure 25
0010
0000
0000
0000
,  // measure 26
1000
0000
0000
0000
,  // measure 27
0100
0000
0000
0000
,  // measure 28
0010
0000
0010
0000
,  // measure 29
0010
0000
0000
0000
,  // measure 30
0001
0000
0000
0000
,  // measure 31
1000
0000
0000
0000
,  // measure 32
1001
0000
0000
0000
,  // measure 33
0001
0000
0000
0000
,  // measure 34
1000
0000
0000
0000
,  // measure 35
1000
0000
0000
0000
,  // measure 36
0010
0000
0000
0000
,  // measure 37
0010
0000
0000
0000
,  // measure 38
0100
0000
0000
0000
,  // measure 39
0100
0000
0000
0000
,  // measure 40
0001
0000
0000
0000
,  // measure 41
1000
0000
0000
0000
,  // measure 42
0001
0000
0000
0000
,  // measure 43
1000
0000
0000
0000
,  // measure 44
0001
0000
0000
0000
,  // measure 45
0100
0100
0100
0100
,  // measure 46
0100
0000
0000
0000
,  // measure 47
0010
0000
0000
0000
,  // measure 48
0100
0000
0000
0000
,  // measure 49
0010
0010
0010
0010
,  // measure 50
0010
0000
0000
0000
,  // measure 51
1000
0000
0000
0000
,  // measure 52
0001
0000
0000
0000
,  // measure 53
0010
0010
0010
0010
,  // measure 54
0010
0000
0000
0000
,  // measure 55
0001
0000
0000
0000
,  // measure 56
1000
0000
0000
0000
,  // measure 57
0010
0010
0010
0010
,  // measure 58
0010
0000
0000
0000
,  // measure 59
0000
0000
0000
0000
,  // measure 60
1001
0000
0000
0000
;

//---------------dance-single - Daff_4K----------------
#NOTEDATA:;
#CHARTNAME:Daff_4K;
#STEPSTYPE:dance-single;
#DESCRIPTION:Daff_4K;
#CHARTSTYLE:;
#DIFFICULTY:Easy;
#METER:6;
#RADARVALUES:0.284274,0.348012,0.169544,0.062464,0.000000,223.000000,204.000000,19.000000,7.000000,0.000000,0.000000,0.000000,0.000000,0.000000,0.284274,0.348012,0.169544,0.062464,0.000000,223.000000,204.000000,19.000000,7.000000,0.000000,0.000000,0.000000,0.000000,0.000000;
#CREDIT:Daff_4K;
#NOTES:
0000
0000
0000
0000
,
0000
0000
0000
0000
,
0000
0000
0000
0000
,
0000
0000
0000
0000
,
1000
1000
0010
0010
,
0001
0001
0010
0010
,
1000
0100
0010
0001
,
1001
1001
1001
1001
,
0001
0001
0010
0010
,
1000
1000
0010
0010
,
0001
0100
0010
1000
,
1001
1001
1001
1001
,
1000
0100
1000
0001
,
0001
0100
0001
1000
,
1000
0100
0001
0000
,
0001
0100
1000
0000
,
0010
0010
0100
0100
,
0001
1000
1001
0000
,
0001
0100
1000
0000
,
1000
0100
0001
0000
,
0010
0010
0100
0100
,
1000
0001
1001
0000
,
1000
0010
0100
0100
,
0001
0010
0100
0100
,
1000
1000
0001
0001
,
0200
0000
0310
1000
,
0001
0010
0100
0100
,
1000
0010
0100
0100
,
0001
0001
1000
1000
,
0100
0010
0100
0010
,
0001
0001
0100
0010
,
1000
1000
0100
0010
,
0001
0000
0100
0010
,
1000
0000
0100
0010
,
0001
0000
1000
0000
,
0010
0010
0100
0100
,
0001
0010
1000
0000
,
1000
0010
0001
0000
,
1000
0010
0001
0000
,
0001
0010
1000
0000
,
0100
0100
0010
0010
,
0001
1000
0001
1000
,
0020
0000
0230
0000
,
0302
0000
2003
0000
,
3200
0000
0320
0000
,
0130
0100
1000
0001
,
1000
1000
0001
0001
,
0100
0100
0010
0010
,
1000
1000
0001
0001
,
0010
0010
0100
0010
,
0001
0001
0010
1000
,
1000
1000
0010
0001
,
0001
0001
0100
0010
,
0110
0110
1001
1001
,
1000
1000
0010
0001
,
0001
0001
0010
1000
,
1000
1000
0100
0010
,
0110
0110
1001
1001
,
0001
0001
0100
0010
,
1000
1000
0100
0010
,
1001
0000
0000
0000
;

//---------------dance-single - Daff_4K----------------
#NOTEDATA:;
#CHARTNAME:Daff_4K;
#STEPSTYPE:dance-single;
#DESCRIPTION:Daff_4K;
#CHARTSTYLE:;
#DIFFICULTY:Medium;
#METER:8;
#RADARVALUES:0.379882,0.428323,0.392629,0.249855,0.000000,298.000000,254.000000,44.000000,28.000000,0.000000,0.000000,0.000000,0.000000,0.000000,0.379882,0.428323,0.392629,0.249855,0.000000,298.000000,254.000000,44.000000,28.000000,0.000000,0.000000,0.000000,0.000000,0.000000;
#CREDIT:Daff_4K;
#NOTES:
0000
0000
0000
0000
,
0000
0000
0000
0000
,
0000
0000
0000
0000
,
0000
0000
0000
0000
,
1000
1100
0001
0101
,
1000
1010
0001
0011
,
1000
1100
0001
0101
,
0110
0110
1001
1001
,
0001
0101
1000
1100
,
0001
0011
1000
1010
,
0001
0101
1000
1100
,
0110
0110
1001
1001
,
2000
0010
0010
3001
,
0002
0010
0010
1003
,
1000
0010
1000
0000
0100
0000
0010
0000
,
0001
0100
0001
0000
0010
0000
0100
0000
,
1000
0010
1000
0000
0001
0010
0001
0000
,
0100
0010
2002
3003
,
0001
0010
0001
0000
0100
0000
0010
0000
,
1000
0100
1000
0000
0010
0000
0100
0000
,
0001
0010
0001
0000
1000
0010
1000
0000
,
0100
0010
2002
3003
,
0001
1000
0001
0000
0010
0000
0100
0000
,
1000
0001
1000
0000
0100
0000
0010
0000
,
0001
0100
0001
0000
1000
0100
1000
0000
,
0010
0000
0100
0000
0001
1000
0001
0000
,
1000
0001
1000
0000
0010
0000
0100
0000
,
0001
1000
0001
0000
0100
0000
0010
0000
,
1000
0100
1000
0000
0001
0100
0001
0000
,
0010
0000
0100
0000
1000
0001
1000
0000
,
0002
0100
0100
1003
,
2000
0100
0100
3001
,
0002
0100
0100
0013
,
0001
0000
0100
0000
0010
0100
0010
0000
,
2000
0100
0100
3010
,
1000
0000
0100
0000
0010
0100
0010
0000
,
0001
0100
0001
0000
1000
0000
0001
0000
,
1000
0100
1000
0000
0001
0000
1000
0000
,
0010
0100
0010
0000
1000
0000
0001
0000
,
0010
0100
0010
0000
0001
0000
1000
0000
,
0002
0100
0100
1003
,
2000
0100
0100
3001
,
0002
0103
2000
3100
,
0002
0013
2000
3010
,
0002
0103
2000
3100
,
0110
0110
1001
1001
,
2000
3100
0002
0103
,
2000
3010
0002
0013
,
2000
3100
0002
0103
,
0110
0110
1001
1001
,
0001
0000
0101
0000
0010
1000
0010
0000
,
1000
0000
1100
0000
0010
0001
0010
0000
,
0001
0000
1001
0000
0010
0100
0010
0000
,
0110
1001
0110
1001
,
1000
0000
1100
0000
0010
0001
0010
0000
,
0001
0000
0101
0000
0010
1000
0010
0000
,
1000
0000
1001
0000
0010
0100
0010
0000
,
0110
1001
0110
1001
,
2000
3010
0002
0013
,
2000
0000
3100
0000
0002
0000
0103
0001
,
1000
0000
0000
0000
;

//---------------dance-single - Daff_4K----------------
#NOTEDATA:;
#CHARTNAME:Daff_4K;
#STEPSTYPE:dance-single;
#DESCRIPTION:Daff_4K;
#CHARTSTYLE:;
#DIFFICULTY:Hard;
#METER:11;
#RADARVALUES:0.497160,0.481361,0.464016,0.124927,0.142774,390.000000,338.000000,52.000000,14.000000,0.000000,0.000000,0.000000,0.000000,0.000000,0.497160,0.481361,0.464016,0.124927,0.142774,390.000000,338.000000,52.000000,14.000000,0.000000,0.000000,0.000000,0.000000,0.000000;
#CREDIT:Daff_4K;
#NOTES:
0000
0000
0000
0000
,
0000
0000
0000
0000
,
0000
0000
0000
0000
,
0000
0000
0000
0000
,
1001
0000
0000
1000
0100
0000
0000
0100
1000
0000
0001
0000
0100
0000
0000
0000
,
0110
0000
0000
0010
1000
0000
0000
1000
0001
0000
0010
0000
0100
0000
0000
0000
,
1100
0000
0000
1000
0001
0000
0000
0001
0100
0000
0010
0000
1000
0000
0000
0000
,
1100
0011
1100
0011
,
1001
0000
0000
0001
0100
0000
0000
0100
0001
0000
1000
0000
0100
0000
0000
0000
,
0110
0000
0000
0010
0001
0000
0000
0001
1000
0000
0010
0000
0100
0000
0000
0000
,
0101
0000
0000
0001
1000
0000
0000
1000
0100
0000
0010
0000
0001
0000
0000
0000
,
0101
1010
0101
1010
,
2001
0010
0100
3010
,
1002
0010
0100
0013
,
0001
1000
0010
0000
0001
0010
1000
0000
,
0100
0001
1000
0000
0001
0100
1000
0000
,
0001
0100
1000
0010
1000
0100
0001
1000
,
0200
0000
0310
0000
0001
1000
0001
0000
,
1000
0001
0010
0000
1000
0010
0001
0000
,
0100
1000
0001
0000
1000
0100
0001
0000
,
1000
0100
0001
0010
0001
0100
1000
0001
,
0200
0000
0310
1000
0001
0000
1001
0000
,
1000
0100
0010
0001
0100
1000
0100
0000
,
0001
0010
0100
1000
0010
0001
0010
1000
,
0001
0000
0110
0000
1000
0001
1000
0000
,
0110
0000
1001
0000
1000
0100
0010
0000
,
0001
0100
0010
1000
0100
0001
0100
0000
,
1000
0010
0100
0001
0010
1000
0010
0000
,
0110
0000
1001
0000
0010
0100
0010
0000
,
1000
0100
0010
0001
0100
0010
1000
0000
,
1002
0010
0100
0013
,
2001
0010
0100
3010
,
1002
0000
0100
0000
1000
0000
0013
0001
,
2000
0000
0100
0000
0001
0000
3010
1000
,
0200
0000
0310
0001
0200
0000
0310
1000
,
1100
0011
0101
1010
,
1000
0100
0010
1000
0010
0100
1000
0000
,
0001
0100
0010
0001
0010
0100
0001
0000
,
1000
0100
0001
0010
0001
0100
1000
0000
,
0001
0100
1000
0010
1000
0100
0001
0000
,
2001
0100
0010
3100
,
1002
0100
0010
0103
,
0001
0000
0000
0100
0001
0000
0000
0000
0010
0000
0100
0000
0010
0000
0001
0000
,
1000
0000
0000
0010
0100
0000
0000
0000
0010
0000
1000
0000
0001
0000
1000
0000
,
0100
0000
0000
0010
0001
0000
0000
0000
0100
0000
0010
0000
1000
0000
0000
0000
,
1100
1001
0011
1001
,
1000
0000
0000
0100
1000
0000
0000
0000
0010
0000
0100
0000
0010
0000
1000
0000
,
0001
0000
0000
0010
0100
0000
0000
0000
0010
0000
0001
0000
1000
0000
0001
0000
,
0100
0000
0000
0010
1000
0000
0000
0000
0100
0000
0010
0000
0001
0000
0000
0000
,
0101
1001
1010
1001
,
0011
0000
0000
0010
0001
0000
0000
0001
1000
0000
0010
0000
0100
0000
0001
0000
,
1000
0000
0000
1000
0100
0000
0000
0100
1000
0000
0001
0000
0100
0000
0010
0000
,
1000
0000
0000
1000
0001
0000
0000
0001
0010
0000
1000
0000
0010
0000
0001
0000
,
0101
1010
0110
1001
,
1010
0000
0000
0010
1000
0000
0000
1000
0001
0000
0010
0000
0100
0000
1000
0000
,
0001
0000
0000
0001
0100
0000
0000
0100
0001
0000
1000
0000
0100
0000
0010
0000
,
0001
0000
0000
0001
1000
0000
0000
1000
0010
0000
0001
0000
0010
0000
1000
0000
,
1100
0011
0110
1001
,
1020
0001
1030
1001
,
0021
0000
0000
0000
1000
0000
0000
0000
0031
0000
1000
0000
0010
0100
0000
0010
;

//---------------dance-single - Daff_4K----------------
#NOTEDATA:;
#CHARTNAME:Daff_4K;
#STEPSTYPE:dance-single;
#DESCRIPTION:Daff_4K;
#CHARTSTYLE:;
#DIFFICULTY:Challenge;
#METER:13;
#RADARVALUES:0.572372,0.641815,0.472940,0.062464,0.254317,449.000000,396.000000,53.000000,7.000000,152.000000,0.000000,0.000000,0.000000,0.000000,0.572372,0.641815,0.472940,0.062464,0.254317,449.000000,396.000000,53.000000,7.000000,152.000000,0.000000,0.000000,0.000000,0.000000;
#CREDIT:Daff_4K;
#NOTES:
0000
0000
0000
0000
,
0000
0000
0000
0000
,
0000
0000
0000
0000
,
0000
0000
0000
0000
,
1000
0000
0001
0100
0001
0000
1000
0100
1000
0000
0001
0000
0010
0000
0100
0000
,
1000
0000
0001
0010
0001
0000
1000
0010
1000
0000
0001
0000
0100
0000
0010
0000
,
1000
0000
0001
0010
0001
0000
1000
0100
1000
0000
0010
0000
0100
0000
0001
0000
,
0011
MMMM
1100
MMMM
1010
MMMM
0101
MMMM
,
0001
0000
1000
0100
1000
0000
0001
0100
0001
0000
1000
0000
0010
0000
0100
0000
,
0001
0000
1000
0010
1000
0000
0001
0010
0001
0000
1000
0000
0100
0000
0010
0000
,
0001
0000
1000
0010
1000
0000
0001
0100
0001
0000
0010
0000
0100
0000
1000
0000
,
1010
MMMM
0101
MMMM
0011
MMMM
1100
MMMM
,
1002
0010
0100
0010
,
2003
0010
0100
0010
,
3001
1000
0110
0000
1001
0000
MMMM
0000
,
1000
0010
0101
0000
1010
0000
MMMM
0000
,
1000
0100
0001
0010
0001
0100
1000
0001
,
1000
0110
1001
MMMM
,
1000
0001
0110
0000
1001
0000
MMMM
0000
,
0001
0010
1100
0000
0011
0000
MMMM
0000
,
0001
0100
1000
0010
1000
0100
0001
1000
,
0001
0110
1001
MMMM
,
1000
0000
0001
0100
0001
0000
0010
0000
0100
0000
0000
0000
MMMM
0000
0000
0000
,
1000
0000
0010
0100
0010
0000
1000
0000
0001
0000
0000
0000
MMMM
0000
0000
0000
,
0011
0000
1100
0000
1000
0001
0110
0000
,
1001
0000
MMMM
0000
0010
0100
1001
0000
,
0001
0000
1000
0100
1000
0000
0010
0000
0100
0000
0000
0000
MMMM
0000
0000
0000
,
0001
0000
0010
0100
0010
0000
0001
0000
1000
0000
0000
0000
MMMM
0000
0000
0000
,
1000
0010
0000
0000
MMMM
0000
0000
0000
0001
0010
0000
0000
MMMM
0000
0000
0000
,
0110
0000
1001
0000
0010
0100
1001
0000
,
1000
0100
1000
0001
0100
0001
0010
0100
,
1000
0000
0010
0000
0100
0000
0001
0000
1000
0001
1000
0000
MMMM
0000
0000
0000
,
0001
0000
0100
0000
0010
0000
0100
0000
0001
0000
1000
0000
0001
0000
0010
0100
,
0020
0000
0000
0000
0031
0000
1000
0000
0010
0000
0100
0000
0001
0000
1000
0001
,
1000
0100
0010
0100
1000
0001
1000
0010
,
1010
0101
0011
1100
,
1000
0000
0010
0000
0100
0000
0001
0000
1000
0100
0000
1000
0100
0000
0010
0000
,
0001
0000
0010
0000
0100
0000
1000
0000
0001
0100
0000
0001
0100
0000
0010
0000
,
1000
0100
0001
0100
1000
0001
0010
0001
,
0100
1000
0100
0001
1000
0100
0010
0001
,
2000
0010
0100
3010
,
1002
0000
0010
0000
0100
0000
0013
0100
,
1000
0000
0001
0100
0001
0000
1000
0100
1000
0000
0010
0000
0001
0000
0010
0000
,
1000
0000
0001
0010
0001
0000
1000
0010
1000
0000
0100
0000
0001
0000
0100
0000
,
1000
0000
0001
0010
0001
0000
1000
0100
1000
0000
0010
0000
0001
0000
0010
0000
,
1010
MMMM
1001
MMMM
1100
MMMM
1001
MMMM
,
0001
0000
1000
0100
1000
0000
0001
0100
0001
0000
0010
0000
1000
0000
0010
0000
,
0001
0000
1000
0010
1000
0000
0001
0010
0001
0000
0100
0000
1000
0000
0100
0000
,
0001
0000
1000
0010
1000
0000
0001
0100
0001
0000
0010
0000
1000
0000
0010
0000
,
0011
MMMM
1001
MMMM
0101
MMMM
1001
MMMM
,
1000
0000
0001
0010
0001
0000
1000
0010
1000
0000
0100
0010
0001
0000
1000
0000
,
0001
0000
0010
0100
0010
0000
0001
1000
0001
0000
0100
0010
1000
0000
0100
0000
,
0010
0000
0001
0100
0001
0000
1000
0010
1000
0000
0100
0010
0001
0000
0100
0000
,
0101
MMMM
1100
MMMM
1010
MMMM
0011
MMMM
,
0001
0000
1000
0010
1000
0000
0001
0010
0001
0000
0100
0010
1000
0000
0001
0000
,
1000
0000
0010
0100
0010
0000
1000
0001
1000
0000
0100
0010
0001
0000
0100
0000
,
0010
0000
1000
0100
1000
0000
0001
0010
0001
0000
0100
0010
1000
0000
0100
0000
,
1100
MMMM
0101
MMMM
0011
MMMM
1010
MMMM
,
1200
0001
1300
1001
,
0201
0000
0000
0000
1000
0000
0000
0000
0301
0000
1000
0000
0100
0010
0000
0100
;
