#VERSION:0.83;
#TITLE:DRG;
#SUBTITLE:;
#ARTIST:onoken;
#TITLETRANSLIT:;
#SUBTITLETRANSLIT:;
#ARTISTTRANSLIT:;
#GENRE:HARD TRANCE;
#ORIGIN:;
#CREDIT:;
#BANNER:DRG.png;
#BACKGROUND:DRG-bg.png;
#PREVIEWVID:;
#JACKET:DRG-jacket.png;
#CDIMAGE:;
#DISCIMAGE:;
#LYRICSPATH:;
#CDTITLE:cdtitle.png;
#MUSIC:DRG.ogg;
#OFFSET:-0.565000;
#SAMPLESTART:88.822998;
#SAMPLELENGTH:15.000000;
#SELECTABLE:YES;
#DISPLAYBPM:78.000000:155.000000;
#BPMS:0.000=155.000,
97.000=77.500,
113.000=155.000,
177.000=77.500,
193.000=155.000;
#STOPS:64.000=1.161,
193.000=1.161;
#DELAYS:;
#WARPS:;
#TIMESIGNATURES:0.000=4=4;
#TICKCOUNTS:0.000=4;
#COMBOS:0.000=1;
#SPEEDS:0.000=1.000=0.000=0;
#SCROLLS:0.000=1.000;
#FAKES:;
#LABELS:0.000=Song Start;
#BGCHANGES:;
#KEYSOUNDS:;
#ATTACKS:
;

//---------------dance-single - D 4 K----------------
#NOTEDATA:;
#CHARTNAME:D 4 K;
#STEPSTYPE:dance-single;
#DESCRIPTION:D 4 K;
#CHARTSTYLE:;
#DIFFICULTY:Beginner;
#METER:3;
#RADARVALUES:0.118437,0.162044,0.083744,0.000000,0.000000,99.000000,89.000000,10.000000,0.000000,0.000000,0.000000,0.000000,0.000000,0.000000,0.118437,0.162044,0.083744,0.000000,0.000000,99.000000,89.000000,10.000000,0.000000,0.000000,0.000000,0.000000,0.000000,0.000000;
#CREDIT:D 4 K;
#DISPLAYBPM:78.000000:155.000000;
#NOTES:
0000
0000
0000
0000
,
0000
0000
0000
0000
,
0000
0000
0000
0000
,
0000
0000
0000
0000
,
0000
0000
0000
0000
,
1001
0000
0000
0000
,
1001
0000
0000
0000
,
0010
0000
0010
0000
,
0100
0000
0000
0000
,
1001
0000
0000
0000
,
0001
0000
0000
0000
,
0010
0000
0000
0000
,
1000
0000
0000
0000
,
0010
0000
0000
0000
,
0001
0000
0000
0000
,
1000
0000
0000
0000
,
1001
0000
0001
0000
,
0100
0000
0001
0000
,
0000
0000
1000
0000
,
0100
0000
1000
0000
,
0000
0000
0001
0000
,
1000
0000
0010
0000
,
0000
0100
0000
0100
,
0000
0110
0000
0000
,
0000
1001
0000
1000
,
0000
0100
0000
0001
,
0000
0100
0000
1000
,
0000
0010
0010
0010
,
0000
0100
0000
0010
,
0000
0100
0000
0000
,
0000
0001
0000
0010
,
0000
0001
0000
0000
,
0000
1000
0000
0010
,
0000
1000
0000
0000
,
0000
0100
0000
0010
,
0000
0100
0000
0000
,
0000
0000
1000
0000
,
0010
0000
0100
0000
,
0000
0000
0001
0000
,
0010
0000
0100
0000
,
0000
0000
1000
0000
,
0001
0000
0100
0000
,
0000
0010
0000
1000
,
0000
0001
0000
1000
,
0000
1001
0000
0000
,
0000
0001
0000
1000
,
0000
0010
0000
0010
,
0000
0100
0000
0100
,
0000
1001
0000
0000
,
0000
0001
0000
0000
,
0000
1000
0000
0000
,
0000
0010
0000
0000
,
0000
0100
0000
0000
,
0000
0001
0000
0000
,
0000
1000
0000
0000
,
0000
0000
1001
0000
,
0000
0000
0001
0000
,
0010
0000
0100
0000
,
0000
0000
1000
0000
,
0010
0000
0100
0000
,
0000
0000
0001
0000
,
0100
0000
0001
0000
,
1000
0000
0100
0000
,
1000
0000
0001
0000
,
1000
0000
1001
0000
;

//---------------dance-single - D 4 K----------------
#NOTEDATA:;
#CHARTNAME:D 4 K;
#STEPSTYPE:dance-single;
#DESCRIPTION:D 4 K;
#CHARTSTYLE:;
#DIFFICULTY:Easy;
#METER:5;
#RADARVALUES:0.212948,0.243066,0.092118,0.075369,0.000000,178.000000,167.000000,11.000000,9.000000,0.000000,0.000000,0.000000,0.000000,0.000000,0.212948,0.243066,0.092118,0.075369,0.000000,178.000000,167.000000,11.000000,9.000000,0.000000,0.000000,0.000000,0.000000,0.000000;
#CREDIT:D 4 K;
#DISPLAYBPM:78.000000:155.000000;
#NOTES:
0000
0000
0000
0000
,
0000
0000
0000
0000
,
0000
0000
0000
0000
,
0000
0000
0000
0000
,
0000
0000
0000
0000
,
1001
0000
0000
0000
,
0110
0000
0000
0000
,
1001
0000
0110
0000
,
1001
0000
0000
0000
,
1000
0010
0100
0000
,
0010
1000
0100
0000
,
1000
0010
0100
0000
,
0010
1000
0100
0010
,
0001
0010
0100
0000
,
0010
0001
0100
0000
,
0001
0010
0100
0000
,
1001
1000
0010
0100
,
0001
1000
0000
0000
,
0000
0001
0010
1000
,
0010
0001
0100
1000
,
0100
0001
0010
0100
,
1000
0001
0000
0000
,
0000
1000
0010
0001
,
0010
2000
0000
0002
,
0000
3003
0000
0001
,
0000
1000
0000
0100
,
0000
0001
0000
0010
,
0000
1000
0001
0100
,
0100
0010
1000
0010
,
0000
1000
0100
1000
,
0000
0100
0010
0100
,
0000
0010
0000
0100
,
0000
0010
0001
0010
,
0000
0001
0100
0001
,
0000
0100
0010
0100
,
0000
0020
0030
1000
,
0001
0020
0030
0001
,
1000
0020
0030
1000
,
0001
0200
0300
0001
,
1000
0200
0300
1000
,
0001
2000
3000
0010
,
0100
0002
0003
0010
,
0100
1000
1000
0001
,
0001
0100
0010
1000
,
0000
1001
0000
0000
,
0000
0110
0000
0000
,
0000
1001
0000
0001
,
0000
1000
0001
0100
,
0010
0000
1000
0100
,
1000
0000
0100
0001
,
0100
0000
1000
0100
,
1000
0000
0010
0100
,
0010
1000
0001
0100
,
0001
0000
0100
1000
,
0100
0000
0001
0100
,
0001
0000
1001
0000
,
0000
0000
1000
0100
,
0010
0000
0100
1000
,
0001
0000
1000
0010
,
0100
0000
0010
1000
,
0001
1000
0001
0100
,
0010
0000
0100
0001
,
1000
0000
0001
0010
,
0100
0000
0010
0001
,
1000
0001
1001
0000
;

//---------------dance-single - D 4 K----------------
#NOTEDATA:;
#CHARTNAME:D 4 K;
#STEPSTYPE:dance-single;
#DESCRIPTION:D 4 K;
#CHARTSTYLE:;
#DIFFICULTY:Medium;
#METER:8;
#RADARVALUES:0.325404,0.431280,0.192610,0.142364,0.000000,272.000000,249.000000,23.000000,17.000000,0.000000,0.000000,0.000000,0.000000,0.000000,0.325404,0.431280,0.192610,0.142364,0.000000,272.000000,249.000000,23.000000,17.000000,0.000000,0.000000,0.000000,0.000000,0.000000;
#CREDIT:D 4 K;
#DISPLAYBPM:78.000000:155.000000;
#NOTES:
0000
0000
0000
0000
,
0000
0000
0000
0000
,
0000
0000
0000
0000
,
0000
0000
0000
0000
,
0000
0000
0000
0000
,
2010
0000
0100
3100
,
0012
0000
0100
0103
,
0220
0330
2002
3003
,
1000
0001
0000
0010
0000
0100
0010
0000
,
0001
0000
0100
0000
1000
0000
0100
0010
,
0100
0000
0001
0000
1000
0000
0001
0010
,
0001
0000
0100
0000
0010
0000
1000
0001
,
1000
0100
0010
0001
,
1000
0000
0100
0000
0001
0000
0100
0010
,
0100
0000
1000
0000
0001
0000
1000
0010
,
1000
0100
0010
0001
,
1001
0000
1000
0010
0100
0010
0100
0001
,
1000
0000
0100
0000
,
0001
0000
0100
0000
0010
0100
0010
0100
,
0010
0100
0010
0001
1000
0001
1000
0001
,
1000
0000
0001
0010
0100
0010
0100
1000
,
0001
0000
0100
0000
,
1000
0100
0001
1000
,
0100
0220
0000
0000
,
0330
1001
0100
1000
,
0100
0001
0010
1000
,
0010
1001
0100
0001
,
0100
0000
1000
0000
0010
0000
0001
0010
,
1000
0001
0010
1000
,
0010
0001
0100
1000
,
0100
0010
0100
0000
0001
0000
0010
0000
,
1000
0000
0010
0000
0001
0000
0100
0010
,
0100
0010
1000
0000
0010
0000
0001
0000
,
0010
1000
0100
0001
,
0100
0010
0100
0000
1000
0000
0010
0000
,
0001
0000
0000
0110
0000
0000
0000
1000
,
0000
0001
0000
0101
0000
0000
0000
0001
,
0000
1000
0000
1100
0000
0000
0000
1000
,
0000
0001
0000
0011
0000
0000
0000
0001
,
0000
1000
0000
1010
0000
0000
0000
1000
,
0000
0001
0000
1001
0000
0000
0000
1000
,
0000
0100
0000
0110
0000
0000
0000
0010
,
0000
0001
0000
1001
0000
0000
0000
1000
,
0000
0001
0020
0000
0100
0000
0100
0000
,
0130
2002
0000
0000
,
3003
0220
0000
0000
,
0330
2000
3010
0002
,
0013
0000
1000
0100
0001
0100
1000
0001
,
1000
0001
1000
0000
0001
0000
0100
0000
,
0000
0010
0100
0000
0001
0000
1000
0000
,
0001
0010
0001
0000
1000
0000
0100
0000
,
0000
0010
0100
0000
1000
0000
0001
0000
,
1000
0010
1000
0000
0001
0000
0010
0000
,
0000
0001
1000
0000
0001
0000
0100
0000
,
0010
1000
0010
0000
1000
0000
0010
0000
,
0000
1000
0001
0000
2002
0000
3003
0000
,
1000
0001
1000
0000
0001
0000
0100
0000
,
0010
1000
0001
0010
,
0100
0000
1000
0001
1000
0000
0100
0000
,
0010
0001
1000
0010
,
0100
0000
0001
1000
0001
0000
0011
0000
,
1000
1010
0001
0101
,
1000
0000
1100
0000
0001
1000
0001
0000
,
1000
0001
1000
0000
0100
0010
0000
0100
,
0000
0010
0100
0010
0000
0000
0000
0000
;

//---------------dance-single - D 4 K----------------
#NOTEDATA:;
#CHARTNAME:D 4 K;
#STEPSTYPE:dance-single;
#DESCRIPTION:D 4 K;
#CHARTSTYLE:;
#DIFFICULTY:Hard;
#METER:12;
#RADARVALUES:0.453412,0.513139,0.184236,0.376847,0.293103,379.000000,357.000000,22.000000,45.000000,0.000000,0.000000,0.000000,0.000000,0.000000,0.453412,0.513139,0.184236,0.376847,0.293103,379.000000,357.000000,22.000000,45.000000,0.000000,0.000000,0.000000,0.000000,0.000000;
#CREDIT:D 4 K;
#DISPLAYBPM:78.000000:155.000000;
#NOTES:
// measure 0
0000
0000
0000
0000
,  // measure 1
0000
0000
0000
0000
,  // measure 2
0000
0000
0000
0000
,  // measure 3
0000
0000
0000
0000
,  // measure 4
0000
0000
0000
0000
,  // measure 5
1000
0010
0200
0000
0010
0000
0301
0000
,  // measure 6
0001
0010
0200
0000
0010
0000
1300
0000
,  // measure 7
1000
0010
0200
0000
0301
0010
0200
0000
,  // measure 8
2300
0001
0000
0001
0000
0001
3001
0000
,  // measure 9
1000
0010
0000
0000
1000
0000
0000
0001
0000
1000
0000
0000
0100
0000
0000
0000
,  // measure 10
0010
0001
0000
0000
1000
0000
0000
0001
0000
0100
0000
0001
1000
0000
0000
0000
,  // measure 11
0001
0010
0000
0000
0100
0000
0000
0010
0000
0001
0000
0000
1000
0000
0000
0000
,  // measure 12
0010
0100
0000
0000
0010
0000
0000
1000
0000
0001
0000
1000
0100
0000
0010
0000
,  // measure 13
0001
0010
0000
0000
0001
0000
0000
1000
0000
0001
0000
0000
0100
0000
0000
0000
,  // measure 14
0010
1000
0000
0000
0001
0000
0000
1000
0000
0100
0000
1000
0001
0000
0000
0000
,  // measure 15
1000
0010
0000
0000
0100
0000
0000
0010
0000
1000
0000
0000
0001
0000
0000
0000
,  // measure 16
1001
0000
1000
0100
0010
0001
1000
0100
,  // measure 17
0020
0001
1000
0100
,  // measure 18
0031
0000
1000
0010
0001
0010
1000
0100
,  // measure 19
0001
0100
1000
0010
0100
0001
1000
0100
,  // measure 20
0010
0110
0001
0100
0010
1000
0001
0100
,  // measure 21
0020
1000
0001
0100
,  // measure 22
1030
0000
0001
0001
1000
1000
0100
0010
,  // measure 23
0001
1000
0020
0000
0000
0000
0200
0000
,  // measure 24
0330
0000
0001
0000
0101
0000
1000
0001
,  // measure 25
0100
0000
0010
0000
1001
0000
0010
1000
,  // measure 26
0001
0000
1000
0000
1100
0000
0001
1000
,  // measure 27
0100
0000
0010
0000
1001
0000
0010
0100
,  // measure 28
1001
0000
0000
0000
0001
0000
0000
0100
0001
0000
0000
0001
1000
0000
0000
1000
,  // measure 29
0100
0000
0000
0000
0010
0000
0000
0001
1000
0000
0000
1000
0010
0000
0000
0010
,  // measure 30
0100
0000
0000
0000
0010
0000
0000
1000
0001
0000
0000
0001
0010
0000
0000
0010
,  // measure 31
0100
0000
1000
0001
0100
0000
0010
1000
,  // measure 32
0001
0000
0000
0000
1000
0000
0000
0100
1000
0000
0000
1000
0001
0000
0000
0001
,  // measure 33
0100
0000
0000
0000
0010
0000
0000
1000
0001
0000
0000
0001
0010
0000
0000
0010
,  // measure 34
0100
0000
0000
0000
0010
0000
0000
0001
1000
0000
0000
1000
0010
0000
0000
0010
,  // measure 35
0100
0000
0001
0000
0000
0000
2002
0000
0000
0000
3003
0000
0000
0000
2000
0010
,  // measure 36
0000
0000
3010
0000
0000
0000
0202
0000
0000
0000
0303
0000
0000
0000
0002
0010
,  // measure 37
0000
0000
0013
0000
0000
0000
2200
0000
0000
0000
3300
0000
0000
0000
0002
0100
,  // measure 38
0000
0000
0103
0000
0000
0000
2020
0000
0000
0000
3030
0000
0000
0000
2000
0100
,  // measure 39
0000
0000
3100
0000
0000
0000
0022
0000
0000
0000
0033
0000
0000
0000
0002
1000
,  // measure 40
0000
0000
1003
0000
0000
0000
2020
0000
0000
0000
3030
0000
0000
0000
2000
0001
,  // measure 41
0000
0000
3001
0000
0000
0000
0022
0000
0000
0000
0033
0000
0000
0000
0002
1000
,  // measure 42
0000
1003
0010
0100
0001
0000
0010
0100
,  // measure 43
1000
0000
0001
0000
0000
0000
1001
0000
0000
1000
0000
0001
0000
1000
0010
0000
,  // measure 44
0100
0001
2002
0000
0000
0000
0000
0000
,  // measure 45
3003
1000
0100
0001
,  // measure 46
0100
0000
2000
0010
3010
0000
0002
0010
,  // measure 47
0013
0000
0000
0000
1000
0000
0001
0000
0010
0000
0100
0000
1000
0001
1000
0001
,  // measure 48
0100
0010
0100
0010
0200
0000
0000
0000
0302
0000
0000
0010
0000
0000
0013
0000
,  // measure 49
0000
0000
0001
1000
0000
0000
1000
0000
0020
0000
0000
0100
0000
0000
0130
0000
,  // measure 50
0000
0000
0010
1000
0000
0000
0001
0000
2000
0000
0000
0100
0000
0000
3100
0000
,  // measure 51
0000
0000
1000
0001
0000
0000
0001
0000
0200
0000
0000
0010
0000
0000
0310
0000
,  // measure 52
1000
0000
0001
0010
0000
0000
0100
0000
2000
0000
0000
0010
0000
0000
3010
0000
,  // measure 53
0000
0000
1000
0001
0000
0000
0001
0000
0020
0000
0000
0100
0000
0000
0130
0000
,  // measure 54
0000
0000
0010
0001
0000
0000
1000
0000
0002
0000
0000
0100
0000
0000
0103
0000
,  // measure 55
0000
0000
0001
1000
0000
0000
0100
0000
0220
0000
0000
0000
0330
0000
0000
0000
,  // measure 56
0010
0001
1001
0000
1000
0010
0100
0010
,  // measure 57
1000
0010
0100
0010
1000
0001
1000
0100
,  // measure 58
1000
0001
1000
0100
0010
0001
0010
0100
,  // measure 59
0010
0001
0010
0100
0010
0001
1000
0001
,  // measure 60
0100
0001
1000
0001
0101
0000
0110
0000
,  // measure 61
1010
0000
1001
0000
0001
0010
1000
0010
,  // measure 62
0001
0100
1000
0100
0001
0010
0100
1000
,  // measure 63
0001
0100
0010
1000
0200
0010
0000
0010
,  // measure 64
0000
0310
0001
0100
1000
0000
0000
0000
;
