#VERSION:0.83;
#TITLE:Cheer Train;
#SUBTITLE:;
#ARTIST:Fuzita Blender;
#TITLETRANSLIT:;
#SUBTITLETRANSLIT:;
#ARTISTTRANSLIT:;
#GENRE:BIG BEAT;
#ORIGIN:;
#CREDIT:;
#BANNER:Cheer Train.png;
#BACKGROUND:Cheer Train-bg.png;
#PREVIEWVID:;
#JACKET:Cheer Train-jacket.png;
#CDIMAGE:;
#DISCIMAGE:;
#LYRICSPATH:;
#CDTITLE:cdtitle.png;
#MUSIC:Cheer Train.ogg;
#OFFSET:-0.024000;
#SAMPLESTART:31.986000;
#SAMPLELENGTH:15.000000;
#SELECTABLE:YES;
#BPMS:0.000=120.000;
#STOPS:;
#DELAYS:;
#WARPS:;
#TIMESIGNATURES:0.000=4=4;
#TICKCOUNTS:0.000=4;
#COMBOS:0.000=1;
#SPEEDS:0.000=1.000=0.000=0;
#SCROLLS:0.000=1.000;
#FAKES:;
#LABELS:0.000=Song Start;
#BGCHANGES:0.000=Cheer Train.avi=1.000=0=0=0=StretchNoLoop==CrossFade_Fastest==,
99999=-nosongbg-=1.000=0=0=0 // don't automatically add -songbackground-
;
#KEYSOUNDS:;
#ATTACKS:
;

//---------------dance-single - Daff_4K----------------
#NOTEDATA:;
#CHARTNAME:Daff_4K;
#STEPSTYPE:dance-single;
#DESCRIPTION:Daff_4K;
#CHARTSTYLE:;
#DIFFICULTY:Beginner;
#METER:1;
#RADARVALUES:0.073310,0.117038,0.027009,0.000000,0.000000,57.000000,54.000000,3.000000,0.000000,0.000000,0.000000,0.000000,0.000000,0.000000,0.073310,0.117038,0.027009,0.000000,0.000000,57.000000,54.000000,3.000000,0.000000,0.000000,0.000000,0.000000,0.000000,0.000000;
#CREDIT:Daff_4K;
#NOTES:
// measure 0
0000
0000
0000
0000
,  // measure 1
0000
0000
0000
0000
,  // measure 2
0000
0000
0000
0000
,  // measure 3
0000
0000
0000
0000
,  // measure 4
0001
0000
0000
0000
,  // measure 5
0001
0000
0000
0000
,  // measure 6
1000
0000
0000
0000
,  // measure 7
1000
0000
0000
0000
,  // measure 8
0010
0000
0000
0000
,  // measure 9
0100
0000
0000
0000
,  // measure 10
0001
0000
0000
0000
,  // measure 11
1000
0000
0000
0000
,  // measure 12
0100
0000
0000
0000
,  // measure 13
0010
0000
0000
0000
,  // measure 14
0001
0000
0000
0000
,  // measure 15
1000
0000
0000
0000
,  // measure 16
0001
0000
0001
0000
,  // measure 17
0001
0000
0000
0000
,  // measure 18
0100
0000
0100
0000
,  // measure 19
0100
0000
0000
0000
,  // measure 20
0010
0000
0010
0000
,  // measure 21
0010
0000
0000
0000
,  // measure 22
1000
0000
1000
0000
,  // measure 23
1000
0000
0000
0000
,  // measure 24
1001
0000
0000
0000
,  // measure 25
0000
0000
0000
0000
,  // measure 26
0000
0000
0000
0000
,  // measure 27
0000
0000
0000
0000
,  // measure 28
0001
0000
0000
0000
,  // measure 29
0000
0000
0000
0000
,  // measure 30
1000
0000
0000
0000
,  // measure 31
0000
0000
0000
0000
,  // measure 32
1001
0000
0000
0000
,  // measure 33
0001
0000
0001
0000
,  // measure 34
0001
0000
0000
0000
,  // measure 35
1000
0000
1000
0000
,  // measure 36
1000
0000
0000
0000
,  // measure 37
0010
0000
0010
0000
,  // measure 38
0010
0000
0000
0000
,  // measure 39
0000
0000
0000
0000
,  // measure 40
1000
0000
1000
0000
,  // measure 41
1000
0000
0000
0000
,  // measure 42
0001
0000
0001
0000
,  // measure 43
0001
0000
0000
0000
,  // measure 44
0010
0000
0010
0000
,  // measure 45
0010
0000
0000
0000
,  // measure 46
0100
0000
0100
0000
,  // measure 47
0100
0000
0000
0000
,  // measure 48
1000
0000
0000
0000
,  // measure 49
1000
0000
0000
0000
,  // measure 50
0001
0000
0000
0000
,  // measure 51
0001
0000
0000
0000
,  // measure 52
1001
0000
0000
0000
;

//---------------dance-single - Daff_4K----------------
#NOTEDATA:;
#CHARTNAME:Daff_4K;
#STEPSTYPE:dance-single;
#DESCRIPTION:Daff_4K;
#CHARTSTYLE:;
#DIFFICULTY:Easy;
#METER:4;
#RADARVALUES:0.164625,0.210668,0.054018,0.054018,0.000000,128.000000,122.000000,6.000000,6.000000,0.000000,0.000000,0.000000,0.000000,0.000000,0.164625,0.210668,0.054018,0.054018,0.000000,128.000000,122.000000,6.000000,6.000000,0.000000,0.000000,0.000000,0.000000,0.000000;
#CREDIT:Daff_4K;
#NOTES:
0000
0000
0000
0000
,
0000
0000
0000
0000
,
0000
0000
0000
0000
,
0000
0000
0000
0000
,
0010
0000
0010
0000
,
0100
0000
0100
1000
,
0001
0000
0001
0000
,
1000
0000
1000
0000
,
0002
0000
0100
0000
,
0100
0000
0103
0000
,
2000
0000
0100
0000
,
0100
0000
3100
0000
,
0001
0010
0001
0000
,
1000
0010
1000
0000
,
0001
0100
0010
0000
,
1000
0100
0010
0000
,
0001
0100
0001
0000
,
1001
0000
1000
0001
,
1000
0100
1000
0000
,
1001
0000
0001
0100
,
0010
1000
0010
0000
,
0110
0000
1000
0001
,
0010
0001
0010
0000
,
0110
0000
0001
1000
,
0001
0000
0000
0000
,
0000
0000
0200
0000
,
0310
0000
0000
0000
,
0000
0000
2000
0000
,
3001
0000
0000
0000
,
0010
0000
0200
0000
,
0310
0000
0000
0000
,
0001
0000
1000
0000
,
1001
0000
0000
0000
,
0001
0100
0010
1000
,
0001
0000
0000
0000
,
1000
0100
0010
0001
,
0200
0000
0000
0300
,
0010
1000
0001
1000
,
0100
0000
0010
0000
,
0001
1000
0001
0000
,
1000
0010
0001
0000
,
0010
0010
1000
0001
,
1000
0100
0001
0000
,
0100
1000
0001
1000
,
0001
0010
1000
0000
,
0010
0010
0001
1000
,
0001
0100
1000
0000
,
0100
0001
1000
0001
,
1000
0000
1000
0000
,
0001
0000
0001
0010
,
0100
0000
0010
0000
,
0001
0000
1000
0001
,
1001
0000
0000
0000
;

//---------------dance-single - Daff_4K----------------
#NOTEDATA:;
#CHARTNAME:Daff_4K;
#STEPSTYPE:dance-single;
#DESCRIPTION:Daff_4K;
#CHARTSTYLE:;
#DIFFICULTY:Medium;
#METER:6;
#RADARVALUES:0.248224,0.304299,0.108035,0.306100,0.036012,193.000000,181.000000,12.000000,34.000000,0.000000,0.000000,0.000000,0.000000,0.000000,0.248224,0.304299,0.108035,0.306100,0.036012,193.000000,181.000000,12.000000,34.000000,0.000000,0.000000,0.000000,0.000000,0.000000;
#CREDIT:Daff_4K;
#NOTES:
0000
0000
0000
0000
,
0000
0000
0000
0000
,
0000
0000
0000
0000
,
0000
0000
0000
0000
,
0002
0000
2003
0000
,
3200
0000
0310
0001
,
2000
0000
3002
0000
,
0103
0000
0000
0000
0110
0000
0000
0000
0010
0000
0000
1000
0000
0000
0001
0000
,
1000
0100
0001
0100
,
1000
0000
0001
0000
0100
0000
0010
1000
,
0001
0010
1000
0010
,
0001
0100
0010
1000
,
0001
0100
1000
0100
,
0001
0000
1000
0000
0100
0000
0010
0001
,
1000
0010
0001
0010
,
1000
0000
0000
0000
0001
0000
0000
0000
0010
0000
0000
0100
0000
0000
0010
0000
,
0001
0100
0010
1000
,
2002
0000
0000
0000
3003
0000
0000
0000
0001
0000
0000
1000
0000
0000
0001
0000
,
0010
0100
1000
0001
,
0220
0000
0000
0000
0330
0000
0000
0000
0001
0000
0000
1000
0000
0000
0001
0000
,
1000
0100
0010
0001
,
2002
0000
0000
0000
3003
0000
0000
0000
1000
0000
0000
0001
0000
0000
1000
0000
,
0010
0100
0001
1000
,
0110
0000
0000
0000
1001
0000
0000
0000
1000
0000
0000
0001
0000
0000
1000
0000
,
0020
0000
0000
0000
,
0230
0000
0302
0000
,
2003
0000
3002
0000
,
0000
0000
0023
0000
,
0230
0000
0000
0000
,
2300
0000
3002
0000
,
0203
0320
0000
0000
,
1030
0000
0000
0000
1001
0000
0000
0000
0001
0000
0000
1000
0000
0000
0001
0000
,
0010
0100
0010
0000
0001
1000
0001
0000
,
0200
0010
0001
0310
,
1000
0100
1000
0000
0001
0100
0001
0000
,
2000
0100
0001
3100
,
0010
0100
0010
0000
1000
0001
1000
0000
,
0200
0010
1000
0310
,
0001
0100
0001
0000
1000
0100
1000
0000
,
0010
0000
0100
0100
0100
0000
0001
0000
,
1000
0100
0001
0100
,
2000
0010
3001
1100
,
0010
0001
1000
0010
,
0200
0001
0310
1001
,
0001
0100
1000
0100
,
0002
0010
1003
0101
,
0010
1000
0001
0010
,
0100
0000
0000
0000
1001
0000
0000
0000
1000
0000
0000
0001
0000
0000
1000
0000
,
0020
0000
0230
0000
,
0302
0000
1003
0001
,
0020
0000
0230
0000
,
2300
0000
3001
1000
,
1001
0000
0000
0000
;

//---------------dance-single - Daff_4K----------------
#NOTEDATA:;
#CHARTNAME:Daff_4K;
#STEPSTYPE:dance-single;
#DESCRIPTION:Daff_4K;
#CHARTSTYLE:;
#DIFFICULTY:Hard;
#METER:10;
#RADARVALUES:0.354973,0.421337,0.297097,0.306100,0.153050,276.000000,243.000000,33.000000,34.000000,0.000000,0.000000,0.000000,0.000000,0.000000,0.354973,0.421337,0.297097,0.306100,0.153050,276.000000,243.000000,33.000000,34.000000,0.000000,0.000000,0.000000,0.000000,0.000000;
#CREDIT:Daff_4K;
#NOTES:
0000
0000
0000
0000
,
0000
0000
0000
0000
,
0000
0000
0000
0000
,
0000
0000
0000
0000
,
2000
0010
3002
0010
,
0203
0000
0000
0000
0010
0000
0000
0000
0301
0000
0000
1000
0000
0000
0001
0000
,
0020
0100
0032
1000
,
0103
0000
0000
0000
1001
0000
0000
0000
1000
0001
0000
1000
0000
0001
1000
0000
,
0100
0010
0100
0000
1000
0001
1000
0000
,
0010
0100
0010
0000
1000
0100
0010
0001
,
1000
0010
0100
0000
0001
0100
0010
0000
,
1000
0001
0010
0000
0100
1000
0001
0000
,
0100
0010
0100
0000
0001
1000
0001
0000
,
0010
0100
0010
0000
0001
0100
0010
1000
,
0001
0010
0100
0000
1000
0100
0010
0000
,
0001
0000
1000
0000
0010
0000
0000
0000
0100
0010
0000
0100
0000
0010
1000
0000
,
0001
0000
0000
1000
0000
0000
0100
0000
0010
0000
0000
0000
0001
0000
0000
0000
,
2002
0000
0000
0000
3003
0000
0000
0000
0001
0000
0000
0010
0000
0000
0100
0000
,
1000
0000
0000
0001
0000
0000
0100
0000
0010
0000
0000
0000
1000
0000
0000
0000
,
2002
0000
0000
0000
3003
0000
0000
0000
1000
0000
0000
0010
0000
0000
0100
0000
,
0001
0000
0000
0010
0000
0000
1000
0000
0010
0000
0000
0000
0100
0000
0000
0000
,
2002
0000
0000
0000
3003
0000
0000
0000
0001
0000
0000
0010
0000
0000
0100
0000
,
1000
0000
0000
0010
0000
0000
0001
0000
0010
0000
0000
0000
0100
0000
0000
0000
,
2002
0000
0000
0000
3003
0000
0000
0000
0001
1000
0000
0001
0000
1000
0010
0000
,
0200
0000
0302
0000
,
2003
0000
0000
0000
0000
0000
0000
0000
3100
0000
0000
0010
0000
0000
0001
0000
,
0100
0000
0000
0010
0000
0000
1000
0000
0002
0000
0000
0000
0000
0000
0000
0000
,
0000
0000
2003
0000
,
3200
0000
0000
0000
0000
0000
0310
0001
,
2000
0000
0000
0000
0000
0000
0000
0000
3001
0000
0000
0100
0000
0000
0010
0000
,
2000
0002
0000
3003
,
0110
0000
0000
0000
1001
0000
0000
0000
0001
1000
0000
0001
0000
1000
0100
0000
,
0010
0001
0100
0001
0010
0001
0100
0001
,
0010
0011
1001
1010
,
0010
1000
0100
1000
0010
1000
0100
1000
,
0010
1010
1001
0011
,
0001
0100
1000
0100
0001
0100
1000
0100
,
0001
1001
0110
1001
,
1000
0100
0001
0100
1000
0100
0001
0100
,
1000
0000
0000
0000
0010
0100
0010
0100
0010
0000
0000
0000
1001
0000
0000
0000
,
1000
0000
0000
0100
0000
0000
0010
0000
0001
0000
0000
0000
0202
0000
0000
0000
,
0303
1010
1100
1001
,
0001
0000
0000
0100
0000
0000
0010
0000
1000
0000
0000
0000
2200
0000
0000
0000
,
3300
0011
0101
1001
,
1000
0000
0000
0001
0000
0000
0010
0000
0100
0000
0000
0000
2002
0000
0000
0000
,
3003
0011
1100
1001
,
0001
0000
0000
1000
0000
0000
0010
0000
0100
0000
0000
0000
1001
0000
0000
0000
,
0101
0000
0000
0000
1010
0000
0000
0000
1000
0100
0000
1000
0000
0001
0100
0000
,
0002
0010
2003
0010
,
3200
0000
0000
0000
0010
0000
0000
0000
1300
0000
0000
0001
0000
0000
1000
0000
,
0020
0100
2030
0100
,
3002
0000
0000
0000
0100
0000
0000
0000
0013
0000
0000
0100
0000
0000
0010
0000
,
1001
0000
0000
0000
;
