#TITLE:Cansei de S NIK;
#SUBTITLE:;
#ARTIST:PRASTIK DANCEFLOOR;
#TITLETRANSLIT:;
#SUBTITLETRANSLIT:;
#ARTISTTRANSLIT:;
#GENRE:FIDGET HOUSE;
#CREDIT:;
#BANNER:Cansei de S NIK.png;
#BACKGROUND:Cansei de S NIK-bg.png;
#LYRICSPATH:;
#CDTITLE:cdtitle.png;
#MUSIC:Cansei de S NIK.ogg;
#OFFSET:-0.344000;
#SAMPLESTART:44.139000;
#SAMPLELENGTH:15.000000;
#SELECTABLE:YES;
#BPMS:0.000000=137.000000
;
#STOPS:
;
#BGCHANGES:;
#KEYSOUNDS:;
#ATTACKS:;

//---------------dance-single - Daff_4K----------------
#NOTES:
     dance-single:
     Daff_4K:
     Beginner:
     4:
     0.155450,0.193627,0.036576,0.000000,0.000000,119.000000,115.000000,4.000000,0.000000,0.000000,0.000000,0.155450,0.193627,0.036576,0.000000,0.000000,119.000000,115.000000,4.000000,0.000000,0.000000,0.000000:
0000
0000
0000
0000
,
0000
0000
0000
0000
,
0000
0000
0000
0000
,
0000
0000
0000
0000
,
0000
0000
0000
0000
,
0010
0000
0010
0000
,
0100
0000
0100
0000
,
1000
0000
0001
0000
,
1001
0000
0000
0000
,
0000
1000
0000
0010
,
0010
0000
1000
0000
,
0000
0100
0000
0010
,
0010
0000
0001
0000
,
0000
0001
0000
0010
,
0010
0000
0000
0001
,
0000
0100
0000
0010
,
0010
0000
1001
0000
,
1000
0000
0100
0000
,
1000
0000
0001
0000
,
1000
0000
0010
0000
,
0100
0000
0001
0001
,
0001
0000
0100
0000
,
0001
0000
1000
0000
,
0001
0000
0010
0000
,
0100
0000
1000
1000
,
1000
0000
0001
0000
,
0010
0010
0010
0000
,
0100
0000
0010
0000
,
0100
0000
1000
0000
,
0001
0000
1000
0000
,
0010
0010
0010
0000
,
0100
0000
0010
0000
,
0100
0000
0001
0000
,
0010
0000
0010
0000
,
0100
0000
0100
0000
,
1000
0000
1000
0000
,
0001
0000
0001
0000
,
0100
0000
0100
0000
,
0010
0000
0010
0000
,
1000
0000
1000
0000
,
0001
0000
0001
0000
,
0000
1000
0000
0100
,
0000
1000
1000
1000
,
0000
0001
0000
0100
,
0000
0001
0001
0001
,
0000
1000
0000
0010
,
0000
1000
1000
1000
,
0000
0001
0000
0010
,
0000
0001
0001
0001
,
0000
0100
0000
0010
,
0000
1000
0000
0001
,
0000
0010
0000
0100
,
0000
1000
0000
0001
,
0001
0000
0000
0000
,
1000
0000
0000
0000
,
0010
0000
0000
0000
,
0100
0000
0000
0000
,
1001
0000
0000
0000
,
0001
0001
0001
0000
,
1001
0000
0000
0000
,
1000
1000
1000
0000
;

//---------------dance-single - Daff_4K----------------
#NOTES:
     dance-single:
     Daff_4K:
     Easy:
     5:
     0.270404,0.278895,0.100585,0.210315,0.000000,207.000000,196.000000,11.000000,23.000000,0.000000,0.000000,0.270404,0.278895,0.100585,0.210315,0.000000,207.000000,196.000000,11.000000,23.000000,0.000000,0.000000:
0000
0000
0000
0000
,
0000
0000
0000
0000
,
0000
0000
0000
0000
,
0000
0000
0000
0000
,
0000
0000
0000
0000
,
0001
0100
0001
0001
,
1000
0100
1000
1000
,
0010
0100
0001
2002
,
0000
0000
0000
3003
,
1000
0100
0001
0100
,
2000
3000
0001
1000
,
0000
0001
0010
1000
,
0020
0030
0100
1000
,
0001
0100
1000
0100
,
0002
0003
1000
0001
,
0000
1000
0010
0001
,
0020
0030
2002
3003
,
1000
0100
1000
0100
,
0001
0100
0001
0100
,
1000
0010
0001
0010
,
1000
0100
0010
0001
,
0100
0001
0100
1000
,
0100
1000
0100
0001
,
0010
1000
0010
0001
,
0100
0010
1000
0001
,
2001
0000
3100
0000
,
1000
0010
0001
0000
,
0120
0000
1030
0000
,
0001
1000
0100
0010
,
1002
0000
0103
0000
,
0001
0010
1000
0000
,
0120
0000
0031
0000
,
1000
0001
0100
0001
,
1001
1000
0100
0001
,
0100
1000
0010
0100
,
0001
0010
1000
0010
,
0001
0100
0010
1000
,
1001
0001
0100
1000
,
0100
0001
0010
0100
,
1000
0010
0001
0010
,
1000
0100
0010
0001
,
1001
1000
0010
0100
,
0010
0001
0020
0100
,
0130
0001
0010
1000
,
0010
0001
0200
0310
,
1001
0001
0010
0100
,
0010
1000
0020
0100
,
0130
1000
0010
0001
,
0010
1000
0200
0310
,
1001
1000
0010
0100
,
0010
1000
0100
0010
,
0001
0100
0010
0100
,
0001
0010
0100
1000
,
0020
0000
0100
0130
,
0002
0000
1000
1003
,
0020
0000
0100
0130
,
2000
0000
0001
3001
,
0200
0000
0010
0310
,
1000
0100
0001
0100
,
2000
0000
0001
3001
,
1000
0010
0200
0000
,
0300
0000
0000
0000
;

//---------------dance-single - Daff_4K----------------
#NOTES:
     dance-single:
     Daff_4K:
     Medium:
     9:
     0.394503,0.390454,0.036576,0.457206,0.068581,302.000000,298.000000,4.000000,50.000000,0.000000,0.000000,0.394503,0.390454,0.036576,0.457206,0.068581,302.000000,298.000000,4.000000,50.000000,0.000000,0.000000:
0000
0000
0000
0000
,
0000
0000
0000
0000
,
0000
0000
0000
0000
,
0000
0000
0000
0000
,
0000
0000
0000
0000
,
0001
0010
0100
0000
0010
0001
1000
0000
,
0001
0100
1000
0100
0001
0000
1001
0000
,
1000
0010
0100
0000
0010
2000
0002
0000
,
0000
0000
0000
3003
,
1001
0000
1000
0100
0002
0000
0203
0000
,
2300
0000
3000
0001
1000
1000
0010
0100
,
0000
0001
1000
0100
0020
0000
0032
0000
,
2003
0000
3000
0010
0100
0010
1000
0001
,
1000
0000
0001
0100
2000
0000
3200
0000
,
0302
0000
0003
1000
0001
0001
0010
0100
,
0000
1000
0001
0100
0020
0000
2030
0000
,
3002
0000
0003
0010
0200
0000
0310
0001
,
1000
0000
0010
0000
1000
0000
0001
1000
,
0100
0000
0001
0000
0100
0010
0100
1000
,
0001
0000
0100
0000
1000
0000
0100
0001
,
1000
0000
0001
0000
0010
0100
2000
0000
,
3001
0000
0010
0000
0001
0000
1000
0001
,
0100
0000
1000
0000
0100
0010
0100
0001
,
1000
0000
0100
0000
0001
0000
0100
1000
,
0001
0000
1000
0000
0010
0100
0010
1000
,
0002
0000
0013
0200
0000
1300
0020
0000
,
0130
0001
1000
0001
1000
0000
0100
0010
,
0002
0000
0003
1000
0001
0100
0020
0000
,
1030
0000
0000
0100
0000
0000
0001
0000
0200
0000
0000
0000
0310
0000
0001
0000
,
2000
0000
3010
0200
0000
0301
0020
0000
,
0130
1000
0001
1000
0020
0000
0130
0000
,
2001
0000
3000
0001
0020
0000
0100
0000
,
0130
1000
0010
0000
0100
0001
0010
0000
,
0001
0000
1000
0010
1000
0000
0100
0010
,
0001
0000
1000
0001
0100
0100
0020
0000
,
1030
0000
0001
0010
0001
0000
1000
0010
,
0100
0000
0001
0010
1000
0010
0002
0000
,
1003
0000
0001
0010
0001
0000
0100
0010
,
1000
0000
0001
1000
0100
0100
0020
0000
,
0031
0000
1000
0010
1000
0000
0001
0010
,
0100
0000
1000
0010
0001
0010
2000
0000
,
3001
0000
0000
1000
0000
0000
0100
0000
0000
0000
0000
0001
0000
0000
0100
0000
,
0000
0000
0000
1000
0000
0000
0001
0000
1000
0000
0010
0000
0100
0000
0010
0000
,
1000
0000
0000
0100
0000
0000
0001
0000
0000
0000
0000
0100
0000
0000
1000
0000
,
0000
0000
0000
0010
0000
0000
0001
0000
0010
0000
1000
0000
0002
0000
0000
0000
,
1003
0000
0000
0001
0000
0000
0100
0000
0000
0000
0000
1000
0000
0000
0100
0000
,
0000
0000
0000
0001
0000
0000
1000
0000
0001
0000
0010
0000
0100
0000
0010
0000
,
0001
0000
0000
0100
0000
0000
1000
0000
0000
0000
0000
0100
0000
0000
0001
0000
,
0000
0000
0000
0010
0000
0000
1000
0000
0010
0000
0001
0000
0200
0000
0000
0000
,
0320
0000
1000
0000
0100
0000
1030
0001
,
2000
0000
0100
0000
3001
1000
0100
0100
,
0020
0000
0001
0000
0100
0000
0031
1000
,
0002
0000
0100
0000
1003
0001
0100
0100
,
0002
0010
1000
0100
,
0010
0000
0100
0000
1003
0001
0010
0100
,
2000
0010
0001
0100
,
3010
0000
1000
0100
0010
0001
0100
0010
,
2000
0000
0000
3100
0002
0000
0023
0000
,
2030
0000
0000
0001
0000
0000
3001
0000
0020
0000
0000
0000
0130
0000
0000
0000
,
1002
0000
0000
0103
2000
0000
3020
0000
,
0032
0000
0000
1000
0000
0000
1003
0000
0020
0000
0000
0000
0000
0000
0000
0000
,
0030
0000
0000
0000
;

//---------------dance-single - Daff_4K----------------
#NOTES:
     dance-single:
     Daff_4K:
     Hard:
     13:
     0.564322,0.585680,0.064009,0.320044,0.379481,432.000000,425.000000,7.000000,35.000000,0.000000,0.000000,0.564322,0.585680,0.064009,0.320044,0.379481,432.000000,425.000000,7.000000,35.000000,0.000000,0.000000:
0000
0000
0000
0000
,
0000
0000
0000
0000
,
0000
0000
0000
0000
,
0000
0000
0000
0000
,
0000
0000
0000
0000
,
1000
0010
0001
1000
0001
0010
1000
0001
,
1000
0000
0100
0000
0001
0000
1000
0000
0001
0000
0100
0000
1000
0000
0001
1000
,
0001
0000
0100
0001
0100
0000
0010
0000
1000
0010
1000
0000
0200
0000
0000
0000
,
0000
0000
0000
0300
,
1001
0000
0000
1000
0010
0000
0100
0000
2000
0000
0000
0000
3100
0000
0000
0001
,
0020
0000
0130
1000
0010
1000
0001
0100
,
0000
0000
1000
0000
0100
0000
0001
0000
0020
0000
0000
0000
0130
0000
0000
1000
,
0002
0000
0000
0000
0103
0000
0010
0100
0010
0000
1000
0000
0001
0000
1000
0000
,
1001
0000
0000
0001
0010
0000
0100
0000
0002
0000
0000
0000
0103
0000
0000
1000
,
0020
0000
0130
0001
0010
0001
1000
0100
,
0000
0000
0001
0000
0100
0000
1000
0000
0020
0000
0000
0000
0130
0000
0000
0001
,
2000
0000
0000
0000
3100
0000
0010
0002
2000
0000
0000
0000
3003
0000
0000
0000
,
1001
0000
0000
1000
0010
0000
0100
0000
0010
0000
0000
1000
0001
0000
1000
0000
,
0100
0000
0000
0010
0100
0000
1000
0000
0001
0000
0100
0000
1000
0000
0100
0000
,
0001
0000
0000
0010
0100
0000
0010
0000
0001
0000
0000
1000
0010
0000
0100
0000
,
0010
0000
0000
1000
0001
0000
0010
0000
0100
0000
1000
0001
2000
0000
0000
0000
,
3001
0000
0000
0001
0010
0000
0100
0000
0010
0000
0000
0001
1000
0000
0001
0000
,
0100
0000
0000
0010
0100
0000
0001
0000
1000
0000
0100
0000
0001
0000
0100
0000
,
1000
0000
0000
0010
0100
0000
0010
0000
1000
0000
0000
0001
0010
0000
0100
0000
,
0010
0000
0000
0001
1000
0000
0001
0000
0100
0000
0010
0100
0010
0000
1000
0000
,
1002
0000
0013
0200
0000
0310
2000
0000
,
3001
0000
0100
0010
0000
0100
1000
0000
0002
0000
0000
0000
0103
0000
0010
0000
,
2000
0000
0000
0000
0000
0000
3001
1000
0001
0000
0010
0000
0100
0000
1000
0000
,
1020
0000
0000
0100
0000
0000
0031
0000
0110
0000
0000
0000
1000
0001
1000
0001
,
2000
0000
0000
0000
0000
0000
3010
0000
0000
0002
0000
0000
0000
0000
0000
0013
0000
0000
0100
0000
0010
0000
0100
0000
,
0001
0000
1000
0001
0000
1000
0100
0000
0020
0000
0000
0000
0130
0000
0000
0000
,
1002
0000
0000
0000
0000
0000
1003
0001
0200
0000
0000
0000
0010
0000
0000
0000
,
0301
0010
1000
0001
0100
1000
0010
0100
,
0001
0010
1000
0010
0001
0100
1000
0100
,
0001
0000
0010
0000
0100
0000
1000
0000
0010
0000
0100
0010
0200
0000
0000
0000
,
0301
0010
0100
0010
0001
0100
1000
0100
,
0001
0000
0010
0000
0100
0000
1000
0000
0010
0000
0100
0010
0100
0000
0001
0000
,
1000
0010
0001
0010
1000
0100
0001
0100
,
1000
0000
0010
0000
0100
0000
0001
0000
0010
0000
0100
0010
0200
0000
0000
0000
,
1300
0010
0100
0010
1000
0100
0001
0100
,
1000
0000
0010
0000
0100
0000
0001
0000
0010
0000
0100
0010
0100
0000
1000
0000
,
0001
0000
0010
0100
0000
0010
0001
0000
1000
0000
0010
0000
0001
0000
0010
0000
,
1000
0000
0100
0010
0000
0100
1000
0000
0010
0000
0001
0000
0010
0000
1000
0000
,
0001
0000
0100
0001
0000
0100
0010
0000
1000
0000
0100
0000
0001
0000
0100
0000
,
1000
0000
0010
0100
0000
0010
1000
0000
0001
0000
0010
0100
0010
0000
0100
0000
,
1000
0000
0010
0100
0000
0010
1000
0000
0001
0000
0010
0000
1000
0000
0010
0000
,
0001
0000
0100
0010
0000
0100
0001
0000
0010
0000
1000
0000
0010
0000
0001
0000
,
1000
0000
0100
1000
0000
0100
0010
0000
0001
0000
0100
0000
1000
0000
0100
0000
,
0001
0000
0010
0100
0000
0010
0001
0000
0100
0000
0010
1000
0002
0000
0000
0000
,
1003
0000
0000
0001
1000
0000
0100
0000
0010
0000
0001
1000
0001
0000
1000
0000
,
0010
0100
0010
1000
0001
0010
0100
1000
,
0001
0000
0000
1000
0001
0000
0100
0000
0010
0000
1000
0001
1000
0000
0001
0000
,
0010
0100
0010
0001
1000
0010
0100
0001
,
0200
0000
0000
0000
1000
0000
0000
0000
0310
0000
0000
1000
0000
0000
0001
0000
,
0020
0000
0000
0000
1000
0000
0000
0000
0130
0000
0000
1000
0001
0000
1000
0000
,
0200
0000
0000
0000
0001
0000
0000
0000
0310
0000
0000
0001
0000
0000
1000
0000
,
0020
0000
0000
0000
0001
0000
0000
0000
0130
0000
0000
0010
0000
0000
1000
0000
,
0002
0000
0000
0000
0000
0000
0000
0000
0000
0013
0000
0000
0100
0000
1000
0000
0001
0000
1000
0000
0001
0000
0100
0000
,
0020
0000
0000
0000
0000
0000
0000
0000
0000
2030
0000
0000
0000
0000
0000
0000
0000
0000
3001
0000
0000
0000
0000
0000
0010
0000
0000
0000
0100
0000
0000
0000
0010
0000
0000
0000
0001
0000
0000
0000
1000
0000
0000
0000
0001
0000
0000
0000
,
2000
0000
0000
0000
0000
0000
0000
0000
0000
3010
0000
0000
0100
0000
0001
0000
1000
0000
0001
0000
1000
0000
0100
0000
,
0010
0100
0010
0001
1000
0010
0200
0000
0000
0000
0000
0000
,
0300
0000
0000
0000
;

//---------------dance-single - Daff_4K -Groovy-----------------
#NOTES:
     dance-single:
     Daff_4K -Groovy-:
     Challenge:
     16:
     0.697565,0.669349,0.237747,0.484638,0.790966,534.000000,508.000000,26.000000,53.000000,0.000000,0.000000,0.697565,0.669349,0.237747,0.484638,0.790966,534.000000,508.000000,26.000000,53.000000,0.000000,0.000000:
// measure 0
0000
0000
0000
0000
,  // measure 1
0000
0000
0000
0000
,  // measure 2
0000
0000
0000
0000
,  // measure 3
0000
0000
0000
0000
,  // measure 4
0000
0000
0000
0000
,  // measure 5
0001
0000
0100
0010
0100
0000
0001
0000
1000
0100
1000
0000
0010
0000
0100
0000
,  // measure 6
0001
0000
0010
0100
0010
0000
0001
0000
1000
0010
1000
0000
0100
0000
0010
0001
,  // measure 7
1000
0000
0000
0000
0000
0000
0010
0000
0000
0100
0000
0000
0001
0000
1000
0000
0001
0000
1000
0000
0000
0000
0000
0000
0100
0000
0000
0001
0000
0000
0000
0000
0000
0200
0000
0000
0020
0000
0000
0000
0000
0000
0000
0000
0000
0000
0000
0000
,  // measure 8
0000
0000
0000
0330
,  // measure 9
1001
0000
0000
0000
0000
0000
1000
0000
0000
0100
0000
0000
0010
0000
0000
0000
0000
0000
0100
0000
0000
0000
0000
0000
0002
0000
0000
0000
0000
0000
0000
0000
0000
0000
0000
0000
0203
0000
0000
0000
0000
0000
0000
0000
1300
0000
0100
0000
,  // measure 10
2000
0000
0000
0000
0000
0000
0000
0000
0000
0000
0000
0000
0000
0000
0000
0000
3001
0000
0000
0000
0000
0000
0000
0000
1000
0000
0000
0000
0000
0000
0000
0000
0020
0030
0000
0000
0000
0000
0000
0000
0020
0030
0000
0000
0000
0000
0000
0000
0001
0000
0000
0000
0000
0000
0000
0000
1000
0000
0000
0000
0000
0000
0000
0000
,  // measure 11
0000
0000
0000
0000
0000
0000
0001
0000
0000
1000
0000
0000
0100
0000
0000
0000
0000
0000
0010
0000
0000
0000
0000
0000
0002
0000
0000
0000
0000
0000
0000
0000
0000
0000
0000
0000
2003
0000
0000
0000
0000
0000
0000
0000
3010
0000
1000
0000
,  // measure 12
0020
0000
0000
0000
0000
0000
0000
0000
0000
0000
0000
0000
0000
0000
0000
0000
0000
0000
0000
0000
0000
0000
0000
0000
0000
0000
0000
0000
0000
0000
0000
0000
0000
0000
0000
0000
0000
0000
0000
0000
0000
0000
0000
0000
0000
0000
0000
0000
0130
0000
0000
0000
0000
0000
0000
0000
0000
0000
0000
0000
0000
0000
0000
0000
0000
0000
0000
0000
0000
0000
0000
0000
0001
0000
0000
0000
0000
0000
0000
0000
1000
0000
0000
0000
0000
0000
0000
0000
0001
0000
0000
0000
0000
0000
0000
0000
1000
0000
0000
0000
0000
0000
0000
0000
0000
0000
0000
0000
0000
0000
0000
0000
0000
0000
0000
0000
0000
0000
0000
0000
0200
0000
0000
0300
0000
0000
0000
0000
0000
0000
0000
0000
0000
0000
0000
0000
0000
0000
0000
0000
0000
0000
0000
0000
0200
0000
0000
0300
0000
0000
0000
0000
0000
0000
0000
0000
0000
0000
0000
0000
0000
0000
0000
0000
0000
0000
0000
0000
0001
0000
0000
0000
0000
0000
0000
0000
0000
0000
0000
0000
0000
0000
0000
0000
0000
0000
0000
0000
0000
0000
0000
0000
,  // measure 13
1000
0000
0000
0000
0000
0000
0001
0000
0000
0100
0000
0000
0010
0000
0000
0000
0000
0000
0100
0000
0000
0000
0000
0000
2000
0000
0000
0000
0000
0000
0000
0000
0000
0000
0000
0000
3200
0000
0000
0000
0000
0000
0000
0000
0301
0000
0100
0000
,  // measure 14
0002
0000
0000
0000
0000
0000
0000
0000
0000
0000
0000
0000
0000
0000
0000
0000
1003
0000
0000
0000
0000
0000
0000
0000
0001
0000
0000
0000
0000
0000
0000
0000
0020
0030
0000
0000
0000
0000
0000
0000
0020
0030
0000
0000
0000
0000
0000
0000
1000
0000
0000
0000
0000
0000
0000
0000
0001
0000
0000
0000
0000
0000
0000
0000
,  // measure 15
0000
0000
0000
0000
0000
0000
1000
0000
0000
0001
0000
0000
0100
0000
0000
0000
0000
0000
0010
0000
0000
0000
0000
0000
2000
0000
0000
0000
0000
0000
0000
0000
0000
0000
0000
0000
3002
0000
0000
0000
0000
0000
0000
0000
0013
0000
0001
0000
,  // measure 16
0020
0000
0000
0000
0000
0000
0130
0000
0000
1000
0001
1000
0020
0000
0000
0000
0000
0000
0130
0000
0000
1001
0000
0000
,  // measure 17
1000
0000
0001
0010
0001
0000
0100
0000
0010
0000
1000
0100
0000
0100
0010
0000
,  // measure 18
0001
0000
0000
0000
0000
0000
0000
0000
0100
0000
0000
0000
0010
0000
0000
0000
0100
0000
0000
0000
0000
0000
0000
0000
0001
0000
0000
0000
0000
0000
0000
0000
1000
0000
0000
0000
0000
0000
0000
0000
0200
0300
0000
0000
0000
0000
0000
0000
0200
0300
0000
0000
0000
0000
0000
0000
0001
0000
0000
0000
0000
0000
0000
0000
,  // measure 19
1000
0000
0100
0010
0100
0000
1000
0000
0001
0000
0100
0010
0000
0010
1000
0000
,  // measure 20
0001
0000
0010
0100
0010
0000
0001
0000
1000
0001
1000
0010
0200
0000
0000
0000
,  // measure 21
0301
0000
1000
0010
1000
0000
0100
0000
0010
0000
0001
0100
0000
0100
0010
0000
,  // measure 22
1000
0000
0000
0000
0000
0000
0000
0000
0100
0000
0000
0000
0010
0000
0000
0000
0100
0000
0000
0000
0000
0000
0000
0000
1000
0000
0000
0000
0000
0000
0000
0000
0001
0000
0000
0000
0000
0000
0000
0000
0200
0300
0000
0000
0000
0000
0000
0000
0200
0300
0000
0000
0000
0000
0000
0000
1000
0000
0000
0000
0000
0000
0000
0000
,  // measure 23
0001
0000
0100
0010
0100
0000
0001
0000
1000
0000
0100
0010
0000
0010
0001
0000
,  // measure 24
1000
0000
0010
0100
0010
0000
1000
0000
0001
1000
0001
0010
0100
1000
0010
0100
,  // measure 25
0002
0000
0000
0000
0000
0000
1003
0000
0000
0001
0000
0000
0010
0000
0010
0000
1000
0000
0100
0000
0100
0000
0001
0000
,  // measure 26
1000
0000
0000
0000
0000
0000
0000
0000
0000
1010
0000
0000
0000
0000
0000
0000
0000
0000
0101
0000
0000
0000
0000
0000
0001
0000
0000
0000
0010
0000
0000
0000
1000
0000
0000
0000
0001
0000
0000
0000
0100
0000
0000
0000
1000
0000
0000
0000
,  // measure 27
0020
0000
0000
0000
0000
0000
0000
0000
0000
0000
0000
0000
0000
0000
0000
0000
0000
0000
0130
0000
0000
0001
0000
0000
1000
0000
0000
0000
0100
0000
0000
0000
0100
0000
0000
0000
0001
0000
0000
0000
0010
0000
0000
0000
0010
0000
0000
0000
,  // measure 28
1000
0000
0000
0000
0000
0000
0000
0000
0000
0110
0000
0000
0000
0000
0000
0000
0000
0000
1001
0000
0000
0000
0000
0000
0001
0000
0000
0000
0010
0000
0000
0000
1000
0000
0000
0000
0010
0000
0000
0100
0000
0000
0010
0000
0000
0100
0000
0000
,  // measure 29
2000
0000
0000
0000
0000
0000
3001
0000
0000
1000
0000
0000
0010
0000
0010
0000
0001
0000
0100
0000
0100
0000
1000
0000
,  // measure 30
0001
0000
0000
0011
0000
0000
1100
0000
2020
0000
3030
0000
0202
0000
0303
0000
,  // measure 31
2002
0000
0000
0000
0003
0000
3100
0010
0002
0000
0000
0000
0100
0000
0000
0000
,  // measure 32
1003
0000
0010
0100
0010
0000
1000
0000
0001
0000
0010
0100
0010
0000
0001
0000
,  // measure 33
1000
0000
0010
0100
0000
1000
0100
0000
0001
0000
1000
0100
0000
0010
0100
0000
,  // measure 34
1000
0000
0000
0000
0000
0000
0001
0000
0000
0100
0000
0000
0000
0000
0000
0010
0000
0000
1000
0000
0000
0000
0000
0000
0100
0000
0000
0000
0000
0000
0010
0000
0001
0000
0010
0000
0002
0000
0000
0000
0000
0000
1000
0000
0000
0000
0000
0000
,  // measure 35
0103
0000
0010
1000
0000
0010
0100
0000
0001
0000
1000
0100
0000
0010
0100
0000
,  // measure 36
1000
0000
0000
0000
0000
0000
0001
0000
0000
0100
0000
0000
0000
0000
0000
0100
0000
0000
0010
0000
0000
0000
0000
0000
1000
0000
0000
0000
0000
0000
0100
0000
0010
0000
0100
0000
0020
0000
0000
0000
0000
0000
0000
0000
0000
0000
0000
0000
,  // measure 37
0031
0000
0010
0100
0000
0001
0100
0000
1000
0000
0001
0100
0000
0010
0100
0000
,  // measure 38
0001
0000
0000
0000
0000
0000
1000
0000
0000
0100
0000
0000
0000
0000
0000
0010
0000
0000
0001
0000
0000
0000
0000
0000
0100
0000
0000
0000
0000
0000
0010
0000
1000
0000
0010
0000
2000
0000
0000
0000
0000
0000
0001
0000
0000
0000
0000
0000
,  // measure 39
3100
0000
0010
0001
0000
0010
0100
0000
1000
0000
0001
0100
0000
0010
0100
0000
,  // measure 40
0001
0000
0000
0000
0000
0000
1000
0000
0000
0100
0000
0000
0000
0000
0000
0100
0000
0000
0010
0000
0000
0000
0000
0000
0001
0000
0000
0000
0000
0000
0100
0000
0010
0000
0100
0000
0020
0000
0000
0000
0000
0000
0000
0000
0000
0000
0000
0000
,  // measure 41
1030
0000
0100
0010
0100
1000
0001
0000
1000
0000
0010
0100
0000
0010
1000
0000
,  // measure 42
0001
0000
0010
1000
0000
0010
0001
0000
1000
0000
0011
0000
1000
0000
0011
0000
,  // measure 43
1000
0000
0001
0010
0100
0010
0001
0000
1000
0000
0010
0100
0000
0010
0001
0000
,  // measure 44
0010
0000
0000
0000
0000
0000
1000
0000
0000
0001
0000
0000
0000
0000
0000
1000
0000
0000
0100
0000
0000
0000
0000
0000
0010
0000
0000
0000
0000
0000
0001
0000
1000
0000
0001
0000
0200
0000
0000
0000
0000
0000
0010
0000
0000
0000
0000
0000
,  // measure 45
0301
0000
0100
0010
0100
0001
1000
0000
0001
0000
0010
0100
0000
0010
0001
0000
,  // measure 46
1000
0000
0010
0001
0000
0010
1000
0000
0001
0000
1010
0000
0001
0000
1010
0000
,  // measure 47
0001
0000
1000
0010
0100
0010
1000
0000
0001
0000
0010
0100
0000
0010
1000
0000
,  // measure 48
0010
0000
0000
0000
0000
0000
0001
0000
0000
1000
0000
0000
0000
0000
0000
0001
0000
0000
0100
0000
0000
0000
0000
0000
0010
0000
0000
0000
0000
0000
1000
0000
0001
0000
1000
0000
0200
0000
0000
0000
0000
0000
0000
0000
0000
0000
0000
0000
,  // measure 49
1300
0000
0001
0100
0000
0100
0001
0000
1000
0000
0100
0010
0000
0100
1000
0000
,  // measure 50
0001
0000
0100
0010
0000
0010
1000
0000
0001
0000
1010
0000
0001
0000
1100
0000
,  // measure 51
0001
0000
1000
0100
0000
0100
1000
0000
0001
0000
0100
0010
0000
0100
0001
0000
,  // measure 52
1000
0000
0100
0010
0000
0010
0001
0000
1000
0000
0011
0000
1000
0000
0101
0000
,  // measure 53
2000
0000
0000
0000
3020
0000
0000
0000
0031
0000
0000
0110
0000
0000
1010
0000
,  // measure 54
2001
0000
3200
0000
0301
0100
1000
1001
,  // measure 55
0002
0000
0000
0000
0023
0000
0000
0000
1030
0000
0000
0110
0000
0000
0011
0000
,  // measure 56
1001
0000
0000
0000
0000
0000
1000
0000
0000
0001
0000
0000
1000
0000
0000
0000
0010
0000
0000
0000
0001
0000
0000
0000
1000
0000
0000
0000
0100
0000
0000
0000
0001
0000
0000
0000
1000
0000
0000
0100
0000
0000
0010
0000
0000
0001
0000
0000
,  // measure 57
2000
0000
0000
0000
0000
0000
0000
0000
0000
3001
0000
0000
0100
0000
0100
0000
0100
0000
0010
0000
0010
0000
0010
0000
,  // measure 58
2000
0000
0000
0000
0000
0000
0000
0000
0000
3002
0000
0000
0000
0000
0000
0000
0000
0000
0103
0000
0000
0000
0000
0000
0010
0000
0000
0000
0010
0000
0000
0000
0010
0000
0000
0000
0100
0000
0000
0000
0100
0000
0000
0000
0100
0000
0000
0000
,  // measure 59
0002
0000
0000
0000
0000
0000
0000
0000
0000
1003
0000
0000
0100
0000
0100
0000
0100
0000
0010
0000
0010
0000
0010
0000
,  // measure 60
0001
0100
0100
1000
0010
0010
0002
0000
0000
0000
0000
0000
,  // measure 61
0003
0000
0000
0000
;
