#TITLE:カオスが極まる;
#SUBTITLE:;
#ARTIST:UNISON SQUARE GARDEN;
#TITLETRANSLIT:CHAOS GA KIWAMARU;
#SUBTITLETRANSLIT:;
#ARTISTTRANSLIT:;
#GENRE:J-ROCK;
#CREDIT:;
#BANNER:CHAOS GA KIWAMARU.png;
#BACKGROUND:CHAOS GA KIWAMARU-bg.png;
#LYRICSPATH:;
#CDTITLE:cdtitle.png;
#MUSIC:CHAOS GA KIWAMARU.ogg;
#OFFSET:-0.016000;
#SAMPLESTART:63.361000;
#SAMPLELENGTH:15.000000;
#SELECTABLE:YES;
#DISPLAYBPM:98.000000:195.000000;
#BPMS:0.000000=195.000000
,112.000000=97.500000
,128.000000=195.000000
,160.000000=97.500000
,171.750000=195.000000
,238.000000=97.500000
,244.000000=195.000000
;
#STOPS:171.750000=1.923000
;
#BGCHANGES:0.000=CHAOS GA KIWAMARU.avi=1.000=0=0=0=StretchNoLoop==CrossFade_Fastest==,
99999=-nosongbg-=1.000=0=0=0 // don't automatically add -songbackground-
;
#KEYSOUNDS:;
#ATTACKS:;

//---------------dance-single - Daff_4K----------------
#NOTES:
     dance-single:
     Daff_4K:
     Beginner:
     3:
     0.138974,0.207982,0.111818,0.000000,0.000000,87.000000,77.000000,10.000000,0.000000,0.000000,0.000000,0.138974,0.207982,0.111818,0.000000,0.000000,87.000000,77.000000,10.000000,0.000000,0.000000,0.000000:
0000
0000
0000
0000
,
0000
0000
0000
0000
,
0000
0000
0000
0000
,
0000
0000
0000
0000
,
1000
0000
0000
0000
,
0001
0000
0100
0000
,
0001
0000
0000
0000
,
1000
0000
0100
0000
,
1000
0000
0000
0000
,
0001
0000
0000
0000
,
1001
0000
0000
0000
,
0000
0000
0000
0000
,
1001
0000
0000
0000
,
1000
0000
0000
0000
,
0001
0000
0010
0000
,
0001
0000
0000
0000
,
1001
0000
0000
0000
,
0001
0000
0000
0000
,
1000
0000
0010
0000
,
1000
0000
0000
0000
,
0001
0000
0000
0000
,
0010
0000
0001
0000
,
1000
0000
0000
0000
,
0010
0000
1000
0000
,
0001
0000
0000
0000
,
0010
0000
0100
0000
,
0010
0000
0000
0000
,
0100
0000
0000
0000
,
1001
0000
0000
1000
,
1000
0000
0000
0001
,
0001
0000
0000
0100
,
0100
0000
0010
0010
,
0010
0000
0000
0000
,
0100
0000
0000
0000
,
0001
0000
1000
0000
,
0100
0000
0100
0000
,
0100
0000
0000
0000
,
1000
0000
0000
0000
,
0001
0000
1000
0000
,
0001
0000
0000
0000
,
1001
0000
0000
0000
,
0000
0000
0000
0000
,
0000
0000
0000
0000
,
0000
0000
1001
0000
,
0000
0000
1000
0000
,
0010
0000
1000
0000
,
0000
0000
0001
0000
,
0000
0000
1001
0000
,
0000
0000
0001
0000
,
0010
0000
0001
0000
,
0000
0000
1000
0000
,
0000
0000
1001
0000
,
0000
0000
0001
0000
,
1000
0000
0001
0000
,
0000
0000
0100
0000
,
0010
0000
0100
0000
,
0000
0000
0010
0000
,
0000
0000
1000
0000
,
0001
0000
1000
0000
,
0001
0000
1001
0000
,
0000
0000
0000
0000
,
1000
0000
0001
0000
,
0110
0000
0000
0000
;

//---------------dance-single - Daff_4K----------------
#NOTES:
     dance-single:
     Daff_4K:
     Easy:
     7:
     0.335454,0.345937,0.134182,0.111818,0.027955,210.000000,198.000000,12.000000,10.000000,0.000000,0.000000,0.335454,0.345937,0.134182,0.111818,0.027955,210.000000,198.000000,12.000000,10.000000,0.000000,0.000000:
0000
0000
0000
0000
,
0000
0000
0000
0000
,
0000
0000
0000
0000
,
0000
0000
0000
0000
,
1000
0010
1000
0001
,
1000
0100
0010
0001
,
0100
0001
1000
0001
,
0010
0100
1000
0001
,
0200
0300
0020
0030
,
0100
0000
0000
0001
0000
1000
0000
1001
,
0000
0001
1000
0010
,
0100
0000
0001
0000
1000
0000
0000
1001
,
0000
1000
0000
0100
,
0000
0001
0100
1000
,
0001
0100
0010
1000
,
0100
0000
0010
0000
0001
0000
0000
1001
,
0000
0001
0000
0010
,
0000
1000
0010
0001
,
1000
0010
0100
0001
,
1000
0000
0000
0100
0000
0010
0000
0100
,
0000
1000
0010
0100
,
0010
1000
0001
0000
,
1000
0100
0010
0100
,
0001
0100
1000
0000
,
1000
0001
0100
0010
,
0100
0001
1000
0000
,
0001
0010
0100
0010
,
1000
0000
0010
0000
0001
0000
0000
2001
,
0000
0000
0000
0000
0000
0000
0000
0000
3010
0000
0000
0000
0100
0000
0000
0002
,
0000
0000
0000
0000
0000
0000
0000
0000
0013
0000
0000
0000
0100
0000
0000
2000
,
0000
0000
0000
0000
0000
0000
0000
0000
3001
0000
0000
0000
1000
0000
0000
0020
,
0000
0000
0000
0000
0000
0000
0000
0000
0130
0000
0000
0000
0001
0000
0000
2001
,
0000
0000
3100
0001
,
0100
0000
1000
0000
0001
0000
0000
0101
,
0000
0000
0000
1010
0000
0000
0000
1000
,
0000
0100
0000
0001
0000
0100
0000
1000
,
0000
0010
0010
0100
,
0100
0001
0001
1000
,
1000
0100
0010
0001
,
0100
0010
1000
0001
,
2001
0100
0000
0100
,
3002
0100
0000
0100
,
2003
0000
0000
0000
0001
0000
0000
0000
0000
0000
0000
0000
3001
0000
0000
1001
,
0000
0000
1000
0010
,
1000
0010
0001
0010
,
0001
0010
1000
0100
,
0001
0100
1000
0001
,
1000
0000
0001
0010
,
0001
0010
1000
0010
,
1000
0010
0001
0100
,
1000
0100
0001
1000
,
0001
0000
1000
0100
,
0001
0100
1000
0010
,
0001
0010
1000
0001
,
1000
0000
0000
0100
0000
0100
0000
0010
,
0000
0010
0000
1001
0000
0000
0001
0000
,
1000
0001
0100
0010
,
0100
0010
1000
1000
,
0001
0001
0010
0100
,
1000
0001
1001
0000
,
0000
0000
0000
0000
,
1000
0000
0001
0000
0100
0000
0000
0110
;

//---------------dance-single - Daff_4K----------------
#NOTES:
     dance-single:
     Daff_4K:
     Medium:
     11:
     0.495194,0.590469,0.480818,0.458454,0.033545,310.000000,267.000000,43.000000,41.000000,0.000000,0.000000,0.495194,0.590469,0.480818,0.458454,0.033545,310.000000,267.000000,43.000000,41.000000,0.000000,0.000000:
0000
0000
0000
0000
,
0000
0000
0000
0000
,
0000
0000
0000
0000
,
0000
0000
0000
0000
0000
0000
0000
1001
,
0000
1000
0010
1000
,
0001
0000
0010
0000
0100
1000
0100
0000
,
1000
0001
0100
0001
,
1000
0000
0100
0000
0010
0001
0010
0000
,
1002
0103
2001
3100
,
1002
0000
0103
0010
0000
0110
0000
2001
,
0000
3100
0010
0001
,
0100
0000
0010
0000
1000
0001
0000
2001
,
0000
3010
0001
0010
,
0100
0010
1000
0001
,
1000
0100
0010
0000
0001
0010
0100
0000
,
2000
0000
3002
0000
0103
0010
0000
1002
,
0000
0103
1000
0100
,
0010
0100
0001
1000
,
0001
0010
0100
0000
1000
0100
0010
0000
,
0001
0000
1000
0001
0000
1001
0000
2001
,
0000
3100
0010
0100
,
1000
0001
1000
0000
0010
0000
0100
0000
,
0001
0000
0010
0100
1000
0000
0001
0000
,
0100
0010
0100
0000
0010
0000
1000
0000
,
0001
0010
0100
0010
,
0001
1000
0001
0000
0100
0000
0010
0000
,
2000
3200
0320
0032
,
0203
0000
0320
0000
1030
0000
0000
1002
,
0000
0000
0000
0000
1003
0000
0100
0000
0010
0000
0000
0000
0001
0000
0000
2001
,
0000
0000
0000
0000
3001
0000
0010
0000
0100
0000
0000
0000
1000
0000
0000
1002
,
0000
0000
0000
0000
1003
0000
0010
0000
0100
0000
0000
0000
0001
0000
0000
2001
,
0000
0000
0000
0000
3001
0000
0100
0000
0010
0000
0000
0000
1000
0000
0000
0200
,
0000
1000
0010
1000
,
0320
0000
0001
0000
0100
0000
0031
2000
,
0000
3010
0000
0210
0000
0301
0000
0011
,
0000
1100
0000
1001
0000
0110
0000
1001
,
0000
0001
1000
0000
1100
0000
0001
0000
,
0101
1000
1010
0001
,
0011
0000
1000
0100
1000
0000
0001
0100
,
0001
0000
1001
0000
1000
0100
0010
0001
,
2000
0000
0010
0010
3020
0000
0230
0000
,
0301
0010
1000
0010
0200
0000
1300
0000
,
1002
0000
0000
0000
0100
0000
0100
0000
0203
0000
0000
0000
0310
1000
0000
1001
,
0000
0000
0000
1002
0000
0000
0103
0000
,
0010
0000
0100
0000
0001
0010
0100
0000
,
1000
0100
0010
0000
0001
0000
1000
0000
,
0010
0000
0100
0001
0000
1000
0001
0000
,
0010
0100
0000
2001
0000
0000
3010
0000
,
0100
0000
0010
0000
1000
0100
0010
0000
,
0001
0010
0100
0000
1000
0000
0001
0000
,
0100
0000
0010
1000
0000
0001
1000
0000
,
0100
0010
0000
1002
0000
0000
0100
0000
,
1000
0100
2003
0100
,
0001
0100
3020
0001
,
0100
0000
1030
0001
0000
0110
0000
1001
,
0000
0110
0000
1001
0000
0000
1010
0000
,
0110
0101
0011
0110
,
1100
0000
1001
0000
0001
0100
0001
0000
,
1000
0100
1000
0000
0001
0010
0100
0000
,
1000
0010
0100
0000
1002
0000
0010
0010
,
0023
0230
2300
3001
,
0100
0010
1000
0002
0000
1003
0000
0220
,
0000
0330
0000
0000
0000
0000
0000
0000
;

//---------------dance-single - Daff_4K----------------
#NOTES:
     dance-single:
     Daff_4K:
     Hard:
     13:
     0.672506,0.764137,0.749181,0.514363,0.134182,421.000000,354.000000,67.000000,46.000000,0.000000,0.000000,0.672506,0.764137,0.749181,0.514363,0.134182,421.000000,354.000000,67.000000,46.000000,0.000000,0.000000:
0000
0000
0000
0000
,
0000
0000
0000
0000
,
0000
0000
0000
0000
,
0000
0000
0000
0000
0000
0000
0000
2001
,
0000
3100
0010
0001
1000
0020
0000
0130
,
0000
2001
0000
3100
0000
0011
0000
1002
,
0000
0103
0010
1000
0001
0020
0000
0130
,
0000
1002
0000
0103
0000
1010
0000
2001
,
0000
3100
0000
0012
0000
1003
0000
1010
,
0000
0101
0000
1001
0000
0110
0000
2001
,
0000
3020
0100
0000
0100
0000
0100
0000
,
0130
0001
1000
0100
0010
0001
0000
2001
,
0000
3010
0200
0000
0310
1000
0002
0000
,
1003
0100
0010
0200
0000
1300
0010
0100
,
0001
0010
0100
1000
0100
0010
0001
1000
,
0010
0100
0010
1000
0100
0010
0000
1002
,
0000
0103
0020
0000
0130
0001
2000
0000
,
3001
0010
0100
0020
0000
0031
0100
0010
,
1000
0100
0010
0001
0010
0100
1000
0001
,
0100
0010
1000
0001
0000
1001
0000
1000
,
0001
0101
1010
1001
,
0001
0010
1000
0010
0001
0000
1001
0000
,
1000
0010
0100
0001
1000
0100
0010
0001
,
0100
1000
0100
0001
0010
0000
0110
0000
,
1001
1010
0101
1001
,
1000
0100
0001
0100
1000
0000
1001
0000
,
0101
1010
1100
0011
,
1001
0000
0000
0000
0000
0000
0010
0000
0100
0000
0010
0000
0100
0000
0000
0010
0000
0000
0000
0000
0000
2001
0000
0000
,
0000
0000
0000
0000
0000
0000
3001
0000
0010
0100
0000
1000
0000
0010
0000
0100
,
0000
1002
0000
0000
0000
0000
1003
0000
0100
0010
0000
0001
0000
0100
0000
0010
,
0000
2001
0000
0000
0000
0000
3001
0000
0010
0100
0000
1000
0000
0010
0000
0100
,
0000
1002
0000
0000
0000
0000
1003
0000
0100
0000
0001
0100
0000
1000
0001
1000
,
0020
1000
0001
1000
,
0230
0000
0001
0000
1000
0000
0301
2000
,
0000
3100
0000
0012
0000
1003
0000
0101
,
0000
1010
0000
1100
0000
0011
0000
1001
,
0000
1000
0010
0100
0010
1000
0001
0010
,
0100
0010
0001
1000
0010
0100
0001
0010
,
0100
0000
1001
0000
1000
0010
0001
0000
,
0110
0000
1001
0000
0010
0100
0010
2001
,
0000
0000
3100
0010
1000
0001
0100
1000
,
0010
0001
0100
1000
0110
0001
0110
1000
,
1002
0000
0000
0000
0103
0000
0010
0000
0001
0000
1000
0000
0100
0001
1000
0001
,
0100
0010
1000
1002
0000
0013
0210
0000
,
1300
0010
0100
0020
0000
1030
0100
0002
,
0000
0103
1000
0020
0000
0130
0010
1000
,
0001
0010
0100
2000
0000
3001
0200
0000
,
0310
0100
0001
2001
0000
3100
0120
0000
,
0031
0100
0010
0200
0000
0301
0010
2000
,
0000
3010
0001
0200
0000
0010
0000
0301
,
1000
0100
0010
0002
0000
0103
0020
0000
,
1030
0001
0010
0210
0000
1300
0010
0001
,
0010
1000
0100
0010
0001
0100
1000
0100
,
0001
0010
0100
1000
0001
0100
0010
1000
,
0100
0010
0001
0101
0000
1010
0000
1100
,
0000
0011
0000
1001
0000
1000
0001
0000
,
0101
1010
1001
1100
,
0011
0000
1001
0000
1000
0100
0010
0001
,
1000
0010
0100
0001
0010
0100
1000
0001
,
0100
0010
1000
1002
0000
0000
0013
1000
,
0001
0000
0100
0000
1000
0000
0001
0000
0100
0000
0010
0000
1000
0001
1000
0001
,
0010
0100
1000
0001
0000
0110
0000
2002
,
0000
3003
0000
0000
0000
0000
0000
0000
;

//---------------dance-single - Daff_4K -Egoist-----------------
#NOTES:
     dance-single:
     Daff_4K -Egoist-:
     Challenge:
     15:
     0.795506,0.868337,0.424909,0.659727,0.391363,498.000000,460.000000,38.000000,59.000000,0.000000,0.000000,0.795506,0.868337,0.424909,0.659727,0.391363,498.000000,460.000000,38.000000,59.000000,0.000000,0.000000:
// measure 0
0000
0000
0000
0000
,  // measure 1
0000
0000
0000
0000
,  // measure 2
0000
0000
0000
0000
,  // measure 3
0000
0000
0000
0000
0000
0000
0000
2001
,  // measure 4
0000
3100
0010
0001
1000
0020
0000
0130
,  // measure 5
0000
0102
0000
1003
0000
0110
0000
1002
,  // measure 6
0000
0013
0100
1000
0001
0200
0000
0310
,  // measure 7
0000
0000
1001
0000
0000
0000
1000
0100
1000
0000
0001
0100
0001
0000
0020
0000
,  // measure 8
0000
0000
0130
0000
1000
0000
0001
1000
0001
0000
0100
0000
0010
0000
2000
0000
,  // measure 9
0000
3100
0010
0001
0000
0110
0000
1002
,  // measure 10
0000
0203
0010
0000
0010
0000
0010
0000
,  // measure 11
0310
1000
0001
0010
0100
1000
0000
1002
,  // measure 12
0000
0103
0020
0000
0130
0001
2000
0000
,  // measure 13
3100
0010
0001
2000
0000
3010
0100
0001
,  // measure 14
1000
0000
0001
0010
0001
0000
1000
0010
1000
0000
0100
0000
0010
0000
0001
0000
,  // measure 15
0100
0000
0010
0100
0010
0000
1000
0000
0001
0000
0010
0000
0000
0000
2001
0000
,  // measure 16
0000
3010
0200
0000
0310
1000
0002
0000
,  // measure 17
0013
0100
1000
0002
0000
0103
0010
1000
,  // measure 18
0001
0000
1000
0100
1000
0000
0001
0100
0001
0000
0010
0000
0100
0000
1000
0000
,  // measure 19
0010
0100
0001
1001
0000
0110
0000
1001
,  // measure 20
0000
1000
0100
0001
0100
1000
0010
0001
,  // measure 21
0010
1000
0100
0010
0001
0010
0100
1000
,  // measure 22
0010
0100
0010
1000
0100
0010
0100
1000
,  // measure 23
0010
0100
0001
1000
0010
0100
0010
1000
,  // measure 24
0001
0010
1000
0010
0001
0100
1000
0100
,  // measure 25
0001
0010
0100
1000
0100
0010
0001
1000
,  // measure 26
0001
0100
0001
0000
1000
0100
1000
0000
0001
0010
0001
0000
1000
0010
1000
0000
,  // measure 27
0001
0000
0000
1000
0000
0000
0100
0000
0010
0000
0100
0000
0010
0000
0000
0001
0000
0000
0000
0000
0000
2001
0000
0000
,  // measure 28
0000
0000
0000
0000
3100
0000
0010
0000
0001
0100
0000
0100
0000
1000
0000
0110
,  // measure 29
0000
1002
0000
0000
0013
0000
0100
0000
1000
0010
0000
0010
0000
0001
0000
0110
,  // measure 30
0000
2001
0000
0000
3100
0000
0010
0000
0001
0100
0000
0100
0000
1000
0000
0110
,  // measure 31
0000
0000
1002
0000
0000
0000
0000
0000
0013
0000
0000
0000
0100
0000
0000
0000
1000
0000
0000
0000
0001
0000
1000
0000
0010
0100
0010
0000
0100
0000
0002
0000
,  // measure 32
0000
1003
0100
0010
0100
0001
0100
1000
,  // measure 33
0010
0100
0010
0001
0010
1000
0100
0120
,  // measure 34
0000
0031
0100
0120
0000
1030
0100
0110
,  // measure 35
0000
1001
0000
1010
0000
0101
0000
1001
,  // measure 36
0000
1000
0100
0001
0100
1000
0010
0001
,  // measure 37
0010
1000
0100
0010
0001
0100
0010
1000
,  // measure 38
0001
0010
0001
0000
1000
0010
1000
0000
0100
0000
0010
0000
0001
0000
1000
0000
,  // measure 39
0001
0100
0001
0000
1000
0100
1000
0000
0010
0100
0010
0000
0100
0000
0001
0000
,  // measure 40
2001
0000
3100
0002
0203
2300
3020
0001
,  // measure 41
0230
0000
0000
0000
0302
0000
0000
0000
2003
0000
0000
0000
3100
0000
0000
0000
0020
0000
0000
0100
0000
0000
0031
0000
1000
0000
0000
0000
0110
0000
0000
0000
,  // measure 42
1002
0000
0000
0000
0000
0000
0000
0000
0013
0000
0000
0000
2000
0000
0000
0000
3020
0000
0000
0000
0032
0000
0000
0000
0103
0010
0100
0000
0010
0000
1001
0000
,  // measure 43
0100
0000
0010
0100
0010
0000
2001
0000
0000
0000
3100
0010
0002
0000
0000
0000
,  // measure 44
1003
0000
0001
0000
0100
0001
0100
0000
0010
0000
1000
0000
0001
0010
0001
0000
,  // measure 45
1000
0010
0100
0001
1000
0200
0010
2300
,  // measure 46
0001
0000
3010
0000
0100
0000
0001
0000
1000
0000
0001
0010
0100
0000
1000
0000
,  // measure 47
0100
0000
0010
0100
0010
0000
1002
0000
0000
0000
0103
0010
2000
0000
0000
0000
,  // measure 48
3100
0000
1000
0000
0001
1000
0001
0000
0010
0000
0100
0000
1000
0001
1000
0000
,  // measure 49
0010
0001
0010
1000
0010
0100
0001
0010
,  // measure 50
0100
0000
1000
0000
0001
0000
1001
0000
0000
0000
1000
0001
1000
0000
0001
0000
,  // measure 51
0010
0000
0100
0010
0100
0000
1002
0000
0000
0000
0013
0100
2000
0000
0000
0000
,  // measure 52
3001
0000
1000
0000
0010
1000
0010
0000
0100
0000
0001
0000
1000
0100
1000
0000
,  // measure 53
0001
0100
0010
1000
0001
0020
0100
0032
,  // measure 54
1000
0000
0103
0000
0010
0000
2000
0100
0000
0000
3002
0100
0000
0000
0013
0000
,  // measure 55
0100
0010
0100
0000
1000
0000
1002
0000
0000
0000
0103
0000
1000
0000
0100
0000
,  // measure 56
0001
0010
1000
0010
0001
1000
0010
0001
,  // measure 57
0010
0000
1000
0000
0100
0000
0001
0000
0100
0010
0100
0000
1000
0000
0001
0000
,  // measure 58
0100
0010
0100
0000
0001
0000
1000
0000
0001
0010
0001
0000
1000
0010
1000
0000
,  // measure 59
0100
0010
0001
1000
0001
1000
0020
0000
0000
0000
0000
0000
0130
0000
0002
0000
,  // measure 60
0023
0000
0000
0000
2030
0000
0000
0000
3020
0000
0000
0000
0100
0000
0000
0000
0032
0000
0000
0000
2003
0000
0000
0000
3010
0000
0100
0010
0100
0000
0001
0000
,  // measure 61
1000
0001
0010
0110
0000
1001
0000
0220
,  // measure 62
0000
0330
0000
0000
0000
0000
0000
0000
;
