#TITLE:Backyun!;
#SUBTITLE:-悪い女-;
#ARTIST:青木千紘&愛海;
#TITLETRANSLIT:;
#SUBTITLETRANSLIT:-Warui Onna-;
#ARTISTTRANSLIT:Chihiro Aoki & Manami;
#GENRE:ELECTROPOP;
#CREDIT:;
#BANNER:Backyun! -Warui Onna-.png;
#BACKGROUND:Backyun! -Warui Onna--bg.png;
#LYRICSPATH:;
#CDTITLE:cdtitle.png;
#MUSIC:Backyun! -Warui Onna-.ogg;
#OFFSET:-1.661000;
#SAMPLESTART:57.373001;
#SAMPLELENGTH:15.000000;
#SELECTABLE:YES;
#BPMS:0.000000=140.000000
;
#STOPS:130.000000=0.429000
;
#BGCHANGES:-3.000=Backyun! -Warui Onna-.avi=1.000=0=0=0=StretchNoLoop==CrossFade_Fastest==,
99999=-nosongbg-=1.000=0=0=0 // don't automatically add -songbackground-
;
#KEYSOUNDS:;
#ATTACKS:;

//---------------dance-single - Daff_4K----------------
#NOTES:
     dance-single:
     Daff_4K:
     Beginner:
     4:
     0.153845,0.212668,0.054298,0.000000,0.000000,119.000000,113.000000,6.000000,0.000000,0.000000,0.000000,0.153845,0.212668,0.054298,0.000000,0.000000,119.000000,113.000000,6.000000,0.000000,0.000000,0.000000:
0000
0000
0000
0000
,
0000
0000
0000
0000
,
0000
0000
0000
0000
,
0000
0000
0000
0000
,
0010
0010
0000
0000
,
0100
0100
0000
0000
,
0010
0010
0000
0000
,
1001
0000
0000
0000
,
0001
0001
0000
0000
,
1000
1000
0000
0000
,
0001
0001
0000
0000
,
0010
0000
0100
0000
,
0010
0010
0000
0000
,
0100
0100
0000
0000
,
0010
0010
0000
0000
,
0100
0100
0100
0000
,
1000
0000
0000
0000
,
0001
0000
0000
0000
,
0100
0000
0000
0000
,
0001
0001
0001
0000
,
0001
0000
0000
0000
,
1000
0000
0000
0000
,
0100
0000
0000
0000
,
1000
1000
1000
0000
,
0001
0001
0001
0000
,
0100
0000
0010
0000
,
0010
0000
0000
0000
,
1000
0000
0001
0000
,
1000
1000
1000
0000
,
0100
0000
0010
0000
,
0001
0000
0000
1001
,
0000
0000
0000
0000
,
0000
0000
0000
1000
,
1000
0000
0001
0000
,
1000
1000
0000
0010
,
0000
0010
0000
0100
,
0000
0000
0000
0001
,
0001
0000
1000
0000
,
0001
0001
0000
0010
,
0000
0010
0000
0100
,
0100
0000
0000
1000
,
1000
1000
1000
0000
,
0000
0010
0000
0100
,
0100
0100
0100
0000
,
0000
0000
0000
0001
,
0001
0001
0001
0000
,
0000
0010
0000
0100
,
0100
0100
0100
0000
,
0000
1000
0000
0001
,
0001
0001
0001
0000
,
0000
1001
0000
1000
,
1000
1000
1000
0000
,
0000
1001
0000
0010
,
0010
0010
0010
0000
,
0000
0110
0000
0100
,
0100
0100
0100
0100
,
0000
0100
0000
0010
,
0000
0010
0000
0001
,
0000
1000
0000
1001
;

//---------------dance-single - Daff_4K----------------
#NOTES:
     dance-single:
     Daff_4K:
     Easy:
     5:
     0.249513,0.333934,0.217193,0.289590,0.000000,193.000000,169.000000,24.000000,32.000000,0.000000,0.000000,0.249513,0.333934,0.217193,0.289590,0.000000,193.000000,169.000000,24.000000,32.000000,0.000000,0.000000:
0000
0000
0000
0000
,
0000
0000
0000
0000
,
0000
0000
0000
0000
,
0000
0000
0000
0000
,
1000
0010
2000
3000
,
0001
0010
0002
0003
,
1000
0001
2000
3000
,
0220
0000
0330
0000
,
0002
0003
0100
0010
,
0200
0300
1000
0100
,
0020
0030
0100
0001
,
1000
1000
0001
0001
,
2000
3000
0100
0010
,
0200
0300
0001
0100
,
0020
0030
0100
1000
,
0001
0001
1000
1000
,
0002
0000
1003
0000
,
2000
0000
3010
0000
,
0020
0000
0130
0000
,
0100
0100
0001
0001
,
2000
0000
3001
0000
,
0002
0000
0013
0000
,
0020
0000
0130
0000
,
0100
0100
1000
1000
,
0001
1000
1001
0000
,
0010
0100
0110
0000
,
0001
1000
0000
0010
,
0100
0010
1000
0001
,
1000
0001
1001
0000
,
0010
0100
0110
0000
,
1000
0001
0000
0020
,
0000
0000
0000
0000
,
0000
0000
0030
0001
,
0001
1000
1000
0010
,
0100
0010
1000
0001
,
0010
1000
0100
0001
,
0000
0010
0100
1000
,
1000
0001
0001
0010
,
0100
0010
0001
1000
,
0010
0001
0100
1000
,
0000
0010
0100
0001
,
0101
1000
1100
0001
,
0010
0200
0300
1000
,
1010
0001
0011
2000
,
3000
0002
0003
1000
,
1100
0001
0101
1000
,
0010
0200
0300
0001
,
0011
1000
1010
0002
,
0003
2000
3000
0001
,
0110
1000
0110
0001
,
0100
0010
1000
0100
,
1001
0010
1001
0200
,
0300
0020
0030
1000
,
0110
0001
0110
1000
,
0100
0010
0001
0100
,
1001
0010
1001
0200
,
0300
0020
0030
2002
,
0000
3003
0000
0220
,
0000
0330
0000
1001
,
0000
0000
0000
0000
,
0000
0000
0000
1000
,
0001
0100
0010
0000
;

//---------------dance-single - Daff_4K----------------
#NOTES:
     dance-single:
     Daff_4K:
     Medium:
     9:
     0.387844,0.390381,0.244342,0.298640,0.018099,300.000000,273.000000,27.000000,33.000000,0.000000,0.000000,0.387844,0.390381,0.244342,0.298640,0.018099,300.000000,273.000000,27.000000,33.000000,0.000000,0.000000:
// measure 0
0000
0000
0000
0000
,  // measure 1
0000
0000
0000
0000
,  // measure 2
0000
0000
0000
0000
,  // measure 3
0000
0000
0000
0000
,  // measure 4
0010
0000
0000
0000
1001
0000
0000
0000
1000
0000
0000
0001
0000
0000
0100
0000
,  // measure 5
0010
0000
0000
0000
1001
0000
0000
0000
0001
0000
0000
1000
0000
0000
0100
0000
,  // measure 6
0010
0000
0000
0000
1001
0000
0000
0000
1000
0000
0000
0001
0000
0000
0100
0000
,  // measure 7
0020
0100
0130
1001
,  // measure 8
1000
0001
0000
0100
0010
0100
0001
0000
,  // measure 9
1000
0100
0000
0010
0001
1000
0001
0000
,  // measure 10
0100
0010
0000
1000
0100
0010
0100
1000
,  // measure 11
0002
0103
0020
1030
,  // measure 12
0001
1000
0000
0100
0010
0100
1000
0000
,  // measure 13
0001
0100
0000
0010
1000
0001
1000
0000
,  // measure 14
0100
0010
0000
0001
0100
0010
0100
0001
,  // measure 15
2000
3100
0020
0031
,  // measure 16
2000
0010
0000
3010
,  // measure 17
0200
0001
0000
0301
,  // measure 18
0020
0100
0000
0130
,  // measure 19
1000
0000
0001
0000
0100
0010
1000
0000
,  // measure 20
0002
0010
0000
0013
,  // measure 21
0200
1000
0000
1300
,  // measure 22
0020
0100
0000
0130
,  // measure 23
0001
0000
1000
0000
0100
0010
0001
0000
,  // measure 24
1000
0010
0100
0001
1000
0000
0100
0001
,  // measure 25
0000
0100
0000
1000
0001
0000
0110
0000
,  // measure 26
2000
0000
3001
0000
0100
0010
1000
0000
,  // measure 27
0002
0000
1003
0000
0100
0010
0100
0010
,  // measure 28
0001
0010
0100
1000
0001
0000
0100
1000
,  // measure 29
0000
0100
0000
0001
1000
0000
0110
0000
,  // measure 30
0002
0000
1003
0000
0010
0100
0000
2002
,  // measure 31
0000
0000
0000
0000
,  // measure 32
0000
0000
3003
0010
,  // measure 33
1001
0000
1000
0100
0001
0000
0100
0010
,  // measure 34
0100
2000
0000
3001
0100
0010
0000
1000
,  // measure 35
0001
1000
0100
0010
0001
2000
0000
0000
,  // measure 36
3001
0020
0130
0010
,  // measure 37
1001
0000
0001
0100
1000
0000
0100
0010
,  // measure 38
0100
0002
0000
1003
0100
0010
0000
0001
,  // measure 39
1000
0001
0100
0010
1000
0200
0000
0010
,  // measure 40
0320
0032
1003
0010
,  // measure 41
1001
0000
0100
0000
1001
0000
0001
0100
,  // measure 42
0010
0000
0100
0001
1000
0000
0100
0000
,  // measure 43
1001
0000
0010
0000
1001
0000
0001
0100
,  // measure 44
0010
1000
0002
0000
1003
0000
0010
0000
,  // measure 45
1001
0000
0100
0000
1001
0000
1000
0100
,  // measure 46
0010
0000
0100
1000
0001
0000
0100
0000
,  // measure 47
1001
0000
0010
0000
1001
0000
1000
0100
,  // measure 48
0010
0001
0200
0000
0310
0000
1000
0000
,  // measure 49
0110
0000
0001
0000
0110
0000
1000
0010
,  // measure 50
0001
0000
0010
1000
0001
0000
1000
0000
,  // measure 51
0110
0000
0001
0000
0110
0000
1000
0010
,  // measure 52
0100
0001
2000
0000
3001
0000
0001
0000
,  // measure 53
0110
0000
1000
0000
0110
0000
0001
0010
,  // measure 54
1000
0000
0010
0001
1000
0000
0001
0000
,  // measure 55
0110
0000
1000
0000
0110
0000
0001
0010
,  // measure 56
0100
1000
0020
0000
0230
0000
0301
1000
,  // measure 57
0100
0020
0000
0230
0000
0300
1000
0010
,  // measure 58
0100
0001
0020
0000
0130
0000
2002
0000
,  // measure 59
0000
0000
0000
0000
,  // measure 60
0000
0000
3003
0010
,  // measure 61
1001
0000
0000
0000
0100
0000
0000
0010
0000
0000
0100
0000
0000
0000
0000
0000
;

//---------------dance-single - Daff_4K----------------
#NOTES:
     dance-single:
     Daff_4K:
     Hard:
     12:
     0.527468,0.557687,0.361988,0.244342,0.221717,408.000000,368.000000,40.000000,27.000000,0.000000,0.000000,0.527468,0.557687,0.361988,0.244342,0.221717,408.000000,368.000000,40.000000,27.000000,0.000000,0.000000:
// measure 0
0000
0000
0000
0000
,  // measure 1
0000
0000
0000
0000
,  // measure 2
0000
0000
0000
0000
,  // measure 3
0000
0000
0000
0000
,  // measure 4
1100
0000
0000
0000
0011
0000
0000
0000
0100
0000
0000
1000
0000
0000
0010
0000
,  // measure 5
0101
0000
0000
0000
1010
0000
0000
0000
0100
0000
0000
0001
0000
0000
0010
0000
,  // measure 6
0110
0000
0000
0000
1001
0000
0000
0000
1000
0000
0000
0001
0000
0000
0100
0000
,  // measure 7
0010
0000
0000
0000
1001
0000
0000
0000
0001
1000
0001
1000
0100
0000
0010
0000
,  // measure 8
0002
1000
0003
0001
0100
1000
0100
0010
,  // measure 9
2000
0100
3000
1000
0001
0100
0010
1000
,  // measure 10
0200
0001
0300
0100
0010
0001
0100
0010
,  // measure 11
1000
0000
0001
0010
0001
0000
1000
0010
1000
0000
0001
0000
0100
0000
0010
0000
,  // measure 12
2000
0001
3000
1000
0100
0001
0100
0010
,  // measure 13
0002
0100
0003
0001
1000
0100
0010
0001
,  // measure 14
0200
1000
0300
0100
0010
1000
0100
0010
,  // measure 15
0001
0000
1000
0010
1000
0000
0001
0010
0001
0000
1000
0000
0100
0000
0010
0000
,  // measure 16
0002
0000
0100
0000
1000
0000
0013
0001
,  // measure 17
0200
0000
1000
0000
0010
0000
0301
0100
,  // measure 18
0020
0000
1000
0000
0100
0000
0031
0010
,  // measure 19
1000
0000
0001
0100
0001
0000
1000
0010
1000
0000
0001
0000
0100
0000
0010
0000
,  // measure 20
2000
0000
0100
0000
0001
0000
3010
1000
,  // measure 21
0200
0000
0001
0000
0010
0000
1300
0100
,  // measure 22
0020
0000
0001
0000
0100
0000
1030
0010
,  // measure 23
0001
0000
1000
0100
1000
0000
0001
0010
0001
0000
1000
0000
0100
0000
0010
0000
,  // measure 24
0001
0100
1000
0100
0020
0000
1030
0001
,  // measure 25
0000
0110
0000
1000
0001
0000
1001
0000
,  // measure 26
1000
0100
0010
0100
0001
0100
1000
0010
,  // measure 27
0200
0000
0000
0000
0301
0000
1000
0000
0100
0010
0000
0100
0010
0000
0001
0000
,  // measure 28
1000
0100
0001
0100
0020
0000
0031
1000
,  // measure 29
0000
0110
0000
0001
1000
0000
1001
0000
,  // measure 30
0001
0100
0010
0100
1000
0100
0001
2002
,  // measure 31
0000
0000
0000
0000
,  // measure 32
0000
0000
3003
1100
,  // measure 33
0011
0000
0001
1000
0110
0000
0001
0010
,  // measure 34
1000
0000
0020
0000
0000
0000
0031
0000
1000
0000
0001
0000
0000
0001
0100
0000
,  // measure 35
1000
0100
0010
1000
0001
0020
1000
0000
,  // measure 36
0130
0000
0000
0000
0010
0001
0000
0000
1000
0001
0000
0000
0101
0000
0000
0000
,  // measure 37
1010
0000
1000
0001
0110
0000
1000
0010
,  // measure 38
0001
0000
0020
0000
0000
0000
1030
0000
0001
0000
1000
0000
0000
1000
0100
0000
,  // measure 39
0001
0100
0010
0001
0100
2000
0000
3100
,  // measure 40
0020
0000
0000
0000
1030
0000
0001
0000
0010
0000
0100
0000
1000
0010
0000
0000
,  // measure 41
0110
0000
0000
0000
0100
0001
0000
0000
1001
0000
0000
0000
1000
0000
0100
0000
,  // measure 42
0001
0000
0200
0000
0000
0000
0310
0000
0001
0000
0000
0000
1000
0100
0000
0000
,  // measure 43
0110
0000
0000
0000
0010
0001
0000
0000
1001
0000
0000
0000
1000
0000
0010
0000
,  // measure 44
0100
0000
0001
0000
0010
0100
0000
0010
0100
0000
1000
0000
0001
0010
0000
0000
,  // measure 45
0110
0000
0000
0000
0100
1000
0000
0000
1001
0000
0000
0000
0001
0000
0100
0000
,  // measure 46
1000
0000
0200
0000
0000
0000
0310
0000
1000
0000
0000
0000
0001
0100
0000
0000
,  // measure 47
0110
0000
0000
0000
0010
1000
0000
0000
1001
0000
0000
0000
0001
0000
0010
0000
,  // measure 48
1000
0000
0010
0000
0001
1000
0001
1000
0001
0000
0010
0000
0100
1000
0000
0000
,  // measure 49
1010
0000
0000
0000
0100
0001
0000
0000
1001
0000
0000
0000
0001
0000
0100
0000
,  // measure 50
1000
0000
0100
0000
0010
0000
1000
0000
0001
0000
0010
0000
0001
1000
0000
0000
,  // measure 51
1100
0000
0000
0000
0100
0010
0000
0000
0011
0000
0000
0000
0001
0000
0100
0000
,  // measure 52
0010
0000
1000
0000
0100
0010
0000
0100
0010
0000
0001
0000
0100
0001
0000
0000
,  // measure 53
0011
0000
0000
0000
0100
1000
0000
0000
1001
0000
0000
0000
1000
0000
0100
0000
,  // measure 54
0001
0000
0100
0000
0010
0000
0001
0000
1000
0000
0010
0000
1000
0001
0000
0000
,  // measure 55
0101
0000
0000
0000
0100
0010
0000
0000
1010
0000
0000
0000
1000
0000
0100
0000
,  // measure 56
0010
0002
0000
0103
1000
0100
0001
0010
,  // measure 57
0100
0000
1000
0010
0000
1000
0000
0001
0000
0010
0001
0000
1000
0000
0100
0000
,  // measure 58
0010
0000
0001
0000
0100
0010
0000
0100
0000
0001
1000
0000
2002
0000
0000
0000
,  // measure 59
0000
0000
0000
0000
,  // measure 60
0000
0000
3003
0101
,  // measure 61
1010
0000
0000
0000
1100
0000
0000
0011
0000
0000
1001
0000
0000
0000
0000
0000
;

//---------------dance-single - Backyun! -Bad Daff_4K-----------------
#NOTES:
     dance-single:
     Backyun! -Bad Daff_4K-:
     Challenge:
     14:
     0.527468,0.585572,0.361988,0.126696,0.307690,408.000000,368.000000,40.000000,14.000000,188.000000,0.000000,0.527468,0.585572,0.361988,0.126696,0.307690,408.000000,368.000000,40.000000,14.000000,188.000000,0.000000:
// measure 0
0000
0000
0000
0000
,  // measure 1
0000
0000
0000
0000
,  // measure 2
0000
0000
0000
0000
,  // measure 3
0000
0000
0000
0000
,  // measure 4
1001
0000
0000
0000
MMMM
0000
0000
0000
0101
0000
0000
0010
0000
0000
1100
0000
,  // measure 5
1001
0000
0000
0000
MMMM
0000
0000
0000
1100
0000
0000
0010
0000
0000
0101
0000
,  // measure 6
0110
0000
0000
0000
MMMM
0000
0000
0000
1001
0000
0000
0110
0000
0000
1001
0000
,  // measure 7
1000
0000
0001
0000
0100
0000
0010
0000
1000
0001
1000
0001
0010
0000
0100
0000
,  // measure 8
1000
MMMM
0000
0001
0010
1000
0010
0001
,  // measure 9
0100
MMMM
0000
0001
0010
1000
0001
0100
,  // measure 10
1000
MMMM
0000
0001
0100
0010
1000
0100
,  // measure 11
0010
0000
0001
0100
0010
0000
1000
0100
0010
0000
0001
1000
0010
0000
1000
0000
,  // measure 12
0001
MMMM
0000
1000
0010
0001
0010
1000
,  // measure 13
0100
MMMM
0000
1000
0010
0001
1000
0100
,  // measure 14
0001
MMMM
0000
1000
0100
0010
0001
0100
,  // measure 15
0010
0000
1000
0100
0010
0000
0001
0100
0010
0000
1000
0001
0010
0000
0001
0000
,  // measure 16
2001
0100
3010
MMMM
,  // measure 17
1200
0010
0301
MMMM
,  // measure 18
1020
0100
0031
MMMM
,  // measure 19
1000
0000
0001
0010
0100
0000
1000
0010
0100
0000
0010
1000
0001
0000
1000
0000
,  // measure 20
1002
0100
0013
MMMM
,  // measure 21
0201
0010
1300
MMMM
,  // measure 22
0021
0100
1030
MMMM
,  // measure 23
0001
0000
1000
0010
0100
0000
0001
0010
0100
0000
0010
0001
1000
0000
0001
0000
,  // measure 24
0100
1000
0100
0001
0110
0000
1000
0100
,  // measure 25
0000
MMMM
0000
0001
0010
0000
MMMM
0000
,  // measure 26
1000
0100
0010
0100
0001
1000
0010
0001
,  // measure 27
0100
0000
0010
0000
0100
0000
0001
0000
0010
0100
0000
0010
0001
0000
1000
0000
,  // measure 28
0100
0001
0100
1000
0110
0000
0001
0100
,  // measure 29
0000
MMMM
0000
1000
0010
0000
MMMM
0000
,  // measure 30
0001
0100
0010
0100
1000
0100
0001
2002
,  // measure 31
0000
0000
0000
0000
,  // measure 32
0000
0000
0000
0000
0000
0000
0000
0000
0000
0000
0000
0000
0000
0000
0000
0000
0000
0000
0000
0000
0000
0000
0000
0000
0000
0000
0000
0000
0000
0000
0000
0000
0000
3003
0000
0000
0000
0000
0000
0000
0000
0000
0000
0000
0000
0000
0000
0000
0110
0000
0000
0000
0000
0000
0000
0000
0000
0000
0000
0000
0001
0000
0000
0000
,  // measure 33
0100
0000
0000
1000
0100
0000
0010
0000
1001
0000
0000
0000
0001
0000
1000
0010
,  // measure 34
0100
0000
0001
0010
0100
0000
1000
0010
0100
0000
0002
0000
0000
0000
0013
0000
,  // measure 35
1000
0001
1000
0010
0001
0200
0000
0310
,  // measure 36
1000
0000
0001
1000
0001
0000
0000
0000
MMMM
0000
0000
0000
0110
0000
0000
1000
,  // measure 37
0100
0000
0000
0001
0100
0000
0010
0000
1001
0000
0000
0000
1000
0000
0001
0010
,  // measure 38
0100
0000
1000
0010
0100
0000
0001
0010
0100
0000
2000
0000
0000
0000
3010
0000
,  // measure 39
0001
1000
0001
0010
1000
0200
0000
0310
,  // measure 40
0001
0000
1000
0001
1000
0000
0000
0000
MMMM
0000
0000
0000
0001
0010
0000
0000
,  // measure 41
0101
0000
MMMM
0000
1000
0010
0000
0000
1100
0000
MMMM
0000
0001
0000
0010
0000
,  // measure 42
1000
0000
0100
0000
1000
0000
0010
0000
0001
0000
0100
0000
0010
1000
0000
0000
,  // measure 43
0101
0000
MMMM
0000
0010
0001
0000
0000
1100
0000
MMMM
0000
0001
0000
0010
0000
,  // measure 44
0100
0000
1000
0000
0010
0100
0000
0010
0100
0000
0001
0000
1000
0010
0000
0000
,  // measure 45
1100
0000
MMMM
0000
0001
0010
0000
0000
0101
0000
MMMM
0000
1000
0000
0010
0000
,  // measure 46
0001
0000
0100
0000
0001
0000
0010
0000
1000
0000
0100
0000
0010
0001
0000
0000
,  // measure 47
1100
0000
MMMM
0000
0010
1000
0000
0000
0101
0000
MMMM
0000
1000
0000
0100
0000
,  // measure 48
0010
0000
0001
1000
0001
0000
1000
0000
0010
0000
0100
0000
0001
0010
0000
0000
,  // measure 49
1100
0000
MMMM
0000
0001
0100
0000
0000
1010
0000
MMMM
0000
0001
0100
0001
0000
,  // measure 50
1000
0100
1000
0000
0001
0000
0010
0000
0100
0000
1000
0000
0001
0100
0000
0000
,  // measure 51
1010
0000
MMMM
0000
0001
0010
0000
0000
1100
0000
MMMM
0000
0001
0010
0001
0000
,  // measure 52
1000
0010
1000
0000
0100
0010
0000
0100
0010
0000
0001
0000
1000
0010
0000
0000
,  // measure 53
0101
0000
MMMM
0000
1000
0100
0000
0000
0011
0000
MMMM
0000
1000
0100
1000
0000
,  // measure 54
0001
0100
0001
0000
1000
0000
0010
0000
0100
0000
0001
0000
1000
0100
0000
0000
,  // measure 55
0011
0000
MMMM
0000
1000
0010
0000
0000
0101
0000
MMMM
0000
1000
0000
0010
0000
,  // measure 56
0001
0000
0010
0000
1000
0000
0001
1000
0001
0000
MMMM
0000
1000
0000
0100
0000
,  // measure 57
0010
0000
0001
0100
0010
1000
0000
MMMM
0000
1000
0010
0100
0001
0000
0010
0000
,  // measure 58
0100
0000
1000
0000
0001
0100
0000
MMMM
0000
1000
0100
0000
2002
0000
0000
0000
,  // measure 59
0000
0000
0000
0000
3003
0000
MMMM
MMMM
,  // measure 60
MMMM
MMMM
MMMM
MMMM
MMMM
0000
1000
0000
,  // measure 61
0001
0000
0000
0000
0100
0000
0000
0010
0000
0000
0100
0000
0000
0000
0000
0000
;
