#TITLE:バラライカ;
#SUBTITLE:;
#ARTIST:Performed by 光吉猛修;
#TITLETRANSLIT:BALALAIKA;
#SUBTITLETRANSLIT:;
#ARTISTTRANSLIT:Performed by Takenobu Mitsuyoshi;
#GENRE:KARATE POP;
#CREDIT:;
#BANNER:BALALAIKA.png;
#BACKGROUND:BALALAIKA-bg.png;
#LYRICSPATH:;
#CDTITLE:cdtitle.png;
#MUSIC:BALALAIKA.ogg;
#OFFSET:-0.134000;
#SAMPLESTART:57.958000;
#SAMPLELENGTH:15.000000;
#SELECTABLE:YES;
#BPMS:0.000000=140.000000
;
#STOPS:128.000000=0.429000,
129.000000=0.429000
;
#BGCHANGES:0.000=BALALAIKA.avi=1.000=0=0=0=StretchNoLoop==CrossFade_Fastest==,
99999=-nosongbg-=1.000=0=0=0 // don't automatically add -songbackground-
;
#KEYSOUNDS:;
#ATTACKS:;

//---------------dance-single - Daff_4K----------------
#NOTES:
     dance-single:
     Daff_4K:
     Beginner:
     3:
     0.138774,0.197498,0.000000,0.000000,0.000000,102.000000,102.000000,0.000000,0.000000,0.000000,0.000000,0.138774,0.197498,0.000000,0.000000,0.000000,102.000000,102.000000,0.000000,0.000000,0.000000,0.000000:
// measure 0
0000
0000
0000
0000
,  // measure 1
0000
0000
0000
0000
,  // measure 2
0000
0000
0000
0000
,  // measure 3
0000
0000
0000
0000
,  // measure 4
0000
0000
0000
0000
,  // measure 5
1000
0000
0000
0000
,  // measure 6
0001
0000
0000
0000
,  // measure 7
0100
0000
0100
0000
,  // measure 8
0100
0000
0000
0000
,  // measure 9
0001
0000
0001
0000
,  // measure 10
1000
0000
1000
0000
,  // measure 11
0001
0000
0001
0000
,  // measure 12
1000
1000
1000
0000
,  // measure 13
0100
0000
0100
0000
,  // measure 14
0010
0000
0010
0000
,  // measure 15
0100
0000
0100
0000
,  // measure 16
0010
0010
0010
0000
,  // measure 17
0001
0000
0001
0000
,  // measure 18
0001
0001
0001
0000
,  // measure 19
0100
0000
0100
0000
,  // measure 20
0100
0000
0100
0000
,  // measure 21
0010
0000
0010
0000
,  // measure 22
0010
0010
0010
0000
,  // measure 23
1000
0000
1000
0000
,  // measure 24
1000
0000
1000
0000
,  // measure 25
0001
0000
0000
0000
,  // measure 26
1000
0000
0000
0000
,  // measure 27
1000
0000
0000
0000
,  // measure 28
0010
0000
0010
0000
,  // measure 29
0010
0000
0000
0000
,  // measure 30
0100
0000
0000
0000
,  // measure 31
0100
0000
0100
0000
,  // measure 32
0010
0000
0000
0000
,  // measure 33
0000
0000
1000
1000
,  // measure 34
0000
0000
0001
0001
,  // measure 35
0000
0000
1000
0000
,  // measure 36
0000
0000
0001
0001
,  // measure 37
0001
0000
0100
0100
,  // measure 38
0000
0000
0010
0010
,  // measure 39
0000
0000
0100
0000
,  // measure 40
0000
0000
0010
0000
,  // measure 41
0010
0000
0010
0010
,  // measure 42
0000
0000
0100
0100
,  // measure 43
0000
0000
0010
0000
,  // measure 44
0000
0000
0010
0010
,  // measure 45
0010
0000
1000
1000
,  // measure 46
0000
0000
0001
0001
,  // measure 47
0000
0000
1000
0000
,  // measure 48
0000
0000
0001
0000
,  // measure 49
1000
0000
0001
0000
,  // measure 50
0000
0000
0010
0000
,  // measure 51
0000
0000
0100
0000
,  // measure 52
0000
0000
1000
1000
,  // measure 53
1000
0000
0001
0001
,  // measure 54
0001
0000
1000
1000
,  // measure 55
1000
0000
0010
0000
,  // measure 56
0100
0000
0010
0000
,  // measure 57
0100
0000
0010
0000
,  // measure 58
0000
0000
0100
0100
,  // measure 59
0100
0100
0000
0000
;

//---------------dance-single - Daff_4K----------------
#NOTES:
     dance-single:
     Daff_4K:
     Easy:
     6:
     0.312922,0.366782,0.419044,0.485710,0.000000,230.000000,186.000000,44.000000,51.000000,0.000000,0.000000,0.312922,0.366782,0.419044,0.485710,0.000000,230.000000,186.000000,44.000000,51.000000,0.000000,0.000000:
0000
0000
0000
0000
,
0000
0000
0000
0000
,
0000
0000
0000
0000
,
0000
0000
0000
0000
,
0000
0000
0000
0000
,
1000
1000
0001
0001
,
0100
0100
0010
0010
,
1000
0001
0010
0100
,
2002
0000
0000
3003
,
1000
0100
0001
0100
,
1000
0010
0001
0010
,
1000
0100
0010
0001
,
0100
0010
2002
3003
,
0001
0100
1000
0100
,
0001
0010
1000
0010
,
0220
0330
2002
3003
,
0020
0100
0130
0000
,
1000
0010
0001
0010
,
1000
0100
0010
0001
,
1000
0010
0100
0001
,
2000
0000
3001
0000
,
0001
0010
1000
0010
,
0001
0100
0010
1000
,
0001
0010
0100
1000
,
0002
0000
1003
0000
,
2002
3003
1000
0100
,
0220
0330
0010
0001
,
2002
3003
1000
0010
,
0100
0001
1000
0000
,
2002
3003
0001
0100
,
0220
0330
0010
1000
,
0001
0100
0010
1000
,
1001
0110
1001
0001
,
0100
0010
1000
1010
,
0010
1000
0001
0101
,
0100
0001
1000
1001
,
0001
1000
0100
0110
,
2002
3003
0001
0011
,
0010
0001
1000
1100
,
0100
1000
0001
1001
,
1000
0001
0100
0110
,
2002
3003
1000
1100
,
0100
1000
0001
0011
,
0010
0001
1000
1001
,
0001
1000
0010
0110
,
2002
3003
0001
0101
,
0100
0001
1000
1010
,
0010
1000
0001
1001
,
1000
0001
0010
0110
,
2002
3003
2200
3300
,
1000
0001
0022
0033
,
0001
1000
2020
3030
,
1000
0001
0202
0303
,
2002
3003
1000
0100
,
0010
0001
1000
0010
,
0100
0001
0022
0033
,
2200
3300
2020
3030
,
0202
0303
2002
3003
,
0220
0330
1000
0001
,
1000
1001
0000
0000
;

//---------------dance-single - Daff_4K----------------
#NOTES:
     dance-single:
     Daff_4K:
     Medium:
     8:
     0.404078,0.423210,0.419044,0.285712,0.000000,297.000000,253.000000,44.000000,30.000000,0.000000,0.000000,0.404078,0.423210,0.419044,0.285712,0.000000,297.000000,253.000000,44.000000,30.000000,0.000000,0.000000:
0000
0000
0000
0000
,
0000
0000
0000
0000
,
0000
0000
0000
0000
,
0000
0000
0000
0000
,
0000
0000
0000
0000
,
1000
0010
1000
0000
0001
0010
0001
0000
,
1000
0100
1000
0000
0001
0100
0001
0000
,
1000
0010
1000
0000
0001
0100
0001
0000
,
2000
0001
3001
1001
,
1000
1010
0001
0011
,
1000
1100
0001
0101
,
1000
1010
0001
0011
,
1000
0001
1000
0001
2000
0000
3001
0000
,
0001
0011
1000
1010
,
0001
0101
1000
1100
,
0002
0013
2000
3010
,
0001
1000
0001
1000
0001
0000
1000
0100
,
1000
0000
0001
0010
0001
0000
1000
0010
,
0100
0001
0100
0010
,
1000
0000
0001
0010
0100
0000
1000
0000
,
0002
0000
1000
0000
1003
0000
0001
0100
,
0001
0000
1000
0010
1000
0000
0001
0010
,
0001
1000
0100
0010
,
0001
0000
1000
0010
0100
0000
0001
0000
,
1000
0001
1000
0001
1000
0000
0001
0000
,
2000
0100
3002
0100
,
2003
0010
3002
0010
,
2003
0100
3002
0010
,
1003
0000
0001
0100
0010
0000
1000
0000
,
0002
0100
2003
0100
,
3002
0010
2003
0010
,
3001
1000
0010
0100
,
1001
0110
1001
1000
,
0100
0010
0001
0101
,
0010
0000
1000
0001
1000
0000
1010
0000
,
0100
0000
0001
1000
0001
0000
1001
0000
,
1000
0001
1001
0110
,
2002
3003
1000
1100
,
0010
0000
0001
1000
0001
0000
0011
0000
,
0100
0000
1000
0001
1000
0000
1001
0000
,
0001
1001
2000
3002
,
0103
1001
1000
1100
,
0010
0000
0001
1000
0001
0000
0011
0000
,
0100
0000
1000
0001
1000
0000
1010
0000
,
0100
0001
1000
1001
,
0110
1001
0001
0101
,
0010
0000
1000
0001
1000
0000
1010
0000
,
0100
0000
0001
1000
0001
0000
0011
0000
,
0100
1100
1001
0110
,
2002
3003
2001
0010
,
3002
0010
2003
0100
,
3002
0100
2003
0010
,
3002
0000
0103
0000
0001
1000
0001
1000
,
0002
1003
0001
0011
,
0100
1100
1000
1010
,
0100
0000
0101
0000
0001
0010
0001
0000
,
1000
0010
1000
0000
0001
0100
0001
0000
,
1000
0100
1000
0000
0002
0000
0103
0000
,
2000
0000
3100
0000
0001
1000
0001
1000
,
0001
1001
0000
0000
;

//---------------dance-single - Daff_4K----------------
#NOTES:
     dance-single:
     Daff_4K:
     Hard:
     10:
     0.487070,0.507852,0.599994,0.323806,0.000000,358.000000,295.000000,63.000000,34.000000,0.000000,0.000000,0.487070,0.507852,0.599994,0.323806,0.000000,358.000000,295.000000,63.000000,34.000000,0.000000,0.000000:
0000
0000
0000
0000
,
0000
0000
0000
0000
,
0000
0000
0000
0000
,
0000
0000
0000
0000
,
0000
0000
0000
0000
,
1000
0010
1000
0000
0001
0010
0001
0000
,
1000
0100
1000
0000
0001
0100
0001
0000
,
1000
0100
1000
0001
0010
0001
1000
0010
,
1000
0001
0100
0001
2000
0000
3001
0000
,
1010
0000
0101
0000
1001
0000
1000
0001
,
0100
0000
0101
0000
1010
0000
1000
0001
,
0010
0000
0110
0000
1001
0000
1000
0100
,
0010
0001
0100
1000
0200
0000
0301
0000
,
0011
0000
1100
0000
1001
0000
0001
1000
,
0010
0000
1010
0000
0101
0000
0001
1000
,
0002
0000
0103
0010
2000
0000
3001
0000
,
1000
0100
0001
0100
1000
0000
0001
0100
,
1000
0000
1000
0100
0001
0000
0001
0010
,
2000
0000
3020
0000
0031
0000
1000
0010
,
0001
0000
0001
0010
0200
0000
0302
0000
,
2003
0000
0010
0000
3001
0000
1000
0100
,
0001
0000
0001
0100
1000
0000
1000
0010
,
0002
0000
0023
0000
1030
0000
0001
0010
,
1000
0000
1000
0010
0200
0000
2300
0000
,
3001
0100
0010
1000
0002
0000
1003
0000
,
2010
3100
0012
0103
,
2001
0000
3010
0100
0002
0000
1003
0000
,
2100
3010
0102
0013
,
2001
0000
3100
0010
0002
0000
1003
0000
,
0012
0103
2010
3100
,
1002
0000
0013
0100
2000
0000
3001
0000
,
1000
0010
1000
0000
0001
0100
0001
0000
,
1001
0000
0110
0000
1001
0000
1000
0010
,
0100
0001
1000
0000
1010
0000
0101
0000
,
0001
0010
0100
1000
0001
0000
0101
0000
,
1010
0000
1000
1000
0001
0000
0101
0000
,
0100
0010
1000
0000
1000
0100
0001
0100
,
1000
1001
0011
1100
,
1000
0010
0100
0001
1000
0000
1100
0000
,
0011
0000
0001
0001
1000
0000
1100
0000
,
0100
0010
0001
0000
2001
0000
3020
0000
,
0130
1001
0101
1010
,
1000
0100
0001
0100
1000
0000
1100
0000
,
0011
0000
0001
0100
1000
0000
0110
0000
,
0010
1000
0001
1000
0001
0100
1000
0100
,
0001
1001
1100
0011
,
0001
0100
1000
0100
0001
0000
0101
0000
,
1010
0000
1000
0100
0001
0000
0110
0000
,
0010
0001
1000
0000
0001
0100
0010
1000
,
0001
1001
2010
3001
,
1000
0001
0010
0000
0012
0000
1003
0000
,
0001
1000
0010
0000
2010
0000
3001
0000
,
1000
0001
0010
0000
0001
0100
1000
0100
,
0002
1003
1010
1100
,
0011
0101
1010
0101
,
0011
0000
1100
0000
1000
0001
0100
0010
,
1000
0001
0010
0100
1000
0010
0100
0001
,
1000
0100
0010
0001
2001
0000
3100
0000
,
0012
0000
1003
0000
0001
0010
1000
0010
,
0001
1001
0000
0000
;

//---------------dance-single - Daff_4K----------------
#NOTES:
     dance-single:
     Daff_4K:
     Challenge:
     12:
     0.595913,0.592494,0.742850,0.209522,0.128570,438.000000,360.000000,78.000000,22.000000,0.000000,0.000000,0.595913,0.592494,0.742850,0.209522,0.128570,438.000000,360.000000,78.000000,22.000000,0.000000,0.000000:
0000
0000
0000
0000
,
0000
0000
0000
0000
,
0000
0000
0000
0000
,
0000
0000
0000
0000
,
0000
0000
0000
0000
,
1000
0010
0100
0010
0001
0010
0100
0010
,
1000
0100
0010
0100
0001
0100
0010
0100
,
1000
0010
0001
0010
1000
0100
0001
0100
,
1000
0010
0100
0001
1000
0000
0110
0000
,
1001
0000
0000
0000
1010
0000
0000
0000
0101
0000
0000
0001
1000
0000
0100
0000
,
1100
0000
0000
0000
1001
0000
0000
0000
0011
0000
0000
0010
0100
0000
1000
0000
,
1001
0000
0000
0000
0101
0000
0000
0000
1010
0000
0000
1000
0001
0000
0100
0000
,
1000
0100
0001
1000
0100
0000
0110
0000
,
1001
0000
0000
0000
0011
0000
0000
0000
1100
0000
0000
1000
0001
0000
0100
0000
,
0101
0000
0000
0000
1001
0000
0000
0000
1010
0000
0000
0010
0100
0000
0001
0000
,
2001
0000
3010
0100
0102
0000
0013
0100
,
1000
1000
0001
0001
0200
0000
0301
1000
,
0200
0000
1300
0001
0020
0000
0031
1000
,
1010
0000
0101
0000
1001
0000
1000
0100
,
0002
0000
0103
1000
0020
0000
0130
0001
,
1000
0100
0001
0100
1000
0010
1000
0001
,
0200
0000
0301
1000
0020
0000
1030
0001
,
0011
0000
1100
0000
1001
0000
0001
0100
,
2000
0000
3100
0001
0020
0000
0130
1000
,
0010
0001
1000
0100
0002
0000
1003
0000
,
2010
0000
3100
0010
0002
0000
0103
0010
,
2000
0000
3100
0001
0100
1000
0001
0100
,
0102
0000
0013
0100
2000
0000
3010
0100
,
0001
0010
1000
0010
0001
1000
0100
0010
,
0012
0000
0103
0010
2000
0000
3100
0010
,
0002
0000
0103
0010
1000
0010
0100
0001
,
1000
0100
0100
0001
0010
0010
1000
0001
,
1001
0000
0110
0000
1001
0000
0001
1000
,
0100
0010
0001
1000
1010
0000
0101
0000
,
0001
1000
0001
1000
0001
0000
1000
0000
1100
0000
0000
0000
0011
0000
0000
0000
,
0101
0000
0000
0100
0010
0000
1000
0000
1001
0000
0000
0000
0101
0000
0000
0000
,
0010
1000
0100
0001
0100
1000
0001
0100
,
0010
1000
1001
0000
0011
0000
1100
0000
,
1000
0001
1000
0001
1000
0000
0001
0000
0101
0000
0000
0000
1010
0000
0000
0000
,
1100
0000
0000
0100
0010
0000
0001
0000
1001
0000
0000
0000
1100
0000
0000
0000
,
0010
0001
0100
0010
1010
0000
0101
0000
,
0110
1001
1100
0011
,
0001
1000
0001
1000
0010
0000
0100
0000
0110
0000
0000
0000
1001
0000
0000
0000
,
1100
0000
0000
0100
1000
0000
0001
0000
0101
0000
0000
0000
1010
0000
0000
0000
,
1000
0100
0001
0100
1000
0001
0100
0010
,
1000
0001
1001
0000
0101
0000
1010
0000
,
1000
0001
1000
0001
0010
0000
0100
0000
0110
0000
0000
0000
1001
0000
0000
0000
,
0101
0000
0000
0100
0001
0000
1000
0000
1100
0000
0000
0000
0011
0000
0001
0000
,
0100
1000
0100
0001
1000
0010
0100
0001
,
1000
1001
0101
1010
,
1000
0001
0000
0001
0010
0000
0100
0000
1100
0000
0000
0000
1001
0000
0000
0000
,
0001
0100
0000
0100
0010
0000
1000
0000
1100
0000
0000
0000
0011
0000
0000
0000
,
0001
1000
0000
1000
0100
0000
0010
0000
0001
0000
0100
0000
0010
0000
1000
0000
,
1100
0000
0000
0000
0011
0000
0000
0000
1001
0000
0000
1000
0010
0000
0100
0000
,
0001
0000
0000
0001
0010
0000
0100
0000
1000
0000
0000
1000
0100
0000
0010
0000
,
0001
0000
0000
0001
0100
0000
0010
0000
1000
0000
0100
0000
0001
0000
0100
0000
,
1000
0001
0010
1000
0010
0001
0100
0010
,
1000
0100
0010
0001
0201
0000
0310
1000
,
1200
0000
0310
0001
1000
0010
0001
0100
,
1000
1001
0000
0000
;
