#VERSION:0.83;
#TITLE:Arcana;
#SUBTITLE:;
#ARTIST:Maozon;
#TITLETRANSLIT:;
#SUBTITLETRANSLIT:;
#ARTISTTRANSLIT:;
#GENRE:UPLIFTING TRANCE;
#ORIGIN:;
#CREDIT:;
#BANNER:Arcana.png;
#BACKGROUND:Arcana-bg.png;
#PREVIEWVID:;
#JACKET:Arcana-jacket.png;
#CDIMAGE:;
#DISCIMAGE:;
#LYRICSPATH:;
#CDTITLE:cdtitle.png;
#MUSIC:Arcana.ogg;
#OFFSET:-1.314000;
#SAMPLESTART:55.000999;
#SAMPLELENGTH:15.000000;
#SELECTABLE:YES;
#BPMS:0.000=143.000;
#STOPS:;
#DELAYS:;
#WARPS:;
#TIMESIGNATURES:0.000=4=4;
#TICKCOUNTS:0.000=4;
#COMBOS:0.000=1;
#SPEEDS:0.000=1.000=0.000=0;
#SCROLLS:0.000=1.000;
#FAKES:;
#LABELS:0.000=Song Start;
#BGCHANGES:;
#KEYSOUNDS:;
#ATTACKS:
;

//---------------dance-single - Daff_4K----------------
#NOTEDATA:;
#CHARTNAME:Daff_4K;
#STEPSTYPE:dance-single;
#DESCRIPTION:Daff_4K;
#CHARTSTYLE:;
#DIFFICULTY:Beginner;
#METER:2;
#RADARVALUES:0.088854,0.138217,0.051831,0.000000,0.000000,72.000000,66.000000,6.000000,0.000000,0.000000,0.000000,0.000000,0.000000,0.000000,0.088854,0.138217,0.051831,0.000000,0.000000,72.000000,66.000000,6.000000,0.000000,0.000000,0.000000,0.000000,0.000000,0.000000;
#CREDIT:Daff_4K;
#NOTES:
0000
0000
0000
0000
,
0000
0000
0000
0000
,
0000
0000
0000
0000
,
0000
0000
0000
0000
,
1000
0000
0000
0000
,
0001
0000
0000
0000
,
1000
0000
0000
0000
,
1001
0000
0000
0000
,
0001
0000
0000
0000
,
0000
0000
0010
0000
,
0010
0000
0000
0000
,
0100
0000
0000
0000
,
1000
0000
0000
0000
,
0010
0000
0000
0000
,
0100
0000
0000
0000
,
0001
0001
0001
0000
,
1000
0000
0000
0000
,
0000
0000
0010
0000
,
0010
0000
0000
0000
,
0100
0000
0000
0000
,
0001
0000
0000
0000
,
0010
0000
0000
0000
,
0100
0000
0000
0000
,
1000
0000
0000
0000
,
1001
0000
0000
0000
,
0001
0000
0000
0000
,
0100
0000
0100
0000
,
0010
0000
0000
0000
,
1000
0000
0000
0000
,
1000
0000
0000
0000
,
0100
0000
0000
0000
,
0110
0000
0000
0000
,
1001
0000
0000
0000
,
0001
0000
0001
0000
,
0001
0000
0000
0000
,
1000
0000
1000
0000
,
1000
0000
0000
0000
,
0010
0000
0010
0000
,
0010
0000
0000
0000
,
0100
0100
0000
0000
,
0001
0000
0000
0000
,
0010
0000
0000
0000
,
1000
0000
0000
0000
,
0010
0000
0000
0000
,
0001
0000
0000
0000
,
0100
0000
0000
0000
,
1000
0000
0000
0000
,
0100
0000
0000
0000
,
0001
0000
0000
0000
,
0000
0000
0000
0000
,
1000
0000
0000
0000
,
0000
0000
0000
0000
,
0100
0000
0000
0000
,
0000
0000
0000
0000
,
0010
0000
0000
0000
,
1001
0000
0000
0000
,
0001
0000
0000
0000
,
0001
0000
0000
0000
,
1000
0000
0000
0000
,
1000
0000
0000
0000
,
0010
0000
0000
0000
,
0100
0000
0000
0000
,
0000
0010
0000
0010
,
0010
0000
0000
0000
,
1001
0000
0000
0000
;

//---------------dance-single - Daff_4K----------------
#NOTEDATA:;
#CHARTNAME:Daff_4K;
#STEPSTYPE:dance-single;
#DESCRIPTION:Daff_4K;
#CHARTSTYLE:;
#DIFFICULTY:Easy;
#METER:3;
#RADARVALUES:0.164133,0.248791,0.086386,0.224603,0.000000,133.000000,123.000000,10.000000,26.000000,0.000000,0.000000,0.000000,0.000000,0.000000,0.164133,0.248791,0.086386,0.224603,0.000000,133.000000,123.000000,10.000000,26.000000,0.000000,0.000000,0.000000,0.000000,0.000000;
#CREDIT:Daff_4K;
#NOTES:
0000
0000
0000
0000
,
0000
0000
0000
0000
,
0000
0000
0000
0000
,
0000
0000
0000
0000
,
0020
0000
0000
0030
,
0200
0000
0000
0300
,
0002
0000
0000
0000
,
2000
0000
0000
3003
,
1000
0000
0100
0000
,
1000
0010
0200
0300
,
0010
0010
1000
1000
,
0001
0010
0100
1000
,
0001
0000
0100
0000
,
1000
0100
0001
0000
,
1000
1000
0100
0000
,
0110
0000
1001
0000
,
0001
0000
0100
0000
,
0001
0010
0200
0300
,
0010
0010
0001
0001
,
1000
0010
0100
0001
,
1000
0000
0100
0000
,
0001
0100
1000
0000
,
0001
0000
1000
0000
,
2002
0000
0000
3003
,
0002
0000
0000
0003
,
0200
0000
0000
0300
,
0010
0000
0010
0000
,
1000
0000
0001
0000
,
2000
0000
0000
3000
,
0200
0000
0000
0300
,
0010
0000
0010
0000
,
2002
0000
0000
3003
,
0001
0000
0100
0000
,
0001
0000
1000
0001
,
0010
0000
0100
0000
,
0010
0000
1000
0010
,
0001
0000
1000
0000
,
0010
0000
0100
0001
,
1000
0000
0001
0000
,
1001
1001
0000
0000
,
1000
0000
0100
0000
,
1000
0000
0001
1000
,
0010
0000
0100
0000
,
0010
0000
0001
0010
,
1000
0000
0001
0000
,
0010
0000
0100
1000
,
0001
0000
1000
0000
,
0010
0000
0100
0000
,
0002
0000
0000
0003
,
0020
0000
0000
0030
,
0200
0000
0000
0300
,
2000
0000
0000
3000
,
0020
0000
0000
0030
,
0200
0000
0000
0300
,
0002
0000
0000
0003
,
2002
0000
0000
3003
,
1000
0000
0100
0000
,
0001
0000
0100
1000
,
0001
0000
0100
0000
,
1000
0000
0100
0001
,
0020
0000
0000
0030
,
0200
0000
0000
0300
,
1000
1001
0001
1001
,
0200
0000
0000
0300
,
0110
0000
0000
0000
;

//---------------dance-single - Daff_4K----------------
#NOTEDATA:;
#CHARTNAME:Daff_4K;
#STEPSTYPE:dance-single;
#DESCRIPTION:Daff_4K;
#CHARTSTYLE:;
#DIFFICULTY:Medium;
#METER:9;
#RADARVALUES:0.355415,0.414651,0.164133,0.328265,0.099343,288.000000,269.000000,19.000000,38.000000,0.000000,0.000000,0.000000,0.000000,0.000000,0.355415,0.414651,0.164133,0.328265,0.099343,288.000000,269.000000,19.000000,38.000000,0.000000,0.000000,0.000000,0.000000,0.000000;
#CREDIT:Daff_4K;
#NOTES:
0000
0000
0000
0000
,
0000
0000
0000
0000
,
0000
0000
0000
0000
,
0000
0000
0000
0000
,
0001
0100
0001
0101
,
1000
0100
1000
1100
,
0001
0000
1000
0000
0010
0100
0010
0000
,
2002
0000
0000
3003
,
0001
0000
0010
0000
0001
1000
0001
0000
,
0100
0000
0001
2000
0000
3100
0010
0000
,
0002
0203
0320
1030
,
0002
0023
0230
1300
,
0001
0000
0100
0010
0000
0010
1000
0000
,
0001
1000
0001
0000
0010
0000
0100
0000
,
0010
1000
0010
0001
,
0101
0101
1010
1010
,
1000
0000
0010
0000
1000
0001
1000
0000
,
0100
0000
1000
0002
0000
0103
0010
0000
,
2000
3200
0320
0031
,
2000
3020
0230
0301
,
1000
0000
0100
0010
0100
0000
0010
0000
,
0001
1000
0001
0000
0100
0000
0010
0000
,
1000
0000
0000
0000
0001
0000
0000
0000
0010
0000
0100
0000
0000
0010
0000
0000
,
2002
0000
3003
0000
0001
1000
0001
0000
,
0200
0000
0000
0000
,
0320
0000
0000
0000
,
0030
1000
0000
0001
1000
0000
0100
0000
,
0001
0010
1000
0001
,
2000
0100
0010
0100
,
3002
0100
0010
0100
,
1003
0000
0001
0000
0100
0010
0100
0000
,
2002
0000
0000
3003
,
1000
0000
0000
1000
0000
0000
1000
0000
0001
0000
0000
0001
0000
0000
0001
0000
,
0100
0000
0000
0100
0000
0000
0100
0000
0010
0000
0000
1000
0000
0000
0001
0000
,
1000
0000
0000
1000
0000
0000
0100
0000
0010
0000
0000
0010
0000
0000
0001
0000
,
1000
0000
0000
1000
0000
0000
0010
0000
0100
0000
0000
0001
0000
0000
1000
0000
,
0001
0000
0000
0001
0000
0000
0001
0000
1000
0000
0000
1000
0000
0000
1000
0000
,
0100
0000
0000
0100
0000
0000
0100
0000
0010
0000
0000
0001
0000
0000
1000
0000
,
0001
0000
0000
0001
0000
0000
0100
0000
0010
0000
0000
0010
0000
0000
1000
0000
,
1100
0000
0011
0000
0001
1000
0000
1000
,
0100
1000
0100
0000
1000
0001
0010
0000
,
0001
0100
0001
0000
0100
0010
1000
0000
,
0001
1000
0001
0000
1000
0100
0010
0000
,
0001
0100
0001
0100
0010
1000
0001
0000
,
0100
0001
0100
0000
0001
1000
0010
0000
,
1000
0100
1000
0000
0100
0010
0001
0000
,
1000
0001
1000
0000
0001
0100
0010
0000
,
1000
0100
1000
0100
0010
0001
1000
0000
,
0200
0010
0000
0010
,
0320
0001
0000
0001
,
0032
1000
0000
1000
,
2003
0010
0000
3010
,
0202
0000
0000
0303
,
2002
0000
0000
3003
,
2200
0000
0000
3300
,
0220
0000
0330
1001
,
0001
0000
0000
0001
0000
0000
0001
0000
0100
0000
0000
0100
0000
0000
0010
0000
,
1000
0000
0000
1000
0000
0000
1000
0000
0100
0000
0000
0100
0000
0000
0010
0000
,
0001
0000
0000
0001
0000
0000
0100
0000
1000
0000
0000
0100
0000
0000
0010
0000
,
1000
0000
0000
1000
0000
0000
0100
0000
0001
0000
0000
0100
0000
0000
0010
0000
,
0002
0100
0010
1000
,
2003
0100
0010
3001
,
0100
1001
0010
1001
,
0001
0100
0010
1000
0100
0010
0001
0000
,
1001
0000
0000
0000
;

//---------------dance-single - Daff_4K----------------
#NOTEDATA:;
#CHARTNAME:Daff_4K;
#STEPSTYPE:dance-single;
#DESCRIPTION:Daff_4K;
#CHARTSTYLE:;
#DIFFICULTY:Hard;
#METER:12;
#RADARVALUES:0.472653,0.525225,0.233241,0.302350,0.358500,383.000000,356.000000,27.000000,35.000000,0.000000,0.000000,0.000000,0.000000,0.000000,0.472653,0.525225,0.233241,0.302350,0.358500,383.000000,356.000000,27.000000,35.000000,0.000000,0.000000,0.000000,0.000000,0.000000;
#CREDIT:Daff_4K;
#NOTES:
0000
0000
0000
0000
,
0000
0000
0000
0000
,
0000
0000
0000
0000
,
0000
0000
0000
0000
,
0001
0010
0001
0000
0110
0000
1001
0000
,
1000
0010
1000
0000
0110
0000
1001
0000
,
0001
0010
1000
0010
0001
1000
0001
0000
,
2002
0000
0000
3003
,
1000
0010
0100
0000
0010
1000
0001
0000
,
1000
0100
0010
0002
0000
1000
1003
0000
,
0001
0100
0010
1000
0001
0100
0010
1000
,
0001
0010
0100
1000
0001
0010
0100
1000
,
0002
0000
0103
0020
0000
1030
0100
0002
,
0000
0000
0103
0000
0010
0000
0100
0000
1000
0000
0000
0001
0000
0000
1000
0000
,
0000
0000
0010
0000
0100
0000
0010
0000
1000
0000
0000
0001
0000
0000
0010
0000
,
0011
1100
1010
0101
,
0001
0010
0100
0000
0010
0001
1000
0000
,
0001
0100
0010
2000
0000
0001
3001
0000
,
1000
0100
0010
0001
1000
0100
0010
0001
,
1000
0010
0100
0001
1000
0010
0100
0001
,
2000
0000
3100
0002
0000
0103
0020
0000
,
0130
1000
0020
0000
0130
0000
1001
0000
,
0001
0000
0010
0000
1000
0000
0010
0000
0001
0000
0100
0010
0000
0100
0010
0000
,
2002
0000
0000
0000
3003
0000
0000
0000
1000
0001
1000
0001
1000
0000
0000
0000
,
0200
0000
0320
0000
,
0032
0000
2003
0000
,
3010
0000
0100
0000
0000
0000
0001
1000
0001
0000
0000
1000
0000
0000
0100
0000
,
0001
0000
0000
0100
0000
0000
1000
0000
0001
0000
0000
0100
0000
0000
0010
0000
,
2000
0100
0001
0010
,
3002
0100
1000
0010
,
0103
0010
1000
0100
0010
0001
1000
0000
,
2002
0000
0000
3003
,
0001
0100
0000
0001
0000
0000
1000
0000
0001
0010
0000
0001
0000
0000
1000
0000
,
0010
0100
0000
0010
0000
0000
1000
0000
0001
0000
0000
0010
0000
0000
1000
0000
,
0010
0100
0000
0010
0000
0000
0001
0000
1000
0010
0000
1000
0000
0000
0001
0000
,
1000
0100
0000
1000
0000
0000
0001
0000
0100
0010
0000
0010
1000
0000
0001
0000
,
1000
0100
0000
1000
0000
0000
0001
0000
1000
0010
0000
1000
0000
0000
0001
0000
,
0010
0100
0000
0010
0000
0000
0001
0000
1000
0000
0000
0010
0000
0000
0001
0000
,
0010
0100
0000
0010
0000
0000
1000
0000
0001
0010
0000
0001
0000
0000
1000
0000
,
0110
0000
1001
0000
0100
0110
0000
1001
,
0001
0000
0100
0000
0010
0100
0000
0001
0000
0100
0000
0010
0100
0000
0001
0000
,
0000
0000
1000
0000
0001
0010
0000
0001
0000
1000
0000
0001
0010
0000
0001
0000
,
0000
0000
1000
0000
0010
0100
0000
0010
0000
1000
0000
0010
0100
0000
0010
0000
,
0000
0000
1000
0000
0001
0010
0000
0100
0000
0010
0001
0000
0100
0000
0010
0000
,
1000
0000
0100
0000
0010
0100
0000
1000
0000
0100
0000
0010
0100
0000
1000
0000
,
0000
0000
0001
0000
1000
0010
0000
1000
0000
0001
0000
1000
0010
0000
1000
0000
,
0000
0000
0001
0000
0010
0100
0000
0010
0000
0001
0000
0010
0100
0000
0010
0000
,
0000
0000
0001
0000
1000
0010
0000
0100
0000
0010
1000
0000
0100
0000
0010
0000
,
0012
1000
0010
1003
,
2010
0001
0010
3001
,
0102
1000
0100
1003
,
2100
0001
0100
3001
,
0202
0000
0000
0303
,
2020
0000
0000
3030
,
2200
0000
0000
3300
,
0022
0000
0000
0033
,
0001
0100
0000
0010
0000
0000
1000
0000
0001
0100
0000
0010
0000
0000
1000
0000
,
0001
0010
0000
0100
0000
0000
1000
0000
0010
0000
0100
0001
0000
0001
1000
0000
,
1000
0100
0000
0010
0000
0000
0001
0000
1000
0100
0000
0010
0000
0000
0001
0000
,
1000
0010
0000
0100
0000
0000
0001
0000
0010
0000
0100
1000
0000
1000
0001
0000
,
0200
1000
0010
0001
,
0320
0001
0100
1000
,
0130
1001
0010
1001
,
1000
0000
0100
0000
0010
0000
0001
0000
0100
0000
0010
0100
0010
0000
1000
0000
,
1001
0000
0000
0000
;

//---------------dance-single - Daff_4K -アルカナムの執行者-----------------
#NOTEDATA:;
#CHARTNAME:Daff_4K -アルカナムの執行者-;
#STEPSTYPE:dance-single;
#DESCRIPTION:Daff_4K -アルカナムの執行者-;
#CHARTSTYLE:;
#DIFFICULTY:Challenge;
#METER:15;
#RADARVALUES:0.623211,0.718728,0.146856,0.336904,0.721320,505.000000,488.000000,17.000000,39.000000,0.000000,0.000000,0.000000,0.000000,0.000000,0.623211,0.718728,0.146856,0.336904,0.721320,505.000000,488.000000,17.000000,39.000000,0.000000,0.000000,0.000000,0.000000,0.000000;
#CREDIT:Daff_4K -アルカナムの執行者-;
#NOTES:
// measure 0
0000
0000
0000
0000
,  // measure 1
0000
0000
0000
0000
,  // measure 2
0000
0000
0000
0000
,  // measure 3
0000
0000
0000
0000
,  // measure 4
0000
0000
0001
0000
0010
0001
0000
1000
0000
0001
0000
0100
0001
0000
0010
0100
,  // measure 5
0000
0000
1000
0000
0010
1000
0000
0001
0000
1000
0000
0100
1000
0000
0010
0100
,  // measure 6
0000
0000
0001
0000
1000
0001
0000
0010
0000
0100
0000
1000
0001
0000
1000
0000
,  // measure 7
2002
0000
0000
3003
,  // measure 8
0001
0000
0010
0000
1000
0000
0000
0010
0100
0000
0010
0000
0001
0000
0000
0000
,  // measure 9
1000
0000
0010
0100
0010
0000
2000
0000
0100
0000
0001
0000
0001
0000
0000
0000
,  // measure 10
3010
1000
0100
1000
0100
0010
0001
0010
0001
0100
0010
1000
0100
0010
0001
0000
,  // measure 11
1000
0010
0001
1000
0100
0001
0010
0100
,  // measure 12
1000
0020
0000
0100
0000
0031
0010
1000
,  // measure 13
0100
0000
0010
0000
0001
0000
0000
0000
1000
0000
0001
1000
0000
0001
0100
0000
,  // measure 14
0010
0000
1000
0000
0100
0000
0000
0000
0001
0000
0100
0010
0000
0100
1000
0000
,  // measure 15
1010
0000
0000
0000
0101
0000
0000
0000
1001
0000
0000
0000
1000
0001
1000
0001
,  // measure 16
1000
0000
0010
0000
0001
0000
0000
0010
0100
0000
0010
0000
1000
0000
0000
0000
,  // measure 17
0001
0000
0010
0100
0010
0000
0002
0000
0100
0000
1000
0000
1000
0000
0000
0000
,  // measure 18
0013
0001
0100
0001
0100
0010
1000
0010
1000
0100
0010
0001
0100
0010
1000
0000
,  // measure 19
0001
0010
1000
0001
0100
1000
0010
0100
,  // measure 20
0001
0000
0010
0000
1000
0000
0000
0000
0010
0000
0001
1000
0000
1000
0001
0000
,  // measure 21
0100
0000
0010
0000
1000
0000
0000
0000
0100
0000
0010
0100
0000
0010
0001
0000
,  // measure 22
1000
0000
0010
0000
0001
0000
0010
0000
1000
0000
1001
0000
0000
0110
0000
0000
,  // measure 23
2002
0000
0000
0000
3003
0000
0000
0000
0100
0010
0100
0010
0100
0000
0000
0000
,  // measure 24
0002
0000
2003
0000
,  // measure 25
3200
0000
0320
0032
,  // measure 26
1003
0000
0020
0000
0000
0000
0130
0010
0200
0000
0000
0301
0000
0000
1000
0000
,  // measure 27
0200
0000
0000
1300
0000
0000
0001
0000
0100
0000
0010
0100
0000
0000
0010
0000
,  // measure 28
1000
0100
0010
0001
1000
0001
0100
0010
,  // measure 29
1000
0001
0010
1000
0010
0001
1000
0001
,  // measure 30
0100
0000
0010
0000
1000
0000
0100
0000
0010
0100
0010
0001
1000
0001
1000
0002
,  // measure 31
2000
0000
0000
3003
,  // measure 32
1000
0001
0000
0010
0000
0001
1000
0000
0010
0100
0000
0010
0000
1000
0001
0000
,  // measure 33
0010
0100
0000
0010
0000
0001
1000
0000
0010
0000
0100
0001
0000
0001
1000
0000
,  // measure 34
0100
0010
0000
0001
0000
1000
0001
0000
0100
0010
0000
1000
0000
0001
1000
0000
,  // measure 35
0100
0010
0000
0001
0000
1000
0010
0000
1000
0000
0100
0010
0100
0000
0010
0000
,  // measure 36
0001
1000
0000
0010
0000
1000
0001
0000
0010
0100
0000
0010
0000
0001
1000
0000
,  // measure 37
0010
0100
0000
0010
0000
1000
0001
0000
0010
0000
0100
1000
0000
1000
0001
0000
,  // measure 38
0100
0010
0000
1000
0000
0001
1000
0000
0100
0010
0000
0001
0000
1000
0001
0000
,  // measure 39
0101
0000
1010
0000
0110
0110
0000
1001
,  // measure 40
0001
0000
1000
0000
0100
0020
0000
0001
0000
0031
0000
0010
0100
0000
1000
0000
,  // measure 41
0001
0000
0100
0000
0010
2000
0000
0100
0000
3100
0000
1000
0001
0000
0100
0010
,  // measure 42
0100
0000
0001
0000
1000
0020
0000
0100
0000
0130
0000
0010
1000
0000
0001
0000
,  // measure 43
1000
0000
0100
0000
0010
0002
0000
1000
0000
0103
0010
0100
0000
0001
1000
0001
,  // measure 44
1000
0000
0001
0000
0100
0020
0000
1000
0000
1030
0000
0010
0100
0000
0001
0000
,  // measure 45
1000
0000
0100
0000
0010
0002
0000
0100
0000
0103
0000
0001
1000
0000
0100
0010
,  // measure 46
0100
0000
1000
0000
0001
0020
0000
0100
0000
0130
0000
0010
0001
0000
1000
0000
,  // measure 47
0001
0000
0100
0000
0010
2000
0000
0001
0000
3100
0010
0100
0000
1000
0001
0000
,  // measure 48
0200
0010
0000
0010
,  // measure 49
0302
0000
0010
1000
0000
1000
0000
1003
,  // measure 50
0001
0010
0100
1000
0010
0100
0001
1000
,  // measure 51
0100
0010
0001
0100
0010
1000
0001
0000
,  // measure 52
0220
0000
0000
0330
,  // measure 53
2002
0000
0000
3003
,  // measure 54
0001
0100
0001
0100
0010
1000
0010
1000
0100
0010
0001
1000
0001
1000
0001
2000
,  // measure 55
0002
0000
0000
0000
3003
0000
0000
0000
0010
0100
0010
0100
0010
0000
0000
0000
,  // measure 56
0001
2000
0000
0010
0000
3010
0100
0000
0001
0020
0000
0100
0000
0130
1000
0000
,  // measure 57
0010
0200
0000
0001
0000
0301
1000
0000
0001
0000
0010
0100
0000
0100
1000
0000
,  // measure 58
1000
0002
0000
0010
0000
0013
0100
0000
1000
0020
0000
0100
0000
0130
0001
0000
,  // measure 59
0010
0200
0000
1000
0000
1300
0001
0000
1000
0000
0010
0100
0010
0000
1000
0000
,  // measure 60
0001
0000
0010
0000
0100
0000
0010
0000
0001
0000
0010
0000
0100
0000
0010
0001
,  // measure 61
1000
0000
0010
0000
0100
0000
0010
0000
1000
0000
0010
0000
0100
0000
0010
1000
,  // measure 62
0001
1000
0110
0001
1000
0001
0110
1000
,  // measure 63
0001
1000
0100
0010
0100
1000
0001
0100
0010
0100
0001
1000
0001
0000
0000
0000
,  // measure 64
1001
0000
0000
0000
;
