#TITLE:Air;
#SUBTITLE:;
#ARTIST:Srav3r;
#TITLETRANSLIT:;
#SUBTITLETRANSLIT:;
#ARTISTTRANSLIT:;
#GENRE:J-CORE;
#CREDIT:;
#BANNER:Air.png;
#BACKGROUND:Air-bg.png;
#LYRICSPATH:;
#CDTITLE:cdtitle.png;
#MUSIC:Air.ogg;
#OFFSET:-0.006000;
#SAMPLESTART:22.586000;
#SAMPLELENGTH:15.000000;
#SELECTABLE:YES;
#BPMS:0.000000=170.000000
,128.000000=85.000000
,160.000000=170.000000
;
#STOPS:
;
#BGCHANGES:;
#KEYSOUNDS:;
#ATTACKS:;

//---------------dance-single - Daff_4K----------------
#NOTES:
     dance-single:
     Daff_4K:
     Beginner:
     3:
     0.122460,0.183029,0.030891,0.000000,0.000000,111.000000,107.000000,4.000000,0.000000,0.000000,0.000000,0.122460,0.183029,0.030891,0.000000,0.000000,111.000000,107.000000,4.000000,0.000000,0.000000,0.000000:
0000
0000
0000
0000
,
0000
0000
0000
0000
,
0000
0000
0000
0000
,
0000
0000
0000
0000
,
0000
0000
0000
0000
,
0000
0000
0000
0000
,
0000
0000
0000
0000
,
0000
0000
0000
0000
,
1000
0000
0000
0000
,
1000
0000
1000
0000
,
0010
0000
0000
0000
,
0010
0000
0010
0000
,
0100
0000
0000
0000
,
0100
0000
0100
0000
,
0001
0000
0000
0000
,
1001
0000
0000
0000
,
1000
1000
0000
1001
,
0000
0000
0000
0000
,
0001
0000
0001
0000
,
0010
0000
0000
0000
,
0100
0000
0100
0000
,
1000
0000
0000
0000
,
0001
0000
0001
0000
,
1000
0000
1000
0000
,
0001
0001
0000
1001
,
0000
0000
0000
0000
,
1000
0000
1000
0000
,
0010
0000
0000
0000
,
0100
0000
0100
0000
,
0001
0000
0000
0000
,
1000
0000
1000
0000
,
0001
0000
0001
0000
,
1000
0000
0010
0000
,
0100
0000
0000
0000
,
0001
0000
0010
0000
,
0100
0000
0000
0000
,
1000
0000
1000
0000
,
0100
0000
0100
0000
,
0010
0000
0010
0000
,
0001
0000
0001
0000
,
1000
0000
0000
0000
,
1000
0000
1000
0000
,
0010
0000
0000
0000
,
0010
0000
0010
0000
,
0100
0000
0000
0000
,
0100
0000
0100
0000
,
0001
0000
0000
0000
,
1001
0000
0000
0000
,
1000
0000
1000
0000
,
1000
0000
0000
0000
,
0010
0000
0100
0000
,
0100
0000
0000
0000
,
0100
0000
0100
0000
,
0001
0000
0000
0000
,
1000
0000
0000
0000
,
0001
0000
0000
0000
,
0001
0000
0001
0000
,
0001
0000
0000
0000
,
0010
0000
0100
0000
,
0100
0000
0000
0000
,
0100
0000
0100
0000
,
1000
0000
0000
0000
,
0001
0000
0000
0000
,
1000
0000
0000
0000
,
1000
0000
0000
0000
,
1000
0000
1000
0000
,
0100
0000
0000
0000
,
0100
0000
0100
0000
,
0010
0000
0000
0000
,
0010
0000
0010
0000
,
0001
0000
0000
0000
,
1000
0000
1000
0000
,
0001
0000
0000
0000
,
0001
0000
0001
0000
,
0100
0000
0000
0000
,
0100
0000
0100
0000
,
0010
0000
0000
0000
,
0010
0000
0010
0000
,
1000
0000
0000
0000
,
0100
0000
0000
0000
;

//---------------dance-single - Daff_4K----------------
#NOTES:
     dance-single:
     Daff_4K:
     Easy:
     6:
     0.265882,0.308909,0.054059,0.185345,0.000000,241.000000,234.000000,7.000000,24.000000,0.000000,0.000000,0.265882,0.308909,0.054059,0.185345,0.000000,241.000000,234.000000,7.000000,24.000000,0.000000,0.000000:
0000
0000
0000
0000
,
0000
0000
0000
0000
,
0000
0000
0000
0000
,
0000
0000
0000
0000
,
0000
0000
0000
0000
,
0000
0000
0000
0000
,
0000
0000
0000
0000
,
0000
0000
0000
0000
,
1000
1000
1000
1000
,
0010
0100
0010
0100
,
0001
0001
0001
0001
,
0010
0100
0010
0100
,
1000
0010
1000
0010
,
0001
0010
0001
0010
,
1000
0001
1000
0001
,
2002
0000
0000
3003
,
1000
0000
0001
2002
,
0000
0000
0000
3003
,
1000
0001
1000
0000
,
0100
0010
0001
0000
,
1000
0100
0001
0100
,
1000
0010
0100
0001
,
2000
0000
3010
0100
,
0001
1000
0001
0000
,
0001
0000
1000
2002
,
0000
0000
0000
3003
,
0001
1000
0001
0000
,
0100
0010
1000
0000
,
0001
0100
1000
0100
,
0001
0010
0100
1000
,
0002
0000
0013
0100
,
2002
0000
0000
3003
,
2000
3020
0230
0000
,
0302
0000
0000
1003
,
0002
0023
0230
0000
,
2300
0000
0000
3001
,
1000
0010
0100
0000
,
0001
0010
0100
0000
,
1000
0010
0001
0010
,
1000
0100
0001
0100
,
1000
1000
1000
1000
,
0010
0100
0001
1000
,
0001
0001
0001
0001
,
0010
0100
1000
0001
,
1000
1000
0010
0010
,
0100
0100
0001
0001
,
0010
0100
1000
0001
,
2002
0000
0000
3003
,
1000
0000
0001
0000
,
1000
0010
0100
0001
,
2000
0000
0001
3001
,
1000
0100
0010
0001
,
1000
0010
0001
0010
,
1000
0100
0010
0001
,
1000
0000
0001
0000
,
1000
0010
0100
1001
,
0001
0000
1000
0000
,
0001
0010
0100
1000
,
0002
0000
1000
1003
,
0001
0100
0010
1000
,
0001
0010
1000
0010
,
0001
0100
0010
1000
,
0001
0000
1000
0000
,
0001
0010
0100
1000
,
0001
0100
1000
0100
,
0001
0000
1000
0000
,
0001
0010
1000
0010
,
0001
0000
1000
0000
,
0010
0100
0001
1000
,
0100
0010
0001
0010
,
0100
0010
0001
1000
,
0010
0100
0001
1001
,
1000
0100
0001
0100
,
1000
0000
0001
0000
,
1000
0010
0001
0010
,
1000
0000
0001
0000
,
0010
0100
1000
0001
,
0100
0010
1000
0010
,
0100
0010
1000
0001
,
2000
0002
0000
0000
,
3003
0000
0000
0000
;

//---------------dance-single - Daff_4K----------------
#NOTES:
     dance-single:
     Daff_4K:
     Medium:
     9:
     0.385033,0.556036,0.262573,0.316632,0.023168,349.000000,315.000000,34.000000,41.000000,0.000000,0.000000,0.385033,0.556036,0.262573,0.316632,0.023168,349.000000,315.000000,34.000000,41.000000,0.000000,0.000000:
0000
0000
0000
0000
,
0000
0000
0000
0000
,
0000
0000
0000
0000
,
0000
0000
0000
0000
,
0000
0000
0000
0000
,
0000
0000
0000
0000
,
0000
0000
0000
0000
,
0000
0000
0000
0000
,
2000
0010
0010
3010
,
1000
0001
0010
0100
,
0020
0100
0100
0130
,
0010
0001
1000
0010
,
0200
0010
0010
0310
,
0100
0001
1000
0100
,
1000
0010
1000
0000
0010
0100
0010
0000
,
0220
0000
0330
1001
,
1000
0000
0010
0100
0000
0000
2002
0000
,
3003
1000
0001
1001
,
1100
1100
0100
0010
,
0001
0100
0001
0000
1000
0000
0100
0000
,
0010
0000
0001
0100
0000
0010
0000
1000
,
0000
0001
0100
0000
0010
0000
1000
0000
,
0001
0010
0100
1000
,
1001
1100
0011
1001
,
0001
0000
0010
0100
0000
0000
2002
0000
,
3003
0001
1000
1001
,
0101
0101
0100
0010
,
1000
0100
1000
0000
0001
0000
0100
0000
,
0010
0000
1000
0100
0000
0010
0000
0001
,
0000
1000
0100
0000
0010
0000
0001
0000
,
1000
0010
0100
0001
,
2000
3200
0320
0032
,
2003
0000
3010
0200
0000
0000
0301
0000
,
0020
0000
0130
2000
0000
0000
3001
1000
,
0002
0000
0013
0200
0000
0000
1300
0000
,
0020
0000
0130
0002
0000
0000
1003
0001
,
1000
0000
0010
0100
0000
0010
0000
1000
0000
0100
1000
0000
0001
0000
0000
0000
,
0001
0000
0010
0100
0000
0010
0001
0000
0100
0000
0001
0000
1000
0000
0000
0000
,
0200
0000
0310
0001
1000
0010
0100
0000
,
0200
0000
0310
1000
0001
0010
0100
1000
,
0002
0100
0100
0010
,
0010
1000
1003
0001
,
2000
0100
0100
0010
,
0010
0001
3001
1000
,
0001
0010
0001
0000
0010
0100
0010
0000
,
0100
1000
0100
0000
1000
0001
1000
0000
,
0001
1000
0001
1000
0001
1000
0001
0000
,
2002
0000
3003
1001
,
2000
3200
0320
0032
,
2003
0010
0100
3001
,
1000
0000
0010
0100
0010
0000
1001
0000
,
0001
0010
0100
1000
,
0001
0000
0101
0000
0010
1000
0010
0000
,
0100
0001
1000
0100
,
0010
0000
0001
0100
0000
0010
0000
1010
,
0000
1000
0001
0000
0010
0000
0011
0000
,
0002
0203
0320
2030
,
3002
0010
0100
1003
,
0001
0000
0010
0100
0010
0000
1001
0000
,
1000
0010
0100
0001
,
1000
0000
1100
0000
0010
0001
0010
0000
,
0100
1000
0001
0100
,
0110
0000
0000
1010
0000
0000
2002
0000
,
0000
0000
0000
3003
,
0001
0000
0100
0010
0000
1000
0000
1001
,
0000
0001
0010
0000
0100
0000
1100
0000
,
1001
0000
0001
0100
0000
0110
0000
0010
,
1000
0100
0010
0001
,
1000
0010
0001
0010
,
1000
0000
0100
0010
0100
0000
1000
0000
,
0001
0010
1000
0010
,
0001
0000
0100
0010
1000
0000
1001
0000
,
1000
0000
0100
0010
0000
0001
0000
1001
,
0000
1000
0010
0000
0100
0000
0101
0000
,
1001
0000
1000
0100
0000
0110
0000
0010
,
0001
0100
0010
1000
,
0001
0010
1000
0010
,
0001
0000
0100
0010
0100
0000
0001
0000
,
1000
0010
0001
0010
,
2000
0002
0000
0000
,
3003
0000
0000
0000
;

//---------------dance-single - Daff_4K----------------
#NOTES:
     dance-single:
     Daff_4K:
     Hard:
     12:
     0.545004,0.648709,0.540591,0.393859,0.069505,494.000000,424.000000,70.000000,51.000000,0.000000,0.000000,0.545004,0.648709,0.540591,0.393859,0.069505,494.000000,424.000000,70.000000,51.000000,0.000000,0.000000:
0000
0000
0000
0000
,
0000
0000
0000
0000
,
0000
0000
0000
0000
,
0000
0000
0000
0000
,
0000
0000
0000
0000
,
0000
0000
0000
0000
,
0000
0000
0000
0000
,
0000
0000
0000
0000
,
2000
0000
0000
0000
0010
0000
0000
0000
3100
0000
0000
1000
0000
0000
0010
0000
,
0100
0000
0001
0000
0000
0000
1000
0000
0100
0000
0000
1000
0010
0000
0100
0000
,
0002
0000
0000
0000
0100
0000
0000
0000
0013
0000
0000
0001
0000
0000
0100
0000
,
0010
1000
0000
0001
0010
0100
1000
0000
,
0002
0000
0000
0000
0010
0000
0000
0000
0103
0000
0000
0001
0000
0000
0010
0000
,
0100
0000
1000
0000
0000
0000
0001
0000
0100
0000
0000
0001
0010
0000
0100
0000
,
1000
0010
0100
0001
1000
0100
0010
0001
,
2002
0000
3003
0110
,
1001
0000
0100
0010
0100
0000
2002
0000
,
3003
1000
0010
0100
0001
0000
1001
0000
,
1100
0000
0011
0000
0001
0100
2000
0000
,
3100
0010
1000
0001
0010
0000
0110
0000
,
1100
0000
1000
0002
0000
0103
0000
2010
,
0000
3001
0010
1000
0010
0001
0100
0010
,
2000
0000
3100
1000
0001
0100
0010
1000
,
1002
0203
0310
1010
,
1001
0000
0100
0010
0100
0000
2002
0000
,
3003
0001
0010
0100
1000
0000
1001
0000
,
0101
0000
1010
0000
1000
0100
0002
0000
,
0103
0010
0001
1000
0010
0000
0110
0000
,
0101
0000
0001
2000
0000
3100
0000
0012
,
0000
1003
0010
0001
0010
1000
0100
0010
,
0002
0000
0103
0001
1000
0100
0010
0001
,
2000
3200
0320
0032
,
2003
0000
0010
0100
0000
3010
1000
0001
,
0200
0000
0001
0010
0000
0301
0100
0001
,
0020
0000
0001
0100
0000
1030
0010
0001
,
0200
0000
0010
0001
0000
0310
0100
0001
,
1000
0000
0100
1000
0000
0001
0000
0100
0000
0010
1000
0000
0001
0000
0010
0000
,
0001
0000
0100
0001
0000
1000
0100
0000
0010
0000
0001
0000
1000
0000
0100
0000
,
2000
0000
0000
0000
3010
0100
0010
0000
1000
0000
0100
0000
0010
0001
1000
0000
,
0001
0000
0010
0100
0010
0000
0001
0000
0100
0000
0010
0000
1000
0000
0001
0000
,
0101
0110
1010
0110
,
0101
0000
1001
0000
1000
0100
0010
0100
,
1100
0110
0011
0110
,
1100
0000
1001
0000
0001
0100
0010
0100
,
0001
0010
1000
0010
0001
0100
1000
0100
,
0001
0010
1000
0010
0001
0100
1000
0100
,
0001
0010
0100
1000
0010
0100
0001
1000
,
2002
0000
3003
0110
,
1001
1100
0101
1100
,
1001
0000
0001
0100
1000
0000
1100
0000
,
0102
0000
0013
0100
2000
0000
3002
0000
,
0103
0020
0000
1030
0100
0001
0100
1000
,
0010
0000
0110
0000
0100
0001
2000
0000
,
3100
0110
0011
1001
,
1000
0010
0100
0010
1000
0001
0000
0101
,
0000
0100
0010
1000
0001
0000
0101
0000
,
1001
0101
1100
0101
,
1001
0000
1000
0100
0001
0000
0101
0000
,
2100
0000
3010
0100
0002
0000
2003
0000
,
3100
0020
0000
0031
0100
1000
0100
0001
,
0010
0000
0110
0000
0100
1000
0002
0000
,
0103
0110
1010
1001
,
0011
0000
0000
0110
0000
0000
1100
0000
,
1000
0100
0010
0001
1000
0010
0100
0001
,
2000
0000
3100
0001
0100
1000
0000
1001
,
0000
0001
0100
0010
0100
1000
0100
0001
,
2000
0000
3010
0100
0000
0101
0001
1000
,
0100
0001
0100
1000
0010
0100
0002
0000
,
1003
0000
0000
0000
1010
0000
0000
0000
0010
0000
0000
0100
0001
0000
1000
0000
,
0001
0010
0100
1000
0001
0100
0010
1000
,
0001
0000
0000
0000
0011
0000
0000
0100
1000
0000
0001
0000
1000
0000
0010
0000
,
0200
0000
0301
2000
0000
3001
1001
0000
,
0002
0000
0103
1000
0100
0001
0000
1001
,
0000
1000
0100
0010
0100
0001
0100
1000
,
0002
0000
0013
0100
0000
1100
1000
0001
,
0100
1000
0100
0001
0010
0100
2000
0000
,
3001
0000
0000
0000
0011
0000
0000
0000
0010
0000
0000
0100
1000
0000
0001
0000
,
1000
0010
0100
0001
1000
0100
0010
0001
,
1000
0000
0000
0000
1010
0000
0000
0100
0001
0000
1000
0000
0001
0000
0010
0000
,
0200
0000
2300
0002
0000
0000
0000
0000
,
3003
0000
0000
0000
;

//---------------dance-single - Daff_4K----------------
#NOTES:
     dance-single:
     Daff_4K:
     Challenge:
     15:
     0.648709,0.895836,0.455641,0.532868,0.285741,588.000000,529.000000,59.000000,69.000000,28.000000,0.000000,0.648709,0.895836,0.455641,0.532868,0.285741,588.000000,529.000000,59.000000,69.000000,28.000000,0.000000:
// measure 0
0000
0000
0000
0000
,  // measure 1
0000
0000
0000
0000
,  // measure 2
0000
0000
0000
0000
,  // measure 3
0000
0000
0000
0000
,  // measure 4
0000
0000
0000
0000
,  // measure 5
0000
0000
0000
0000
,  // measure 6
0000
0000
0000
0000
,  // measure 7
0000
0000
0000
0000
,  // measure 8
2000
0000
0000
0000
0010
0000
0000
0000
3100
0000
0000
1000
0000
0000
0001
0000
,  // measure 9
0200
0000
0010
0000
0000
0000
0301
0000
0100
0000
0000
0001
0010
0000
0001
0000
,  // measure 10
0200
0000
0000
0000
0010
0000
0000
0000
1300
0000
0000
0100
0000
0000
0001
0000
,  // measure 11
0020
0100
0000
1030
0010
0001
2000
0000
,  // measure 12
3002
0000
0000
0000
0010
0000
0000
0000
0103
0000
0000
0001
0000
0000
1000
0000
,  // measure 13
0200
0000
0010
0000
0000
0000
1300
0000
0001
0000
0000
1000
0010
0000
1000
0000
,  // measure 14
0001
0100
0010
1000
0001
0010
0100
1000
,  // measure 15
0001
0000
0100
0010
0100
0010
0100
0000
0001
0000
0000
0000
MMMM
0000
0000
0000
,  // measure 16
0201
0000
0310
2000
0002
3003
2002
0000
,  // measure 17
3003
0000
1000
0010
1000
0010
0100
0000
0001
0000
1000
0000
1001
0000
MMMM
0000
,  // measure 18
0101
0000
0000
0000
1010
0000
0000
1000
0100
0000
1000
0000
0001
0000
0100
0000
,  // measure 19
0010
0000
1000
0100
1000
0000
0010
0000
0100
0000
0001
0000
0101
0000
0000
0000
,  // measure 20
1010
1000
0100
0001
1000
0010
0001
2000
,  // measure 21
0000
3010
0100
0001
0010
1000
0010
0001
,  // measure 22
0200
0000
0310
1000
0001
0010
0100
0010
,  // measure 23
0001
0101
1010
MMMM
,  // measure 24
1200
0000
0310
0002
2000
3003
2002
0000
,  // measure 25
3003
0000
0001
0010
0001
0010
0100
0000
1000
0000
0001
0000
1001
0000
MMMM
0000
,  // measure 26
1100
0000
0000
0000
0011
0000
0000
0001
0100
0000
0001
0000
1000
0000
0100
0000
,  // measure 27
0010
0000
0001
0100
0001
0000
0010
0000
0100
0000
1000
0000
1100
0000
0000
0000
,  // measure 28
0011
0001
0100
1000
0001
0010
1000
0002
,  // measure 29
0000
0013
0100
1000
0010
0001
0010
1000
,  // measure 30
0200
0000
0310
0001
1000
0010
0100
0010
,  // measure 31
2000
3200
0320
0032
,  // measure 32
2003
0000
0000
3010
0200
0000
0302
0000
0000
1003
0200
0000
0320
0000
0032
0000
,  // measure 33
2003
0000
0000
3100
0020
0000
0032
0000
1003
0010
2000
0000
3200
0000
0320
0000
,  // measure 34
0032
0000
0000
0013
0200
0000
2300
0000
0000
3001
0200
0000
0320
0000
2030
0000
,  // measure 35
3002
0000
0000
0103
0020
0000
2030
0000
3001
0010
0002
0000
0203
0000
0320
0000
,  // measure 36
2030
0000
3100
0010
0001
0200
0000
0320
0000
1030
0100
0001
0100
1000
0002
0000
,  // measure 37
0023
0000
0130
2000
0000
3001
0200
0000
0301
0010
1000
0010
0002
0000
0203
0000
,  // measure 38
0320
0000
1000
0000
1030
0100
0001
0001
0100
1000
0001
0100
0020
0000
1030
0001
,  // measure 39
0020
0000
0000
0000
0001
0000
0000
0000
0031
0000
0100
0000
1000
0000
0100
0000
0001
0000
1000
0000
0100
0000
0020
0000
0000
0000
0031
0010
0001
0000
0100
0000
,  // measure 40
0101
0000
0000
0000
1010
0000
0000
0000
1100
0000
0000
0100
0010
0000
0001
0000
,  // measure 41
1000
0000
0000
0000
1010
0000
0000
0000
0101
0000
0000
0001
1000
0000
0100
0000
,  // measure 42
1100
0000
0000
0000
0011
0000
0000
0000
0101
0000
0000
0100
0010
0000
1000
0000
,  // measure 43
0001
0000
0000
0000
0011
0000
0000
0000
1100
0000
0000
1000
0001
0000
0100
0000
,  // measure 44
0001
0001
0010
0010
0100
0100
1000
1000
,  // measure 45
0010
0010
0100
0100
0001
0001
1000
1000
,  // measure 46
0001
0100
0001
0100
0001
0100
0001
0100
0010
1000
0010
1000
0010
1000
0010
1000
,  // measure 47
0001
0000
0100
0010
0100
0010
0100
0000
0001
0000
0000
0000
MMMM
0000
0000
0000
,  // measure 48
1010
0011
0101
1100
,  // measure 49
1000
0010
0100
0001
0010
0100
1000
0000
,  // measure 50
1020
0000
0130
0001
0021
0000
0130
1000
,  // measure 51
0000
0000
1001
0000
0000
0000
0001
0010
0001
0000
0100
0000
0010
0000
1000
0000
,  // measure 52
1001
0000
0101
0000
0100
0010
1000
0010
,  // measure 53
0100
0000
0000
0100
0001
0000
0000
0001
1000
0000
0100
0000
0010
0000
0001
0000
,  // measure 54
1000
0100
0010
0100
1000
0010
0100
0001
,  // measure 55
1000
0001
0010
1000
0010
0000
MMMM
0000
,  // measure 56
0011
1010
1100
0101
,  // measure 57
0001
0010
0100
1000
0010
0100
0001
0000
,  // measure 58
0021
0000
0130
1000
1020
0000
0130
0001
,  // measure 59
0000
0000
1001
0000
0000
0000
1000
0100
1000
0000
0100
0000
0010
0000
0001
0000
,  // measure 60
1001
1100
0011
1001
,  // measure 61
1000
0010
0100
0001
1001
0000
1010
0000
,  // measure 62
1100
0000
0010
0011
0000
0001
0101
0000
,  // measure 63
0100
0010
0100
0000
0010
1000
0010
0000
1000
0000
0100
0000
0010
0000
0001
0000
,  // measure 64
1000
0100
0001
0100
1000
1100
0000
0011
,  // measure 65
0001
0000
0100
0000
0010
0000
1000
0000
0001
0010
0001
0000
1000
0000
0010
0000
,  // measure 66
0100
0001
1000
1010
0000
0110
0100
0001
,  // measure 67
1000
0100
1000
0000
0010
0000
0100
0000
0001
0000
1000
0000
0100
0000
0001
0000
,  // measure 68
0100
0000
1000
0000
0001
0000
0100
0000
0001
0000
0010
0100
0010
0000
0001
0000
,  // measure 69
1000
0001
0010
0100
1000
0001
0100
1000
,  // measure 70
0100
0000
0001
0000
1000
0000
0010
0000
0100
0000
0001
0010
0001
0000
1000
0000
,  // measure 71
0100
0010
0001
1000
0001
0000
MMMM
0000
,  // measure 72
0001
0100
1000
0100
0001
0101
0000
1010
,  // measure 73
1000
0000
0100
0000
0010
0000
0001
0000
1000
0010
1000
0000
0001
0000
0010
0000
,  // measure 74
0100
1000
0001
0011
0000
0110
0100
1000
,  // measure 75
0001
0100
0001
0000
0010
0000
0100
0000
1000
0000
0001
0000
0100
0000
1000
0000
,  // measure 76
0100
0000
0001
0000
1000
0000
0100
0000
1000
0000
0010
0100
0010
0000
1000
0000
,  // measure 77
0001
0000
1000
0000
0010
0000
0100
0000
0001
0000
1000
0100
1000
0000
0001
0000
,  // measure 78
0100
0000
1000
0000
0100
0000
0010
0000
1000
0000
0001
0010
0001
0000
1000
0000
,  // measure 79
0020
0000
2030
0002
0000
0000
0000
0000
,  // measure 80
3003
0000
0000
0000
;
