#TITLE:The Skies Are Not Enough;
#SUBTITLE:;
#ARTIST:dbk2;
#TITLETRANSLIT:;
#SUBTITLETRANSLIT:;
#ARTISTTRANSLIT:;
#CREDIT:;
#BANNER:;
#BACKGROUND:;
#LYRICSPATH:;
#CDTITLE:;
#MUSIC:The Skies Are Not Enough.mp3;
#OFFSET:-0.042;
#SAMPLESTART:24.062;
#SAMPLELENGTH:12.000;
#SELECTABLE:YES;
#BPMS:0.000=250.000;
#STOPS:;
#BGCHANGES:;

//---------------dance-single - Wahyu D. L----------------
#NOTES:
     dance-single:
     Wahyu D. L:
     Beginner:
     3:
     0.207,0.350,0.033,0.441,0.000:
0000
0000
0000
0000
,
0000
0000
0000
0000
,
0000
0000
0000
0000
,
0000
0000
0000
0000
,
1000
0000
0000
0000
,
0001
0000
0000
0000
,
0100
0000
0000
0000
,
0010
0000
0000
0000
,
1000
0000
0000
0000
,
0001
0000
0000
0000
,
0100
0000
0000
0000
,
0010
0000
0000
0000
,
0001
0000
0000
0000
,
1000
0000
0000
0000
,
0001
0000
0000
0000
,
0010
0000
0000
0000
,
0001
0000
0000
0000
,
0100
0000
0000
0000
,
0010
0000
0000
0000
,
1000
0000
0000
0000
,
0001
0000
0000
0000
,
0100
0000
0000
0000
,
0010
0000
0000
0000
,
0001
0000
0000
0000
,
1000
0000
0000
0000
,
0100
0000
0000
0000
,
1000
0000
0000
0000
,
0001
0000
0000
0000
,
0100
0000
0000
0000
,
0100
0000
0000
0000
,
0010
0000
0000
0000
,
0010
0000
0000
0000
,
0001
0000
0000
0000
,
0001
0000
0000
0000
,
2000
0000
0000
3000
,
0002
0000
0000
0003
,
1000
0000
0000
0000
,
0000
0000
0000
0000
,
0001
0000
0000
0000
,
0000
0000
0000
0000
,
1000
0000
0000
0000
,
0000
0000
0000
0000
,
0010
0000
0000
0000
,
0000
0000
0000
0000
,
1000
0000
0000
0000
,
0001
0000
0000
0000
,
1000
0000
0000
0000
,
0001
0000
0000
0000
,
0100
0000
0000
0000
,
0001
0000
0000
0000
,
1000
0000
0000
0000
,
0010
0000
0000
0000
,
2000
0000
0000
3000
,
0002
0000
0000
0003
,
0200
0000
0000
0300
,
0020
0000
0000
0030
,
2000
0000
0000
3000
,
0002
0000
0000
0003
,
0200
0000
0000
0300
,
0020
0000
0000
0000
,
1030
0000
0000
0000
,
0001
0000
0000
0000
,
1000
0000
0000
0000
,
0001
0000
0000
0000
,
0010
0000
0000
0000
,
0100
0000
0000
0000
,
0010
0000
0000
0000
,
0100
0000
0000
0000
,
0001
0000
0001
0000
,
1000
0000
1000
0000
,
0001
0000
0001
0000
,
1000
0000
1000
0000
,
0001
0000
0001
0000
,
1000
0000
1000
0000
,
0020
0000
0000
0030
,
0200
0000
0000
0300
,
0002
0000
0000
0003
,
0002
0000
0000
0003
,
2000
0000
0000
3000
,
2000
0000
0000
3000
,
0200
0000
0000
0300
,
0200
0000
0000
0300
,
0020
0000
0000
0030
,
1001
0000
1001
0000
,
2000
0000
0000
3000
,
2000
0000
0000
3000
,
0002
0000
0000
0003
,
0002
0000
0000
0003
,
0200
0000
0000
0300
,
0020
0000
0000
0030
,
0200
0000
0000
0300
,
0020
0000
0000
0030
,
2000
0000
0000
3000
,
0002
0000
0000
0003
,
2000
0000
0000
3000
,
0002
0000
0000
0003
,
2000
0000
0000
3000
,
0002
0000
0000
0003
,
2000
0000
0000
3000
,
0200
0000
0000
0300
,
0020
0000
0000
0030
,
0200
0000
0000
0300
,
0020
0000
0000
0030
,
0200
0000
0000
0300
,
0020
0000
0000
0030
,
0200
0000
0000
0300
,
0020
0000
0000
0030
,
0200
0000
0000
0300
,
0002
0000
0000
0003
,
2000
0000
0000
3000
,
0002
0000
0000
0003
,
2000
0000
0000
3000
,
0002
0000
0000
0003
,
0200
0000
0000
0300
,
0002
0000
0000
0003
,
2000
0000
0000
3000
,
2002
0000
0000
0000
,
0000
0000
0000
0000
,
0000
0000
0000
0000
,
0000
0000
0000
3003
,
1001
0000
0000
0000
;

//---------------dance-single - Wahyu D. L----------------
#NOTES:
     dance-single:
     Wahyu D. L:
     Easy:
     4:
     0.358,0.600,0.208,0.625,0.000:
0000
0000
0000
0000
,
0000
0000
0000
0000
,
0000
0000
0000
0000
,
0000
0000
0000
0000
,
1000
0000
0001
0000
,
1000
0000
0001
0000
,
0100
0000
0010
0000
,
0100
0000
0010
0000
,
1000
0000
0001
0000
,
1000
0000
0001
0000
,
0100
0000
0010
0000
,
0100
0000
0010
0000
,
1000
0000
0001
0000
,
0100
0000
0010
0000
,
1000
0000
0001
0000
,
0100
0000
0010
0000
,
1000
0000
0001
0000
,
0100
0000
0010
0000
,
1000
0000
0001
0000
,
0100
0000
0010
0000
,
0200
0000
0000
0000
,
2300
0000
0000
0000
,
3002
0000
0000
0000
,
0203
0000
0000
0000
,
0320
0000
0000
0000
,
2030
0000
0000
0000
,
3002
0000
0000
0000
,
2003
0000
0000
0000
,
3100
0000
1000
0000
,
0100
0000
1000
0000
,
0001
0000
0100
0000
,
0001
0000
0100
0000
,
0001
0000
0010
0000
,
0001
0000
0010
0000
,
2000
0000
0000
0000
,
3002
0000
0000
0000
,
1003
0000
0100
0000
,
1000
0000
0100
0000
,
1000
0000
0010
0000
,
1000
0000
0010
0000
,
1000
0000
0001
0000
,
1000
0000
0001
0000
,
0100
0000
0001
0000
,
0100
0000
0001
0000
,
1000
0000
0001
0000
,
0010
0000
0100
0000
,
1000
0000
0001
0000
,
0100
0000
0010
0000
,
1000
0000
0001
0000
,
0100
0000
0010
0000
,
1000
0000
1000
0000
,
0001
0000
1000
0000
,
2002
0000
0000
3003
,
0202
0000
0000
0303
,
2020
0000
0000
3030
,
2002
0000
0000
3003
,
0202
0000
0000
0303
,
0022
0000
0000
0033
,
2020
0000
0000
3030
,
2200
0000
0000
3300
,
1000
0000
0001
0000
,
1000
0000
0001
0000
,
0100
0000
0010
0000
,
1000
0000
0001
0000
,
1100
0000
0001
0000
,
0100
0000
0010
0000
,
1000
0000
0001
0000
,
0010
0000
0010
0000
,
0001
0000
1000
0000
,
0001
0000
0100
0000
,
0010
0000
1000
0000
,
0001
0000
1000
0000
,
0100
0000
1000
0000
,
0001
0000
0010
0000
,
0001
0000
0100
0000
,
0010
0000
1000
0000
,
2002
0000
0000
3003
,
0202
0000
0000
0303
,
0022
0000
0000
0033
,
2020
0000
0000
3030
,
2200
0000
0000
3300
,
2002
0000
0000
3003
,
0202
0000
0000
0303
,
0210
0300
0120
0030
,
1002
0000
1000
0003
,
2001
0000
0001
3000
,
0012
0000
0010
0003
,
2010
0000
3010
0000
,
1200
0000
1000
0000
,
2300
0000
0100
0000
,
3002
0000
1000
0000
,
0010
0000
1000
0000
,
2003
0000
0001
0000
,
3200
0000
0010
0000
,
0302
0000
1000
0000
,
2003
0000
0010
0000
,
3200
0000
0001
0000
,
2300
0000
0010
0000
,
3200
0000
0001
0000
,
0302
0000
0010
0000
,
2003
0000
0100
0000
,
3020
0000
1000
0000
,
0032
0000
1000
0000
,
0023
0000
0100
0000
,
0230
0000
0010
0000
,
2300
0000
0001
0000
,
3020
0000
0001
0000
,
0032
0000
0100
0000
,
0023
0000
1000
0000
,
0230
0000
1000
0000
,
2300
0000
0001
0000
,
3200
0000
0001
0000
,
0320
0000
1000
0030
,
0002
0000
0100
0000
,
2003
0000
0100
0000
,
3020
0000
0100
0030
,
2002
0000
0000
0000
,
0000
0000
0000
0000
,
0000
0000
0000
0000
,
0000
0000
0000
3003
,
1001
0000
0000
0000
;

//---------------dance-single - Wahyu D. L----------------
#NOTES:
     dance-single:
     Wahyu D. L:
     Medium:
     9:
     0.787,0.850,0.075,0.000,0.000:
0000
0000
0000
0000
,
0000
0000
0000
0000
,
0000
0000
0000
0000
,
0000
0000
0000
0000
,
0001
1000
0100
1000
,
0010
0100
1000
0001
,
0100
0001
0010
0001
,
1000
0100
1000
0010
,
1000
0001
0100
0010
,
1000
0001
0100
0001
,
1000
0010
1000
0001
,
1000
0001
1000
0100
1000
0010
1000
0001
,
1000
0001
0100
0010
,
1000
0001
1000
0001
,
0100
0010
1000
0001
,
0100
0001
1000
0010
,
1000
0001
0010
0001
,
0100
0010
1000
0001
,
0100
0010
1000
0001
,
1000
0001
1000
0001
1000
0100
1000
0100
,
1000
1000
1000
1000
,
0010
0010
0010
0010
,
0100
0100
0100
0100
,
0001
0001
0001
0001
,
1000
1000
1000
1000
,
0010
0010
0010
0010
,
1000
1000
1000
1000
,
0001
0001
0001
0001
,
0100
0001
1000
0001
,
1000
0010
1000
0010
,
1000
0001
1000
0001
,
0100
0001
0100
0001
,
1000
0001
1000
0001
,
1000
0010
1000
0010
,
1000
0001
1000
0001
,
0100
0010
1000
0001
,
1001
1000
0100
1000
,
0010
1000
0001
1000
,
0101
0001
1000
0010
,
1000
1000
0001
0100
,
1001
1000
0010
1000
,
0001
1000
0001
0100
,
0110
0010
1000
0001
,
1000
1000
1000
1000
,
00M1
00M0
00M1
00M0
,
1M00
0M00
1M00
0M00
,
M001
M000
M001
M000
,
01M0
00M0
01M0
00M0
,
0M01
0M00
0M01
0M00
,
10M0
00M0
10M0
00M0
,
M001
M000
M001
M000
,
1M00
0M00
1M00
0M00
,
0001
1000
0001
1000
,
0010
1000
0010
1000
,
0100
0010
0100
0010
,
1000
0001
1000
0001
,
0010
0001
0010
0001
,
0100
0001
0100
0001
,
1000
0001
1000
0001
,
1000
0100
1000
0010
1000
0001
1000
0001
,
0100
0100
0100
0100
,
0001
0001
0001
0001
,
1000
1000
1000
1000
,
0010
0010
0010
0010
,
0100
0100
0100
0100
,
0001
0001
0001
0001
,
1000
1000
1000
1000
,
0001
1000
0001
0100
0010
1000
0001
1000
,
0001
1000
0001
1000
0100
1000
0100
1000
,
0010
1000
0010
1000
0001
1000
0001
1000
,
0001
0100
0001
0100
0001
0010
0001
0010
,
0001
1000
0001
1000
0100
1000
0100
1000
,
0010
1000
0010
1000
0001
1000
0001
1000
,
0001
0100
0001
0100
0001
0010
0001
0010
,
0001
0100
0001
0100
0001
1000
0001
1000
,
0010
1000
0010
1000
0100
1000
0100
1000
,
0001
1000
0001
0100
0010
1000
0001
0100
,
0001
0010
0001
0100
0001
1000
0001
1000
,
0100
1000
0010
1000
0001
1000
0001
0100
,
0010
1000
0001
1000
0001
0100
0010
1000
,
0001
1000
0001
1000
0100
1000
0010
1000
,
0100
1000
0001
0100
0001
0010
0001
0100
,
0001
1000
0001
1000
0100
1000
0010
1000
,
0100
0100
0100
0000
0010
0010
0010
0000
,
1000
0001
1000
0001
1000
0001
1000
0001
,
0100
0001
0100
0001
0100
0001
0100
0001
,
0010
0001
0010
0001
0010
0001
0010
0001
,
1000
0001
1000
0001
1000
0001
1000
0001
,
1000
0100
1000
0100
1000
0100
1000
0010
,
1000
0010
1000
0010
1000
0010
1000
0010
,
1000
0001
1000
0001
1000
0001
1000
0001
,
0010
0100
0010
0100
0010
0100
0010
0100
,
0001
1000
0001
1000
0001
1000
0001
1000
,
0010
1000
0010
1000
0010
1000
0010
1000
,
0100
1000
0100
1000
0100
1000
0100
1000
,
0001
1000
0001
1000
0001
1000
0001
1000
,
0001
0100
0001
0100
0001
0100
0001
1000
,
0001
1000
0001
1000
0001
1000
0001
1000
,
0100
1000
0100
1000
0100
1000
0100
1000
,
0010
1000
0010
1000
0010
1000
0010
1000
,
0010
0100
0010
0100
0010
0100
0010
0100
,
0010
1000
0010
1000
0010
1000
0010
1000
,
0001
1000
0001
1000
0001
1000
0001
1000
,
0001
0010
0001
0010
0001
0010
0001
0010
,
0001
0010
0100
0010
0100
0010
0100
0010
,
0100
0010
1000
0010
1000
0010
1000
0010
,
1000
0001
1000
0001
1000
0001
1000
0001
,
0100
0001
0100
0001
0100
0001
0100
0001
,
1000
0010
1000
0001
1000
0001
0100
0010
,
1000
0001
0010
0001
0100
0001
1000
0010
,
1000
0100
1000
0001
1000
0001
0100
0001
,
0010
0001
0100
0001
1000
0010
1000
0100
,
1000
0001
1000
0001
0100
0001
0100
0001
,
0010
0001
0010
0001
0100
0001
1000
0010
,
1000
0001
0100
0001
1000
0010
1000
0001
,
0100
0010
1000
0100
1000
0001
1000
0001
,
0100
0100
0000
0000
1001
0000
0000
0000
,
0001
0001
1001
0000
,
1000
0000
0000
0000
1001
0000
0000
0001
,
0001
1000
1001
0001
,
1001
0000
0000
0000
;

//---------------dance-single - Wahyu D. L----------------
#NOTES:
     dance-single:
     Wahyu D. L:
     Hard:
     12:
     0.982,1.000,0.033,0.150,0.658:
0000
0000
0000
0000
,
0000
0000
0000
0000
,
0000
0000
0000
0000
,
0000
0000
0000
0000
,
0001
0000
1000
0001
0000
0010
0001
0100
,
0010
0000
1000
0001
0000
0100
0010
1000
,
0001
0000
0100
0010
0000
1000
0001
0100
,
0010
0000
0100
0010
0000
0100
0010
1000
,
0010
0000
1000
0100
0000
1000
0010
1000
,
0100
0000
1000
0010
0000
1000
0100
0010
,
0001
0000
0100
0010
0000
1000
0001
1000
,
0010
1000
0001
1000
0001
0100
0010
1000
,
0001
0000
0100
0001
1000
0001
0100
0010
,
1000
0000
1000
0001
0100
0010
1000
0010
,
1000
0000
1000
1000
0001
0100
0010
1000
,
0001
0000
0001
0001
0100
0010
1000
0001
,
1000
0000
1000
1000
0100
1000
0010
0100
,
0001
0000
0100
0100
0010
1000
0001
1000
,
0001
0000
0010
0010
1000
0001
1000
0010
,
0100
0001
1000
0001
0010
0001
0100
0010
,
2000
0000
0000
0000
0000
3000
1000
0001
,
0200
0000
0000
0000
0000
0000
0000
0000
0000
0000
0000
0000
0301
0000
1000
0010
,
2000
0000
0000
0000
0000
3000
1000
0001
,
0200
0000
0000
0000
0000
0000
0000
0000
0000
0000
0000
0000
0310
0000
1000
0010
,
2000
0000
0000
0000
0000
3000
1000
0001
,
2000
0000
0000
0000
0000
0000
0000
0000
0000
0000
0000
0000
3100
0000
1000
0010
,
2000
0000
0000
0000
0000
3000
1000
0001
,
0200
0000
0000
0000
,
1300
0100
0001
0100
1000
0100
0001
0100
,
1000
0010
0001
0010
1000
0010
0001
0010
,
1000
0100
0010
0100
1000
0100
0010
0100
,
1000
0010
0001
0010
0100
0010
0001
0010
,
1000
0010
0100
0010
1000
0010
0100
0010
,
1000
0100
0010
0100
0001
0100
0010
0100
,
0001
0000
0010
0000
0100
0000
1000
0000
0100
0000
0010
0000
,
0001
0000
0010
0000
0100
0000
1000
0000
0100
0000
0010
0000
,
1001
0000
1000
0001
1000
0010
1000
0100
,
1000
0000
1000
1000
0001
0100
0010
1000
,
0001
0000
0001
0001
0100
0010
1000
0001
,
1000
0000
1000
0001
1000
0001
1000
0100
,
1000
0000
1000
1000
0010
1000
0001
0100
,
0010
0000
0010
0010
1000
0001
1000
0001
,
0100
0000
0100
0100
0010
1000
0001
1000
,
0001
0100
0010
1000
0001
0010
0001
0100
,
0010
0010
0100
0100
0010
0010
0100
0100
,
0001
0001
1000
1000
0001
0001
1000
1000
,
0100
0100
0010
0010
1000
1000
0001
0001
,
0100
0100
0010
0010
1000
1000
0001
0001
,
0100
0100
0010
0010
1000
1000
0001
0001
,
0100
0100
0001
0001
1000
1000
0001
0001
,
1000
0010
1000
0001
1000
0001
0100
0010
,
0001
0010
0001
0010
1000
0001
1000
0001
1000
0100
1000
0100
,
0010
0000
1000
1000
0000
0100
0100
0000
,
0010
0000
1000
1000
0000
0001
0001
0000
,
0100
0000
0010
0010
0000
1000
1000
0000
,
0001
0000
0100
0100
0000
0010
0010
0000
,
1001
0000
0100
0100
0000
0010
0010
0000
,
0001
0000
1000
1000
0000
0100
0100
0000
,
1000
0000
0001
0001
0000
0100
0100
0000
,
1000
0100
0010
0001
0010
0100
1000
0001
,
2000
0000
0000
0000
0000
0000
3001
0010
,
0200
0000
0000
0000
0000
0000
0000
0000
0000
0000
0000
0000
1300
0000
0100
0010
,
0002
0000
0000
0000
0000
0003
0001
1000
,
0002
0000
0000
0000
0000
0000
0000
0000
0000
0000
0000
0000
1003
0000
0100
0010
,
0002
0000
0000
0000
0000
0003
0001
1000
,
0002
0000
0000
0000
0000
0000
0000
0000
0000
0000
0003
0000
0001
0000
0010
0001
,
0020
0000
0000
0000
0000
0000
1030
0001
,
2000
0000
0000
0000
,
3001
0100
0010
1000
0001
0100
0010
1000
,
0001
0100
0010
1000
0001
0100
0010
1000
,
0001
0010
0100
1000
0001
0010
0100
1000
,
0001
0010
0100
1000
0001
0010
0100
1000
,
0010
1000
0100
0010
0001
0000
1000
0100
,
0010
0001
1000
0100
0010
0001
1000
0100
,
0010
0001
0010
0001
0100
0010
0100
0010
1000
0100
1000
0100
,
1000
0010
1000
0010
0100
0001
0100
0001
1000
0100
1000
0100
,
0010
0001
0010
0001
0010
0001
0010
0001
0010
0001
0010
0001
,
1000
0100
1000
0100
1000
0100
1000
0100
1000
0100
1000
0100
,
0010
0001
0010
0001
0010
0001
0010
0001
0010
0001
0010
0001
,
0100
0001
0100
0001
0100
0001
0100
0001
0100
0001
0100
0001
,
1000
0010
1000
0010
1000
0010
1000
0010
1000
0010
1000
0010
,
0100
0010
0100
0010
0100
0010
0100
0010
0100
0010
0100
0010
,
1000
0001
1000
0001
1000
0001
1000
0001
1000
0001
1000
0001
,
1000
1000
1000
0000
0001
0001
0001
0001
,
0001
0000
1000
0001
0000
0001
1000
0000
,
0010
0000
0010
0100
0000
0100
0010
0000
,
1000
0000
1000
0001
0000
0001
1000
0000
,
0010
0000
0010
0100
0000
0100
0010
0000
,
1000
0000
1000
0010
0000
0010
1000
0000
,
1000
0000
1000
0001
0000
0001
1000
0000
,
1000
0000
1000
0100
0000
0100
1000
0000
,
0010
1000
0001
0100
0010
0001
0100
0010
,
1000
0000
1000
0001
0000
0001
1000
0010
,
1000
0000
1000
0001
0000
1000
0001
0100
,
0010
0000
0010
1000
0000
1000
0001
0100
,
0010
0000
0010
0100
0000
0100
0010
1000
,
0001
0000
1000
0001
0000
0001
1000
0010
,
1000
0100
1000
0001
0100
0010
1000
0001
,
1000
0000
1000
0001
0000
0001
0100
0000
,
0001
1000
0010
1000
0001
1000
0001
0100
,
0001
0010
0001
0100
0010
1000
0001
0100
,
0010
1000
0001
1000
0100
1000
0010
0100
,
0010
1000
0010
1000
0001
0100
0001
0010
,
0001
0100
0010
1000
0001
1000
0100
1000
,
0010
1000
0001
0100
0001
0010
0001
0100
,
0001
1000
0010
1000
0100
1000
0001
0100
,
0010
1000
0001
0010
0100
1000
0010
1000
,
0100
0010
1000
0001
0100
0010
0001
0100
,
1000
0100
0010
0001
0100
0010
1000
0001
0100
0010
0100
1000
,
0010
0100
0001
0100
0010
0001
0100
1000
0100
0001
0100
0010
,
0100
1000
0001
0100
0010
0001
0010
0001
0100
0010
1000
0001
,
0100
0010
0100
1000
0001
0100
0010
0100
1000
0001
0100
0010
,
0001
0010
0100
0001
1000
0001
0100
0010
0100
1000
0001
0100
,
0010
0100
0001
0010
0001
0100
0010
1000
0001
0100
0010
1000
,
0100
0010
0001
0010
0100
1000
0100
0010
0001
0010
0100
1000
,
0001
0010
0100
1000
0100
0010
0001
0010
0100
1000
0100
0010
,
2002
0000
0000
0000
,
0000
0000
0000
0000
,
0000
0000
0000
0000
,
0000
0000
0000
3003
,
1001
0000
0000
0000
;

//---------------dance-single - Wahyu D. L----------------
#NOTES:
     dance-single:
     Wahyu D. L:
     Challenge:
     17:
     1.000,1.000,0.067,0.008,1.000: // measure 1
0000
0000
0000
0000
,  // measure 2
0000
0000
0000
0000
,  // measure 3
0000
0000
0000
0000
,  // measure 4
0000
0000
0000
0000
,  // measure 5
0001
0010
0001
0010
0100
1000
0100
0010
,  // measure 6
0001
0000
1000
0100
1000
0100
0010
0001
,  // measure 7
0010
0000
0001
0010
0001
0010
0100
1000
,  // measure 8
0100
0000
1000
0100
1000
0100
0010
0001
,  // measure 9
0010
0000
0001
0010
0001
0010
0100
1000
,  // measure 10
0100
0000
1000
0100
1000
0100
0010
0001
,  // measure 11
0010
0000
0001
0010
0001
0010
0100
1000
,  // measure 12
0100
0000
1000
0100
1000
0000
0010
0000
0100
0001
0100
0000
0010
0000
1000
0100
,  // measure 13
1000
0000
1000
1000
0100
0010
0001
0010
,  // measure 14
0100
0000
0010
0010
0100
0001
0100
0010
,  // measure 15
1000
0000
0100
0100
0001
1000
0001
0100
,  // measure 16
0010
0000
0001
0001
0100
0010
0001
0010
,  // measure 17
0100
0000
1000
1000
0100
1000
0001
0100
,  // measure 18
0010
0000
1000
1000
0100
1000
0010
0100
,  // measure 19
0001
0000
0001
0001
0100
0010
0100
0001
,  // measure 20
1000
0000
0010
1000
0010
0000
0001
0000
1000
0100
1000
0000
0001
0000
0010
1000
,  // measure 21
0010
0MM1
1MM0
0MM1
,  // measure 22
MMMM
01MM
10MM
01MM
,  // measure 23
MMMM
MM01
MM10
MM01
,  // measure 24
MMMM
M10M
M01M
M10M
,  // measure 25
MMMM
M0M1
M1M0
M0M1
,  // measure 26
MMMM
10MM
01MM
10MM
,  // measure 27
MMMM
M01M
M10M
M01M
,  // measure 28
MMMM
MM01
MM10
MM01
,  // measure 29
1000
0100
0010
0001
1000
0100
0010
0001
,  // measure 30
0001
0010
0100
1000
0001
0010
0100
1000
,  // measure 31
1000
0100
0010
0001
1000
0100
0010
0001
,  // measure 32
0001
0010
0100
1000
0001
0010
0100
1000
,  // measure 33
1000
0100
0010
0001
1000
0100
0010
0001
,  // measure 34
0001
0010
0100
1000
0001
0010
0100
1000
,  // measure 35
0001
0010
0100
1000
0100
0010
0001
0100
0010
0001
0010
0100
,  // measure 36
1000
0100
0010
0001
1000
0100
0010
0001
0010
0100
1000
0001
0010
0100
1000
0100
,  // measure 37
0010
0000
0001
0001
1000
0100
1000
0010
,  // measure 38
1000
0000
0001
0001
0100
0010
1000
0100
,  // measure 39
1000
0000
1000
1000
0010
1000
0001
0100
,  // measure 40
0010
0000
0010
0010
0001
0100
0010
1000
,  // measure 41
0100
0000
0100
0100
0010
1000
0001
0100
,  // measure 42
0010
0000
0010
0010
0001
0100
0001
1000
,  // measure 43
0010
0000
1000
1000
0010
1000
0100
0010
,  // measure 44
1000
0000
0100
0010
0100
0000
0001
0000
0100
0010
0100
0000
1000
0000
0010
1000
,  // measure 45
0100
0100
0010
0010
0100
0100
0010
0010
,  // measure 46
1000
1000
0001
0001
1000
1000
0001
0001
,  // measure 47
0010
0010
0100
0100
0010
0010
1000
1000
,  // measure 48
0001
0001
0100
0100
0001
0001
1000
1000
,  // measure 49
0010
0010
0100
0100
0001
0001
1000
1000
,  // measure 50
0010
0010
1000
1000
0001
0001
1000
1000
,  // measure 51
0001
0100
0001
1000
0001
1000
0010
0100
,  // measure 52
1000
0100
1000
0100
0001
1000
0001
1000
0001
0100
0001
0100
,  // measure 53
1000
0100
1000
0100
1000
0010
1000
0010
1000
0001
1000
0001
,  // measure 54
1000
0001
1000
0001
1000
0010
1000
0010
1000
0100
1000
0100
,  // measure 55
1000
0001
0010
0001
0010
0001
0100
0001
0100
0001
1000
0001
,  // measure 56
1000
0001
1000
0001
1000
0001
0100
0001
0100
0001
0010
0001
,  // measure 57
0010
1000
0100
1000
0100
1000
0010
1000
0010
1000
0001
1000
,  // measure 58
0001
1000
0001
1000
0001
1000
0010
1000
0010
1000
0100
1000
,  // measure 59
0100
0001
0010
0001
0010
0001
0100
0001
0100
0001
1000
0001
,  // measure 60
1000
0100
0010
0001
1000
0100
0010
0001
1000
0100
0010
0001
,  // measure 61
0010
0000
1000
0001
0000
0001
1000
0100
,  // measure 62
1000
0000
0010
0100
0000
0100
0010
1000
,  // measure 63
0001
0000
0100
0010
0000
0010
0001
0010
,  // measure 64
0001
0000
1000
0001
0000
1000
0001
0100
,  // measure 65
0010
0000
1000
0001
0000
1000
0001
1000
,  // measure 66
0100
0000
1000
0010
0000
0010
1000
0001
,  // measure 67
1000
0000
1000
0100
0000
0100
1000
0010
,  // measure 68
1000
0000
0001
0010
0100
0000
1000
0000
0100
0010
0001
0000
0100
0000
0010
0100
,  // measure 69
1000
0010
0100
0001
1000
0010
0100
0001
,  // measure 70
1000
0010
0100
0001
1000
0010
0100
0001
,  // measure 71
1000
0100
0010
0001
1000
0100
0010
0001
,  // measure 72
1000
0100
0010
0001
1000
0100
0010
0001
,  // measure 73
0100
0001
0010
0100
1000
0000
0001
0010
,  // measure 74
0100
1000
0001
0010
0100
1000
0001
0010
,  // measure 75
0100
1000
0100
1000
0010
0100
0010
0100
0001
0010
0001
0010
,  // measure 76
0001
0100
0001
0100
0010
1000
0010
1000
0001
0010
0001
0010
,  // measure 77
0100
1000
0100
1000
0100
1000
0100
1000
0100
1000
0100
1000
,  // measure 78
0001
0010
0001
0010
0001
0010
0001
0010
0001
0010
0001
0010
,  // measure 79
0100
1000
0100
1000
0100
1000
0100
1000
0100
1000
0100
1000
,  // measure 80
0010
1000
0010
1000
0010
1000
0010
1000
0010
1000
0010
1000
,  // measure 81
0001
0100
0001
0100
0001
0100
0001
0100
0001
0100
0001
0100
,  // measure 82
0010
0100
0010
0100
0010
0100
0010
0100
0010
0100
0010
0100
,  // measure 83
0001
1000
0001
1000
0001
1000
0001
1000
0001
1000
0001
1000
,  // measure 84
0110
0110
0110
0000
1001
1001
1001
1001
,  // measure 85
1000
0100
1000
0010
0100
0001
0010
0100
0001
0010
0100
1000
0010
1000
0001
0010
,  // measure 86
0001
0100
0010
1000
0001
0010
0001
0100
0010
1000
0001
0010
0001
0100
0001
1000
,  // measure 87
0100
1000
0010
1000
0100
0010
1000
0001
0010
0001
0100
0010
0100
1000
0010
1000
,  // measure 88
0001
0010
0001
0100
0010
1000
0001
0010
0001
0100
0010
1000
0100
1000
0010
1000
,  // measure 89
0001
0100
0001
0010
0001
1000
0001
0010
0001
0100
0001
1000
0010
1000
0100
1000
,  // measure 90
0010
0100
0001
0100
0001
0010
0001
0100
0010
1000
0100
1000
0010
1000
0001
1000
,  // measure 91
0001
0100
0010
1000
0001
1000
0001
0010
0001
0100
0010
1000
0001
1000
0001
1000
,  // measure 92
0001
0100
0010
1000
0001
1000
0001
0010
0001
0100
0010
1000
0100
1000
0010
1000
,  // measure 93
0001
0100
0010
1000
0100
1000
0010
0100
0001
1000
0001
0010
0001
0100
0010
1000
,  // measure 94
0001
1000
0100
1000
0010
1000
0001
1000
0001
0010
0100
0001
0100
0001
1000
0001
,  // measure 95
1000
0100
1000
0010
1000
0010
0100
0001
1000
0001
1000
0010
1000
0100
1000
0001
,  // measure 96
0010
0001
0100
0010
1000
0001
1000
0100
0010
1000
0001
0100
0001
0010
0001
0100
,  // measure 97
0001
1000
0010
1000
0100
1000
0010
0100
0001
0010
0001
0100
0010
1000
0100
1000
,  // measure 98
0010
0100
0001
0010
0001
0100
0010
1000
0100
1000
0010
1000
0001
0010
0001
0100
,  // measure 99
0010
1000
0010
0100
0001
1000
0100
1000
0010
0100
0001
0100
0010
1000
0010
0100
,  // measure 100
0001
0100
0001
0010
0001
0100
0010
1000
0001
1000
0100
1000
0010
0100
0001
0010
,  // measure 101
0001
0100
0010
1000
0001
0010
0100
0010
1000
0010
1000
0001
0100
0010
1000
0100
,  // measure 102
1000
0001
0100
0010
1000
0010
1000
0100
1000
0010
1000
0001
0010
0001
0100
0010
,  // measure 103
1000
0001
1000
0100
1000
0001
0010
0001
0100
0010
1000
0001
0100
0010
1000
0001
,  // measure 104
0010
0001
0100
0010
1000
0010
0100
0001
1000
0010
1000
0001
0010
0001
0100
0010
,  // measure 105
1000
0001
0010
0100
1000
0001
0010
0001
0100
0010
1000
0001
0010
0001
0100
1000
,  // measure 106
0010
1000
0001
0010
0001
0100
0010
1000
0001
1000
0010
0100
1000
0010
1000
0001
,  // measure 107
0010
0001
0100
0010
1000
0001
0010
0001
0100
0010
1000
0010
0100
0001
1000
0010
,  // measure 108
0100
0001
1000
0010
0100
0010
1000
0001
0100
0010
0100
0001
1000
0010
0100
0001
,  // measure 109
0010
0100
1000
0010
0001
0010
0100
1000
0010
0001
0100
0010
1000
0001
0010
1000
,  // measure 110
0001
0100
0010
0100
0001
1000
0100
0010
0100
1000
0010
1000
0100
0010
0001
0100
,  // measure 111
0010
1000
0001
0010
0100
1000
0010
1000
0001
0010
0001
0100
0010
1000
0100
0010
,  // measure 112
0001
0100
0010
1000
0001
0010
0001
0100
0010
1000
0100
1000
0010
1000
0100
0010
,  // measure 113
0001
0100
0010
1000
0001
0010
0100
0010
0001
1000
0100
0010
0001
0100
1000
0010
,  // measure 114
0100
1000
0001
0010
0001
0100
0010
1000
0001
0010
0100
1000
0010
0100
0001
0010
,  // measure 115
0100
1000
0001
0100
0010
1000
0001
0100
0010
1000
0001
0010
0100
1000
0001
0100
,  // measure 116
0010
1000
0001
0100
0010
1000
0001
0010
0100
1000
0010
0100
0001
1000
0010
0100
,  // measure 117
0002
0010
0000
0000
1000
0000
0000
1000
,  // measure 118
1000
0000
0100
0000
1000
0010
0000
0000
,  // measure 119
1000
0000
0000
0100
1000
0000
0000
0010
,  // measure 120
0010
0000
1000
0000
0100
1000
0013
0000
,  // measure 121
1001
0000
0000
0000
0000
0000
0000
MMMM
0000
0000
0000
0000
0000
MMMM
0000
0000
0000
0000
0000
MMMM
0000
0000
0000
0000
,  // measure 122
MMMM
0000
0000
0000
;
