#TITLE:The Moon;
#SUBTITLE:VRC6 Happy Version;
#ARTIST:ballandpaddle;
#TITLETRANSLIT:;
#SUBTITLETRANSLIT:;
#ARTISTTRANSLIT:;
#CREDIT:;
#BANNER:;
#BACKGROUND:;
#LYRICSPATH:;
#CDTITLE:;
#MUSIC:The Moon VRC6 Happy Version.mp3;
#OFFSET:-0.232;
#SAMPLESTART:71.509;
#SAMPLELENGTH:13.600;
#SELECTABLE:YES;
#BPMS:0.000=179.980;
#STOPS:;
#BGCHANGES:;

//---------------dance-single - W. D. Lesmono----------------
#NOTES:
     dance-single:
     W. D. Lesmono:
     Beginner:
     1:
     0.061,0.110,0.062,0.000,0.000:
0000
0000
0000
0000
,
0000
0000
0000
0000
,
0000
0000
0000
0000
,
0000
0000
0000
0000
,
0000
0000
0000
0000
,
0000
0000
0000
0000
,
0000
0000
0000
0000
,
0000
0000
0000
0000
,
0000
0000
0000
0000
,
0000
0000
0000
0000
,
0000
0000
0000
0000
,
0000
0000
1000
0000
,
0000
0000
0000
0000
,
0000
0000
0000
0000
,
0000
0000
0000
0000
,
0000
0000
0001
0000
,
0000
0000
0000
0000
,
0000
0000
1000
0000
,
0000
0000
0000
0000
,
0000
0000
1000
0000
,
0000
0000
0000
0000
,
0000
0000
0001
0000
,
0000
0000
0000
0000
,
0000
0000
1000
0000
,
0000
0000
0000
0000
,
0000
0000
0001
0000
,
0000
0000
0000
0000
,
0000
0000
1000
0000
,
0000
0000
0000
0000
,
0000
0000
0001
0000
,
0000
0000
0000
0000
,
0000
0000
1000
0000
,
0000
0000
0000
0000
,
0000
0000
0001
0000
,
0000
0000
0000
0000
,
0000
0000
1000
0000
,
0000
0000
0000
0000
,
0000
0000
1001
0000
,
0000
0000
0000
0000
,
0000
0000
0001
0000
,
0000
0000
0000
0000
,
0000
0000
1001
0000
,
0000
0000
0000
0000
,
0000
0000
1001
0000
,
0000
0000
0000
0000
,
0000
0000
1000
0000
,
0000
0000
0000
0000
,
0000
0000
1001
0000
,
0000
0000
0000
0000
,
0000
0000
0001
0000
,
0000
0000
0001
0000
,
0000
0000
1000
0000
,
0000
0000
0000
0000
,
0000
0000
1000
0000
,
0000
0000
0000
0000
,
0000
0000
0001
0000
,
0000
0000
0000
0000
,
0000
0000
1000
0000
,
0000
0000
0000
0000
,
0000
0000
0001
0000
,
0000
0000
0000
0000
,
0000
0000
1000
0000
,
0000
0000
0000
0000
,
0000
0000
0010
0000
,
0000
0000
0000
0000
,
0000
0000
0100
0000
,
0000
0000
0000
0000
,
0000
0000
0010
0000
,
0000
0000
0000
0000
,
0000
0000
0100
0000
,
0000
0000
0000
0000
,
0000
0000
0110
0000
,
0000
0000
0000
0000
,
0000
0000
1000
0000
,
0000
0000
0000
0000
,
0000
0000
0001
0000
,
0000
0000
0000
0000
,
0000
0000
1000
0000
,
0000
0000
0000
0000
,
0000
0000
0001
0000
,
0000
0000
0000
0000
,
0000
0000
1000
0000
,
0000
0000
0000
0000
,
0000
0000
1001
0000
,
0000
0000
0000
0000
,
0000
0000
1010
0000
,
0000
0000
0000
0000
,
0000
0000
0101
0000
,
0000
0000
0000
0000
,
0000
0000
0110
0000
,
0000
0000
0000
0000
,
0000
0000
1000
0000
,
0000
0000
0000
0000
,
0000
0000
0001
0000
,
0000
0000
1000
0000
,
1000
0000
1000
0000
,
0000
0000
0001
0000
,
0001
0000
0001
0000
,
0000
0000
1000
0000
,
0000
0000
0000
0000
,
0000
0000
0000
0000
,
0000
0000
0000
0000
,
0000
0000
0001
0000
,
0000
0000
0000
0000
,
0000
0000
0100
0000
,
0000
0000
0010
0000
,
0000
0000
1000
0000
,
0000
0000
0000
0000
,
0000
0000
0001
0000
,
0000
0000
0000
0000
,
0000
0000
0100
0000
,
0000
0000
0000
0000
,
0000
0000
0010
0000
,
0000
0000
0000
0000
,
0000
0000
1000
0000
,
0000
0000
0000
0000
,
0000
0000
0001
0000
,
0000
0000
0000
0000
,
0000
0000
1000
0000
,
0000
0000
0000
0000
,
0000
0000
0001
0000
,
0000
0000
0000
0000
,
0000
0000
1000
0000
,
0000
0000
0000
0000
,
0000
0000
0001
0000
,
0000
0000
0000
0000
,
0000
0000
1000
0000
,
0000
0000
0000
0000
,
0000
0000
0110
0000
,
0000
0000
0000
0000
,
0000
0000
1001
0000
;

//---------------dance-single - W. D. Lesmono----------------
#NOTES:
     dance-single:
     W. D. Lesmono:
     Challenge:
     12:
     0.919,1.000,0.389,0.068,0.380: // measure 1
0000
0000
0000
0000
,  // measure 2
0000
0000
0000
0000
,  // measure 3
2000
0000
0000
3200
0000
0000
0320
0000
,  // measure 4
0000
0000
0000
0000
0000
0000
0000
0032
,  // measure 5
0000
0000
0023
0000
0000
0230
0000
0000
,  // measure 6
0000
0000
0000
2300
,  // measure 7
0000
3200
0000
0000
0320
0000
0000
0000
,  // measure 8
0000
0000
0000
0000
0000
0032
0000
0000
,  // measure 9
0023
0000
0000
0230
0000
0000
0000
0300
,  // measure 10
1001
0000
1010
0000
1100
0000
1000
0100
,  // measure 11
1000
0000
0010
0000
0100
0000
1000
0000
0001
0000
0100
0010
0100
0000
1000
0100
,  // measure 12
1000
0000
0010
0001
0010
0100
1000
0100
0010
0000
0001
0000
1000
0000
0100
0000
,  // measure 13
1000
0010
1000
0001
0100
0010
0001
0100
,  // measure 14
0010
1000
0001
1000
0100
0010
0001
0100
,  // measure 15
0010
0100
0001
1000
0001
1000
0100
0010
,  // measure 16
1000
0001
0010
0001
0100
0010
1000
0001
,  // measure 17
1000
0100
1000
0010
1000
0001
0100
0001
,  // measure 18
1000
0001
1000
0010
1000
0100
0010
0001
,  // measure 19
0100
0010
1000
0001
1000
0100
1000
0001
,  // measure 20
0100
0000
0010
0100
1000
0000
0001
0010
0100
0000
1000
0000
0001
0000
0100
0000
,  // measure 21
0010
1000
0001
0100
0010
1000
0001
1000
,  // measure 22
0100
1000
0010
0100
0001
1000
0100
0010
,  // measure 23
0001
0100
0010
1000
0100
1000
0001
0100
,  // measure 24
0001
0010
0001
0100
0010
1000
0100
1000
,  // measure 25
0010
1000
0001
0100
0001
0100
1000
0010
,  // measure 26
0001
0000
1000
0000
0001
0000
1000
0010
1010
0000
0010
0000
0000
0000
0010
1000
,  // measure 27
1010
0000
0000
0000
1001
0000
0000
0000
0000
0000
1000
0100
0010
0000
0100
0010
,  // measure 28
0001
0010
1000
0000
0001
0000
0010
0100
1000
0000
0001
0000
0100
0000
0010
0000
,  // measure 29
1000
0001
0100
0001
0010
0100
1000
0010
,  // measure 30
1000
0001
1000
0100
1000
0001
0010
0001
,  // measure 31
0100
0010
1000
0001
1000
0100
1000
0010
,  // measure 32
1000
0001
0100
0010
0100
1000
0001
1000
,  // measure 33
0100
1000
0010
1000
0001
0100
0010
1000
,  // measure 34
0100
0010
0100
1000
0010
1000
0001
1000
,  // measure 35
0100
0000
0010
0000
1000
0000
0001
0010
0100
1000
0100
0010
0001
0010
0100
0010
,  // measure 36
0001
0010
0100
1000
0100
0010
0001
0010
1000
0000
0001
0000
0100
0000
0010
0000
,  // measure 37
1000
0001
0100
0010
1000
0100
1000
0001
,  // measure 38
0010
0100
1000
0010
1010
1010
0000
1001
,  // measure 39
1001
0000
0000
0000
0101
0000
0101
0000
0000
0000
0001
0010
0011
0000
0000
0000
,  // measure 40
0100
0010
0001
0000
0010
0000
1000
0000
0001
0010
0100
1000
0001
0100
0010
1000
,  // measure 41
0100
0010
0001
0100
0010
0001
1000
0100
0010
0100
1000
0010
0100
0010
0001
0010
,  // measure 42
0100
0001
1000
0100
0010
0100
0001
0100
0101
0000
0100
0000
0000
0000
1000
0010
,  // measure 43
1010
0000
0000
0000
1001
0000
0000
0000
0000
0000
1000
0100
1000
0000
0001
0010
,  // measure 44
0100
1000
0100
0010
0001
0010
0100
0010
0011
0000
0011
0000
0000
0000
0000
0000
,  // measure 45
1100
0000
1100
0000
0000
0000
1000
0001
1001
0000
1000
0000
0100
0000
1000
0000
,  // measure 46
0000
0001
0010
1000
0100
1000
0001
0100
,  // measure 47
0010
1000
0001
0100
1000
0001
1000
0001
,  // measure 48
1000
0001
1000
0001
1001
1001
0000
0000
,  // measure 49
0101
0000
0101
0000
1000
0000
0100
1000
1100
0000
1000
0000
0000
0000
1001
0000
,  // measure 50
0000
0101
0101
0010
1000
0100
1000
0001
,  // measure 51
1000
0010
0100
0000
0010
0000
0100
0000
1000
0000
0001
0000
0010
0000
0100
0000
,  // measure 52
0010
0100
1000
0100
0010
1000
0100
1000
1100
0000
1100
0000
0000
0000
0010
0001
,  // measure 53
0011
0000
0000
0000
0110
0000
0000
0000
0000
0000
1000
0100
1100
0000
0001
0010
,  // measure 54
0100
1000
0000
0000
0001
0000
0010
0100
1100
0000
0100
0000
1000
0000
0100
0001
,  // measure 55
0010
0000
1000
0000
0100
0000
1000
0100
0010
0000
1000
0000
0001
0000
0100
1000
,  // measure 56
0001
0100
0010
1000
0001
0010
0100
0010
0001
0000
1000
0000
0001
0000
1000
0000
,  // measure 57
0100
1000
0001
1000
0001
0010
0001
0100
,  // measure 58
0010
1000
0001
1000
0100
0100
1000
0001
,  // measure 59
0010
0010
1000
0100
0001
0001
0100
0001
,  // measure 60
0010
0010
1000
0001
0100
0100
0010
0001
,  // measure 61
1000
1000
0001
1000
0100
0100
0010
0001
,  // measure 62
1000
1000
0001
0100
0010
0010
1000
0001
,  // measure 63
1000
1000
0010
1000
0100
0100
0001
1000
,  // measure 64
1000
0000
0100
0001
1000
0000
0010
0001
1000
0000
1000
0000
0001
0000
0100
0000
,  // measure 65
0010
1000
0001
0100
0001
0010
0001
0100
,  // measure 66
0010
1000
0001
1000
0100
0100
1000
0010
,  // measure 67
1000
1000
0001
0100
0010
0010
1000
0001
,  // measure 68
1000
1000
0001
0100
0010
0010
0100
0001
,  // measure 69
1000
1000
0100
1000
0010
0010
1000
0001
,  // measure 70
0100
0100
0010
1000
0001
0001
0100
1000
,  // measure 71
0010
0010
1000
0100
0001
0001
0100
0010
,  // measure 72
1000
0000
0001
0000
1000
0000
0100
0010
1000
0000
0000
0000
0000
0000
1100
0000
,  // measure 73
0000
0000
0000
0000
0101
0000
0100
0010
0001
0000
0000
0000
1000
0000
0000
0000
,  // measure 74
0010
0000
1000
0000
0001
0000
0010
0001
0100
0000
0100
0010
0100
0000
0100
0010
,  // measure 75
0100
0000
0100
0010
0100
0000
0001
0000
0000
0000
0000
0000
0000
0000
0000
0000
,  // measure 76
1000
0000
0001
1000
0001
0000
0001
1000
0001
0000
0010
0000
1000
0000
0010
0000
,  // measure 77
1000
0001
0100
0010
1000
0001
0010
0001
,  // measure 78
0100
0010
1000
0100
0010
0001
0100
0010
,  // measure 79
1000
0100
1000
0001
1000
0001
0100
0010
,  // measure 80
1000
0001
1000
0001
1000
0010
0100
1000
,  // measure 81
0010
0001
1000
0001
0100
0010
1000
0001
,  // measure 82
0010
0100
0001
1000
0100
0010
1000
0001
,  // measure 83
0100
1000
0010
1000
1001
1000
1100
0100
,  // measure 84
0101
0000
0001
0100
0001
0000
0100
0001
0010
0000
1000
0000
0001
0000
0010
0000
,  // measure 85
0100
1000
0010
1000
0001
0100
0010
1000
,  // measure 86
0001
0010
0001
1000
0001
0010
0100
1000
,  // measure 87
0010
0100
0001
1000
0100
1000
0010
0001
,  // measure 88
0010
0100
1000
0001
0100
0001
0010
0100
,  // measure 89
1000
0100
0010
0001
1000
0001
1000
0100
,  // measure 90
1000
0000
0010
0000
1000
0000
0001
0000
1001
0000
1000
0000
0000
0000
0001
0100
,  // measure 91
0101
0000
0000
0000
1010
0000
0000
0000
0000
0000
0001
1000
0001
0000
1000
0100
,  // measure 92
0010
0001
0010
0100
1000
0100
0010
0100
1000
0000
0010
0000
1000
0000
1001
0000
,  // measure 93
0000
0000
0101
0000
0000
0000
0011
0000
0010
0000
0001
0010
0001
0000
0010
0000
,  // measure 94
1000
0000
0100
0000
1000
0000
0001
1000
1001
0000
1001
0000
0101
0000
0011
0000
,  // measure 95
0000
0000
0101
0000
1010
0000
0010
1000
0100
0000
0100
0000
1000
0000
1000
0000
,  // measure 96
0010
0000
0010
0000
1000
0000
1000
0000
0001
0000
0001
1000
0100
0000
0100
0000
,  // measure 97
0000
0000
1000
0000
0001
0000
0100
0010
0001
0000
0001
0000
0100
0000
0100
0000
,  // measure 98
0010
0000
0010
0000
1000
0000
1000
0000
0001
0000
0001
1000
0010
0000
0010
0000
,  // measure 99
0000
0000
0001
1000
0001
0000
0001
1000
0001
0000
1000
0000
0100
0000
1000
0000
,  // measure 100
0010
1000
0001
0100
0001
0010
0001
0100
,  // measure 101
0010
1000
0001
1000
0100
1000
0010
1000
,  // measure 102
0001
0100
0001
0010
0100
1000
0010
1000
,  // measure 103
0001
1000
0001
0010
0001
0100
0010
0100
,  // measure 104
0001
0010
1000
0001
1000
0001
0100
0010
,  // measure 105
1000
0001
0100
0010
1000
0001
1000
0100
,  // measure 106
1000
0010
1000
0001
0100
0001
0010
0001
,  // measure 107
0100
0000
0010
0001
1000
0000
0001
0010
1000
0000
0100
0000
1000
0000
0001
0000
,  // measure 108
0010
0100
1000
0001
0010
0001
0100
0010
,  // measure 109
1000
0001
1000
0100
1000
0010
1000
0001
,  // measure 110
0100
0001
0010
0001
0100
0010
1000
0001
,  // measure 111
1000
0100
1000
0010
1000
0001
0010
0001
,  // measure 112
0100
0010
1000
0001
1001
1000
1100
0100
,  // measure 113
0110
0000
0010
0000
0011
0000
0001
0100
0101
0000
0100
0000
0000
0000
1000
0100
,  // measure 114
1100
0000
0000
0000
1001
0000
0000
0000
0000
0000
1000
0001
1000
0000
0001
0010
,  // measure 115
0100
1000
0100
0010
0001
0100
0010
1000
0010
0000
0100
0000
0010
0000
1000
0000
,  // measure 116
0001
0100
0001
0010
0100
1000
0010
0001
,  // measure 117
1000
0100
0010
1000
0001
0010
0100
0010
,  // measure 118
1000
0001
0100
0010
1000
0001
0100
1000
,  // measure 119
0001
1000
0100
0010
1000
0001
0010
0001
,  // measure 120
0100
0010
1000
0100
1000
0010
1000
0010
,  // measure 121
1000
0100
1000
0001
0100
0001
0010
0001
,  // measure 122
0100
0000
0010
0000
1000
0000
0100
0010
0001
0010
0100
1000
0100
0010
0001
1000
,  // measure 123
0100
0010
0001
0010
0100
1000
0100
0010
0001
0000
0010
0000
1000
0000
0100
0000
,  // measure 124
1000
0010
1000
0001
0100
0010
1000
0001
,  // measure 125
1000
0100
1000
0010
1010
1010
0000
1001
,  // measure 126
1001
0000
0000
0000
0101
0000
0101
0000
0000
0000
0010
0001
0011
0000
0000
0000
,  // measure 127
1000
0100
1000
0000
0001
0000
1000
0000
0100
0010
1000
0010
0001
0010
1000
0010
,  // measure 128
0001
0010
1000
0010
0001
0010
1000
0010
0001
0100
1000
0100
0001
0100
1000
0100
,  // measure 129
0001
0100
1000
0100
0001
0100
1000
0100
1100
0000
1000
0000
0000
0000
1000
0010
,  // measure 130
1010
0000
0000
0000
1001
0000
0000
0000
0000
0000
1000
0100
1000
0000
0010
0100
,  // measure 131
0001
0010
0001
0000
0010
0000
1000
0010
0001
0000
0000
0000
0000
0000
0000
0000
;

//---------------dance-single - W. D. Lesmono----------------
#NOTES:
     dance-single:
     W. D. Lesmono:
     Medium:
     7:
     0.567,0.772,0.191,1.000,0.003:
0000
0000
0000
0000
,
0000
0000
0000
0000
,
0002
0000
0000
0000
,
0000
0203
0000
0302
0000
0203
0000
2300
,
0000
0000
3100
0200
0000
0000
0000
0000
,
0000
0302
2003
3200
,
0000
0000
0320
0000
,
0000
0230
0000
0000
,
0000
0000
0000
0300
,
0101
0101
1001
1001
,
0011
0011
1010
1010
,
1001
1001
0100
0001
,
0200
0302
2003
3020
0000
0000
0230
0000
,
0320
0000
0230
0000
0302
0000
2003
3200
,
0000
0000
0000
0000
,
0000
0000
0320
0230
0302
0000
0000
1003
,
2000
0000
0000
0000
,
0000
0000
3002
0203
2300
0000
0000
0000
,
0000
3020
0230
0302
0000
0000
0000
0000
,
0000
0000
0000
0000
0000
0000
0000
0000
0000
0000
0000
0000
0000
0000
0000
0000
0000
0000
0000
0000
0000
0000
0000
0000
0000
0000
0000
0000
0000
0000
0000
0000
0000
0000
0000
0000
0000
0000
0000
0000
0000
0000
0000
0000
0000
0000
0000
0000
0000
0003
0000
0000
0000
0000
0000
0000
0000
0000
0000
0000
0000
0000
0000
0000
0000
0000
0000
0000
0000
0000
0000
0000
0000
0000
0000
0000
0000
0000
0000
0000
0000
0000
0000
0000
0000
0000
0000
0000
0000
0000
0000
0000
0000
0000
0000
0000
2002
0000
0000
0000
0000
0000
0000
0000
0000
0000
0000
0000
0000
0000
0000
0000
0000
0000
0000
0000
0000
0000
0000
0000
0000
0000
0000
0000
0000
0000
0000
0000
0000
0000
0000
0000
0000
0000
0000
0000
0000
0000
0000
0000
0000
0000
0000
0000
0000
0000
0000
0000
0000
0000
0000
0000
0000
0000
0000
0000
0000
0000
0000
0000
0000
0000
0000
0000
0000
0000
0000
0000
3003
0000
0000
0000
0000
0000
0000
0000
0000
0000
0000
0000
0000
0000
0000
0000
0000
0000
0000
0000
0000
0000
0000
0000
,
0000
0020
0230
0302
0000
0000
0003
0000
,
2000
0000
3200
0000
0320
0000
0000
0130
,
0200
0000
0000
0000
,
0302
0000
0203
0000
2300
3200
0302
0023
,
0000
0032
0000
0000
0003
0002
2003
3020
,
0230
2300
0000
3000
1100
0000
0000
0101
,
0000
1001
0000
0000
,
0000
0000
0000
0000
,
0200
2300
3200
0320
0000
0000
0230
0000
,
0302
0000
2003
0000
3020
0000
0230
2300
,
0000
0000
0000
0000
,
0000
0000
3002
0203
2300
0000
0000
3010
,
0020
0000
0000
0000
,
0000
0000
0032
0023
2030
0000
0000
0000
,
0000
3200
0320
2030
0000
0000
0000
0000
,
0000
0000
0000
0000
0000
0000
0000
0000
0000
0000
0000
0000
0000
0000
0000
0000
0000
0000
0000
0000
0000
0000
0000
0000
0000
0000
0000
0000
0000
0000
0000
0000
0000
0000
0000
0000
0000
0000
0000
0000
0000
0000
0000
0000
0000
0000
0000
0000
0000
3000
0000
0000
0000
0000
0000
0000
0000
0000
0000
0000
0000
0000
0000
0000
0000
0000
0000
0000
0000
0000
0000
0000
0000
0000
0000
0000
0000
0000
0000
0000
0000
0000
0000
0000
0000
0000
0000
0000
0000
0000
0000
0000
0000
0000
0000
0000
0202
0000
0000
0000
0000
0000
0000
0000
0000
0000
0000
0000
0000
0000
0000
0000
0000
0000
0000
0000
0000
0000
0000
0000
0000
0000
0000
0000
0000
0000
0000
0000
0000
0000
0000
0000
0000
0000
0000
0000
0000
0000
0000
0000
0000
0000
0000
0000
0000
0000
0000
0000
0000
0000
0000
0000
0000
0000
0000
0000
0000
0000
0000
0000
0000
0000
0000
0000
0000
0000
0000
0000
0000
0000
0000
0000
0000
0000
0000
0000
0000
0000
0000
0000
0000
0000
0000
0000
0000
0000
0000
0000
0000
0000
0000
0000
,
0303
0002
2003
3020
0000
0000
0030
0000
,
0200
0000
2300
0000
3100
0200
0000
0000
,
0320
0000
0000
0000
,
0230
0000
0302
0000
2003
3002
0023
2030
,
0000
3200
0000
0000
0000
0320
0230
2300
,
3200
0000
0000
0000
0000
0000
0000
0000
0000
0000
0000
0000
0000
0000
0000
0000
0000
0000
0000
0000
0000
0000
0000
0000
0302
0000
0000
0000
0000
0000
0000
0000
0000
0000
0000
0000
0000
0000
0000
0000
0000
0000
0000
0000
0000
0000
0000
0000
0000
0000
0000
0000
0000
0000
0000
0000
0000
0000
0000
0000
0000
0000
0000
0000
0000
0000
0000
0000
0000
0000
0000
0000
0000
0003
0000
0000
0000
0000
0000
0000
0000
0000
0000
0000
0000
0000
0000
0000
0000
0000
0000
0000
0000
0000
0000
0000
1001
0000
0000
0000
0000
0000
0000
0000
0000
0000
0000
0000
0000
0000
0000
0000
0000
0000
0000
0000
0000
0000
0000
0000
0000
0000
0000
0000
0000
0000
0000
0000
0000
0000
0000
0000
0000
0000
0000
0000
0000
0000
0000
0000
0000
0000
0000
0000
0000
0000
0000
0000
0000
0000
0000
0000
0000
0000
0000
0000
0000
0000
0000
0000
0000
0000
0000
0000
0000
0000
0000
0000
0110
0000
0000
0000
0000
0000
0000
0000
0000
0000
0000
0000
0000
0000
0000
0000
0000
0000
0000
0000
0000
0000
0000
0000
,
0000
0101
0000
0000
,
0000
0000
0000
0000
0100
0100
0000
0000
,
0001
0001
0000
1000
0000
0010
0100
1000
,
0000
0100
0001
1000
0010
0000
0100
2000
,
0000
3200
0000
0302
0000
0000
0000
0000
,
0000
0000
0003
0000
0001
0001
0000
0000
,
0100
0100
0000
1000
0000
0010
0000
0100
,
0000
1000
0100
0001
0100
0000
0100
0000
,
0100
0000
1000
0200
0000
0000
0000
0000
,
0300
0010
0100
1000
0100
0000
0000
1001
,
0000
0000
0110
0000
0000
1001
0000
0000
,
0100
0001
0100
0100
,
0100
0100
0100
0100
,
0100
0100
0001
0001
,
1000
0001
1000
0010
0000
0000
0100
0000
,
1000
0000
0100
0000
0010
0100
1000
0100
,
0000
0001
1000
0001
0000
0020
0000
0030
,
0001
1000
0010
0100
0000
1000
0100
0001
,
0000
0100
1000
0010
0000
1000
0000
0100
,
0001
0000
0010
0000
0200
0000
0000
0320
,
0000
0030
0000
0100
0000
1000
0000
0000
,
0010
0100
1000
0100
0001
0000
0000
0000
,
0001
1000
0010
0200
0000
0300
1000
0000
,
0100
0000
0001
0100
1000
0100
0010
0100
,
0000
0001
0100
2000
0000
3200
0000
0300
,
0010
0100
0001
0100
0000
0001
0001
0001
,
0000
1000
1000
1000
0000
0010
0000
0100
,
1000
0100
0010
0200
0000
0000
0000
0302
,
0000
0000
0000
2003
0000
3020
0000
0030
,
0100
0001
1000
0010
0200
0000
0000
2300
,
0000
0000
3200
0000
0000
0300
0000
0001
,
1000
0010
0100
2000
0000
0000
0000
0000
,
0000
0000
3000
0000
0100
0001
1000
0010
,
0000
0000
0000
0000
0100
0001
0100
1000
,
0000
0000
0010
0100
0000
0001
0000
1000
,
0000
0010
0000
0000
0100
0010
0000
0100
,
0000
0001
1000
0010
0000
0002
0203
2300
,
0000
0000
3100
0001
0100
0010
1000
0000
,
0010
0000
0100
0001
0010
0100
0000
1000
,
0000
0100
0000
0000
0010
0100
0001
0100
,
0000
1000
0010
0002
0000
0000
0000
0000
,
0000
0000
0003
0000
0001
1000
0000
0020
,
0000
0000
0230
0302
0000
0203
0000
2300
,
0000
3200
0000
0000
0301
1000
0010
0100
,
0000
0001
0100
1000
0000
0002
0023
0230
,
0000
0000
0301
0100
0001
2000
0000
3200
,
0000
0000
0300
0200
0000
2300
0000
3020
,
0000
2030
0000
3200
0302
0000
0000
2003
,
0000
3020
0000
0000
,
0000
0000
0030
0000
0100
0100
0001
1000
,
0000
0020
0000
0230
0000
0000
0000
0000
,
0000
0000
0300
0000
0001
0100
1000
0100
,
0000
0010
0100
0000
0001
0001
0001
0001
,
1000
1000
1000
1000
0001
0001
0001
0001
,
0000
0000
0000
MMMM
0000
0000
0000
0000
0100
0000
0100
0000
0100
0000
0100
0000
,
0001
0001
0001
0001
0100
0100
0100
0100
,
0000
0000
0000
MMMM
0000
0000
0000
0000
,
0002
2003
3020
0230
0000
0000
2300
0000
,
3200
0000
0302
0000
2003
0000
3020
0230
,
0000
0000
0000
0000
,
0000
0000
0302
0203
2300
0000
0000
3100
,
0200
0000
0000
0000
,
0000
0000
0301
0002
2003
0000
0000
0000
,
0000
3020
0230
0302
0000
0000
0000
0000
,
0000
0000
0000
0000
0000
0000
0000
0000
0000
0000
0000
0000
0000
0000
0000
0000
0000
0000
0000
0000
0000
0000
0000
0000
0000
0000
0000
0000
0000
0000
0000
0000
0000
0000
0000
0000
0000
0000
0000
0000
0000
0000
0000
0000
0000
0000
0000
0000
0000
0003
0000
0000
0000
0000
0000
0000
0000
0000
0000
0000
0000
0000
0000
0000
0000
0000
0000
0000
0000
0000
0000
0000
0000
0000
0000
0000
0000
0000
0000
0000
0000
0000
0000
0000
0000
0000
0000
0000
0000
0000
0000
0000
0000
0000
0000
0000
0202
0000
0000
0000
0000
0000
0000
0000
0000
0000
0000
0000
0000
0000
0000
0000
0000
0000
0000
0000
0000
0000
0000
0000
0000
0000
0000
0000
0000
0000
0000
0000
0000
0000
0000
0000
0000
0000
0000
0000
0000
0000
0000
0000
0000
0000
0000
0000
0000
0000
0000
0000
0000
0000
0000
0000
0000
0000
0000
0000
0000
0000
0000
0000
0000
0000
0000
0000
0000
0000
0000
0000
0303
0000
0000
0000
0000
0000
0000
0000
0000
0000
0000
0000
0000
0000
0000
0000
0000
0000
0000
0000
0000
0000
0000
0000
,
0000
0010
0001
2000
0000
0000
3000
0000
,
0020
0000
0230
0000
0302
0000
0000
0103
,
0200
0000
0000
0000
,
2300
0000
3200
0000
0302
0203
2300
3020
,
0000
2030
0000
0000
0000
3002
0203
2300
,
3200
0000
0000
0000
0000
0000
0000
0000
0000
0000
0000
0000
0000
0000
0000
0000
0000
0000
0000
0000
0000
0000
0000
0000
0320
0000
0000
0000
0000
0000
0000
0000
0000
0000
0000
0000
0000
0000
0000
0000
0000
0000
0000
0000
0000
0000
0000
0000
0000
0000
0000
0000
0000
0000
0000
0000
0000
0000
0000
0000
0000
0000
0000
0000
0000
0000
0000
0000
0000
0000
0000
0000
0000
0030
0000
0000
0000
0000
0000
0000
0000
0000
0000
0000
0000
0000
0000
0000
0000
0000
0000
0000
0000
0000
0000
0000
1100
0000
0000
0000
0000
0000
0000
0000
0000
0000
0000
0000
0000
0000
0000
0000
0000
0000
0000
0000
0000
0000
0000
0000
0000
0000
0000
0000
0000
0000
0000
0000
0000
0000
0000
0000
0000
0000
0000
0000
0000
0000
0000
0000
0000
0000
0000
0000
0000
0000
0000
0000
0000
0000
0000
0000
0000
0000
0000
0000
0000
0000
0000
0000
0000
0000
0000
0000
0000
0000
0000
0000
0101
0000
0000
0000
0000
0000
0000
0000
0000
0000
0000
0000
0000
0000
0000
0000
0000
0000
0000
0000
0000
0000
0000
0000
,
0000
0000
1010
0000
0000
0010
0100
0000
,
0001
1000
0010
0000
,
0200
0302
2003
3020
0000
0000
0230
0000
,
0320
0000
0230
0000
0302
0000
2003
3020
,
0000
0000
0000
0000
,
0000
0000
0032
2003
3200
0000
0000
0310
,
0020
0000
0000
0000
,
0000
0000
0130
0200
0302
0000
0000
0000
,
0003
0002
2003
3020
0000
0000
0000
0000
,
0000
0000
0000
0000
0000
0000
0000
0000
0000
0000
0000
0000
0000
0000
0000
0000
0000
0000
0000
0000
0000
0000
0000
0000
0000
0000
0000
0000
0000
0000
0000
0000
0000
0000
0000
0000
0000
0000
0000
0000
0000
0000
0000
0000
0000
0000
0000
0000
0000
0030
0000
0000
0000
0000
0000
0000
0000
0000
0000
0000
0000
0000
0000
0000
0000
0000
0000
0000
0000
0000
0000
0000
0000
0000
0000
0000
0000
0000
0000
0000
0000
0000
0000
0000
0000
0000
0000
0000
0000
0000
0000
0000
0000
0000
0000
0000
2020
0000
0000
0000
0000
0000
0000
0000
0000
0000
0000
0000
0000
0000
0000
0000
0000
0000
0000
0000
0000
0000
0000
0000
0000
0000
0000
0000
0000
0000
0000
0000
0000
0000
0000
0000
0000
0000
0000
0000
0000
0000
0000
0000
0000
0000
0000
0000
0000
0000
0000
0000
0000
0000
0000
0000
0000
0000
0000
0000
0000
0000
0000
0000
0000
0000
0000
0000
0000
0000
0000
0000
3030
0000
0000
0000
0000
0000
0000
0000
0000
0000
0000
0000
0000
0000
0000
0000
0000
0000
0000
0000
0000
0000
0000
0000
,
0000
0002
2003
3020
0000
0000
0030
0000
,
0200
0000
0302
0000
1003
2000
0000
0000
,
3200
0000
0000
0000
,
0302
0000
0203
0000
2300
3200
0320
0230
,
0000
0302
0000
0000
0000
2003
3002
0203
,
0320
0000
0000
0000
0000
0000
0000
0000
0000
0000
0000
0000
0000
0000
0000
0000
0000
0000
0000
0000
0000
0000
0000
0000
0230
0000
0000
0000
0000
0000
0000
0000
0000
0000
0000
0000
0000
0000
0000
0000
0000
0000
0000
0000
0000
0000
0000
0000
0000
0000
0000
0000
0000
0000
0000
0000
0000
0000
0000
0000
0000
0000
0000
0000
0000
0000
0000
0000
0000
0000
0000
0000
0000
0300
0000
0000
0000
0000
0000
0000
0000
0000
0000
0000
0000
0000
0000
0000
0000
0000
0000
0000
0000
0000
0000
0000
1100
0000
0000
0000
0000
0000
0000
0000
0000
0000
0000
0000
0000
0000
0000
0000
0000
0000
0000
0000
0000
0000
0000
0000
0000
0000
0000
0000
0000
0000
0000
0000
0000
0000
0000
0000
0000
0000
0000
0000
0000
0000
0000
0000
0000
0000
0000
0000
0000
0000
0000
0000
0000
0000
0000
0000
0000
0000
0000
0000
0000
0000
0000
0000
0000
0000
0000
0000
0000
0000
0000
0000
1001
0000
0000
0000
0000
0000
0000
0000
0000
0000
0000
0000
0000
0000
0000
0000
0000
0000
0000
0000
0000
0000
0000
0000
,
0000
0000
0011
0000
0000
0101
0101
0000
,
1001
1001
0101
0000
;

//---------------dance-single - W. D. Lesmono----------------
#NOTES:
     dance-single:
     W. D. Lesmono:
     Hard:
     9:
     0.757,0.735,0.321,0.135,0.000:
0000
0000
0000
0000
,
0000
0000
0000
0000
,
2000
0000
0000
3020
0000
0000
2030
0000
,
0000
3002
0000
0203
0000
0320
0000
2030
,
0000
0000
3001
0002
0000
0000
0000
0000
,
0000
0203
2300
3020
,
0000
0000
2030
0000
,
0000
3020
0000
0000
,
0000
0000
0000
0030
,
1001
1001
0110
0110
,
1010
0000
1010
0000
1000
0001
1000
0001
,
0100
0010
0100
0010
1000
0000
1000
0000
,
1000
0001
1000
0100
1000
0010
0000
0010
,
1000
0001
1000
0100
1000
0001
0010
0100
,
1000
0010
1000
0001
0000
0001
0000
0001
,
0100
0010
0100
0010
1000
0100
1000
0010
,
0001
0100
0001
0010
0100
1000
0000
1000
,
0100
0010
0001
0100
0010
0100
1000
0010
,
1000
1000
0001
0010
0000
1000
0100
1000
,
0010
1000
0100
1000
0010
0010
1000
0001
,
0100
0010
1000
0001
1000
0001
0000
0001
,
1000
0100
1000
0010
1000
0001
1000
0100
,
1000
0001
1000
0010
0000
0100
0000
0100
,
1000
0010
1000
0001
1000
0100
0010
1000
,
0100
1000
0001
1000
0100
0010
0001
0010
,
0100
1000
0010
1000
1001
0000
0000
1001
,
0000
0000
0101
0000
0000
0001
0010
0100
,
1000
0010
0100
0001
0010
0000
0000
0000
,
1000
0100
1000
0010
1000
0001
0000
0100
,
1000
0010
1000
0001
1000
0100
1000
0010
,
1000
0100
1000
1000
0000
0001
0000
0001
,
0001
0100
0010
0100
0010
1000
0100
1000
,
0010
1000
0100
1000
0010
1000
0000
1000
,
0010
0000
0100
0001
1000
0010
1000
0100
,
0001
1000
0010
0100
0000
1000
0000
0001
,
1000
0001
1000
0001
1000
0100
1000
0010
,
1000
0100
1000
0010
1000
0100
0001
1000
,
0010
0100
0010
1000
0001
0001
0000
0100
,
0100
0000
1000
1000
0000
0010
0010
0000
,
0100
1000
0001
1000
0100
1000
0001
1000
,
0010
1000
0001
1000
0001
0010
0100
1000
,
0100
0010
0001
0010
0110
0000
0000
1010
,
0000
0000
1001
0000
0000
0001
1000
0001
,
0100
0010
1000
0100
1001
1001
0000
0000
,
0101
0101
0000
0011
0000
1000
0100
1000
,
0000
0001
0100
1000
0100
0001
0010
1000
,
0100
0001
1000
0100
1000
0001
1000
0001
,
1000
0001
1000
0001
1001
1001
0000
0000
,
0101
0101
0000
0011
0000
1010
0000
1100
,
0000
1001
0101
0010
1000
0100
1000
0001
,
1000
0100
1000
0010
1000
0001
0010
0100
,
1000
0010
1000
0100
1100
1100
0000
0101
,
0101
0000
0011
0000
0000
1010
1010
0000
,
1000
0000
0001
0000
1000
0100
0001
0010
,
1000
0100
0001
0010
1000
0010
0001
0100
,
1000
0010
0001
0100
1000
0010
1000
0001
,
1000
0100
1000
0010
1000
0001
1000
0100
,
1000
0010
1000
0001
1000
1000
0100
1000
,
0010
0010
1000
0001
1000
1000
0001
0100
,
0010
0010
1000
0001
1000
1000
0001
0100
,
0010
0010
0100
1000
0001
0001
0100
0010
,
0100
0100
1000
0010
1000
1000
0001
0100
,
0010
0010
0100
1000
0001
0001
0100
0100
,
0010
1000
0001
1000
0100
1000
0001
1000
,
0100
1000
0010
1000
0001
0001
0100
1000
,
0010
1000
0100
1000
0001
0001
1000
0100
,
1000
1000
0010
1000
0010
0010
0001
0100
,
0010
0010
0100
1000
0010
0010
1000
0001
,
1000
1000
0001
0100
0010
0010
0100
1000
,
0100
0100
0001
1000
0100
0100
1000
0001
,
1000
1000
0001
0100
0010
0010
1000
0001
,
1000
0100
1000
0010
2000
0000
0000
3002
,
0000
0203
0010
0000
,
1300
0100
1000
0001
1000
0010
1000
0100
,
1000
0001
1000
0001
0000
0000
0000
0000
,
0001
0100
1000
0010
1000
0001
1000
0100
,
1000
0010
0100
1000
0010
1000
0001
1000
,
0001
1000
0001
0000
1000
0100
1000
0010
,
1000
0001
1000
0200
0000
2300
3020
0032
,
0000
0003
0100
1000
0010
0100
0010
0001
,
0100
0010
1000
0100
0001
1000
0100
1000
,
0010
1000
0001
1000
0100
1000
0010
0100
,
0000
1000
0010
1000
0100
1000
0001
1000
,
0100
1000
0010
0000
1000
1000
0001
0100
,
0100
0010
1000
0100
1000
0010
1000
0001
,
0100
0010
0100
0001
1000
0001
1000
0001
,
0000
0100
1000
0020
0000
0230
0320
2030
,
0000
0000
3001
1000
0001
1000
0100
1000
,
0010
1000
0001
1000
0001
0100
0010
0100
,
0010
1000
0001
1000
1001
1001
0000
1100
,
0000
0000
0101
0000
0000
0010
0010
0000
,
1000
0000
0001
0000
1000
0100
1000
0010
,
0000
1010
0000
0011
0000
0100
0010
1000
,
0001
0100
1000
0010
0100
1000
0001
0010
,
0000
0100
0010
0000
1000
0001
0001
0001
,
1000
0001
0001
0001
1000
0001
0001
1000
,
0000
1000
0001
0000
0001
1000
1000
1000
,
0001
1000
1000
1000
0001
1000
1000
0001
,
0000
1000
0100
1000
0010
1000
0001
1000
,
0100
1000
0010
0100
0000
0010
0000
0010
,
1000
0001
1000
0100
1000
0010
0100
0001
,
0010
0100
0010
0100
0000
1000
0000
1000
,
1000
0001
0100
0010
0100
0001
1000
0100
,
0010
0100
0010
0100
0010
1000
0100
0001
,
0010
0100
0010
0100
1000
1000
1000
0001
,
0010
0100
0010
0100
0000
1000
0000
0010
,
1000
0001
1000
0100
0010
1000
0100
0001
,
0100
0010
0100
1000
0001
1000
0000
1000
,
0100
1000
0010
0100
0001
0010
0100
1000
,
0010
0100
1000
0001
0000
0100
0000
0100
,
0010
1000
0001
0100
0010
0100
0001
0010
,
0100
1000
0001
1000
0100
1000
0010
1000
,
0001
1000
0100
0010
0110
0110
0000
0011
,
0011
0000
1001
0000
0000
1000
0100
0001
,
0010
1000
0100
0001
0010
1000
0001
1000
,
0100
1000
0001
1000
0001
1000
0000
1000
,
0100
1000
0010
0100
0001
0010
0100
1000
,
0010
0100
0010
1000
0000
1000
0000
1000
,
0001
0100
0010
0100
1000
0001
1000
0100
,
1000
0010
0100
0010
1000
0001
1000
0001
,
1000
0100
1000
0010
0100
0100
0000
1000
,
0000
1000
1000
0001
0100
0010
0100
0001
,
0010
0100
1000
0010
1000
1000
0001
0100
,
0010
0100
1000
0001
1000
0100
1000
0010
,
0100
1000
0001
1000
1001
1001
0000
0101
,
0101
0000
1010
1010
0000
0000
0011
0000
,
1000
0000
1100
0000
1000
0100
0001
1000
,
0001
0010
0100
1000
0010
1000
0100
1000
,
0100
1000
0001
1000
1001
1001
0000
0101
,
0101
0000
1010
0000
0000
1000
0100
0001
,
0010
1000
0100
0001
0010
0000
0000
0000
;

//---------------dance-single - W. D. Lesmono----------------
#NOTES:
     dance-single:
     W. D. Lesmono:
     Easy:
     5:
     0.369,0.367,0.152,0.017,0.000:
0000
0000
0000
0000
,
0000
0000
0000
0000
,
0000
0000
0000
0000
,
0000
0000
0000
0000
,
0000
0000
0000
0000
,
0000
0000
0000
0000
,
0000
0000
0000
0000
,
0000
0000
0000
0000
,
0000
0000
0000
0000
,
0000
0000
1000
1000
,
1000
1000
0001
0001
,
1000
0001
1000
0000
,
1000
0100
0001
0100
,
1000
0100
0001
0100
,
1000
0100
0001
0100
,
1000
0100
0001
0010
,
1000
0010
0001
0010
,
1000
0010
0001
0100
,
1000
0100
0001
0100
,
1000
0100
0001
1000
,
0001
1000
0001
1000
,
0001
1000
0010
0100
,
0010
0100
0010
0100
,
0010
0100
1000
0100
,
0001
0100
1000
0010
,
0001
0000
0010
0000
1000
0000
0000
0001
,
0000
1001
0000
0000
,
0000
0000
1000
0100
,
0001
0100
1000
0100
,
0001
0100
1000
0100
,
0001
0100
1000
0100
,
0001
0100
1000
0010
,
0001
0010
1000
0010
,
0001
0010
1000
0100
,
0001
0100
1000
0001
,
1000
0001
0010
0100
,
0010
0100
0010
0100
,
0010
0000
1000
0000
1100
0000
0000
0101
,
0000
0000
0011
0000
0000
1010
0000
0000
,
1100
0001
1000
0100
,
0001
0100
1000
0100
,
0001
0000
0100
0000
1000
0000
0000
0010
,
0000
1010
0000
0000
,
0000
0000
1000
0000
,
0001
0000
0000
0100
0000
0000
0000
0000
,
0010
1000
0100
1000
,
0001
0100
0010
0100
,
0010
0100
0110
0000
,
1100
0000
0101
0001
,
0001
0001
1000
1000
,
1000
1000
0001
0001
,
0001
0000
0001
0000
1001
0000
0000
1001
,
0000
0000
1001
0000
0000
1001
0000
0000
,
1000
0100
0010
0010
,
0010
0010
0010
0010
,
0010
0010
0010
0010
,
1000
0001
1000
0001
,
1000
0001
0100
0100
,
1000
1000
0001
0001
,
0010
0010
0100
0100
,
1000
1000
0100
0100
,
0010
0010
0001
0001
,
1000
1000
0100
0100
,
1000
0010
1000
0000
,
1000
0001
0100
0010
,
0100
1000
0001
0001
,
1000
1000
0010
0010
,
0100
0100
1000
1000
,
0001
0001
1000
1000
,
0010
0010
0100
0100
,
0010
0010
1000
1000
,
0001
0000
1000
0000
0200
0000
0000
2300
,
0000
3020
0000
0000
,
0000
0030
1000
0001
,
1000
0001
0000
0000
,
1000
1000
0001
0100
,
0010
0100
0010
0100
,
0010
0100
1000
0100
,
1000
0100
1000
0100
,
1000
0001
1000
0001
,
1000
0010
0100
0010
,
0100
0010
0100
0010
,
0001
1000
0100
0100
,
0100
0100
1000
0001
,
1000
0010
0100
0010
,
0100
0010
1000
0001
,
1000
0001
1000
0100
,
1000
0010
1000
1000
,
0001
1000
0100
1000
,
0010
0000
0100
0000
0110
0000
0000
1001
,
0000
0110
0000
0000
,
0000
0000
1000
1000
,
0000
0000
0000
1001
0000
0000
0000
0000
,
0000
0000
1000
1000
,
0000
0000
0001
0001
,
1000
0001
1000
0001
,
0000
0000
1000
1000
,
0001
1000
0001
1000
,
0000
0000
0001
0000
,
1000
0100
1000
1000
,
0010
1000
0100
1000
,
0010
1000
0100
1000
,
0010
1000
0100
0010
,
0001
0100
0010
0100
,
0001
0100
0010
0001
,
0100
0001
0010
0100
,
0001
0100
1000
0010
,
0100
0010
0001
0100
,
0010
0100
0010
1000
,
0001
1000
0100
1000
,
0010
0100
0001
0100
,
0100
0100
0010
0010
,
1000
0000
1000
0000
1001
0000
0000
1010
,
0000
0101
0000
0000
,
0000
0000
1000
1000
,
0010
0100
0010
0100
,
0010
0100
0010
1000
,
0100
1000
0001
0001
,
1000
1000
0100
1000
,
0010
0100
0010
0001
,
1000
0100
0100
0100
,
1000
0010
1000
0000
,
0001
1000
0100
0100
,
1000
0010
1000
1000
,
0001
0000
0100
0000
0110
0000
0000
1001
,
0000
0110
0000
0000
,
1000
0001
1000
1000
,
1000
1000
0010
0001
,
0010
0000
1000
0000
0110
0000
0000
1001
,
0000
0110
0000
1000
,
0100
0001
0010
0000
;
