#TITLE:Techno Wonderland;
#SUBTITLE:;
#ARTIST:Steve Smeeth;
#TITLETRANSLIT:;
#SUBTITLETRANSLIT:;
#ARTISTTRANSLIT:;
#CREDIT:;
#BANNER:Techno Wonderland-bn.jpg;
#BACKGROUND:Techno Wonderland-bg.jpg;
#LYRICSPATH:;
#CDTITLE:;
#MUSIC:Techno Wonderland.ogg;
#OFFSET:0.020;
#SAMPLESTART:100.000;
#SAMPLELENGTH:12.000;
#SELECTABLE:YES;
#BPMS:0.000=97.500,68.000=195.000,260.000=97.500;
#STOPS:66.250=0.077
;
#BGCHANGES:;

//---------------dance-single - Wahyu D.L----------------
#NOTES:
     dance-single:
     Wahyu D.L:
     Beginner:
     1:
     0.081,0.151,0.008,0.017,0.000:
0000
0000
0000
0000
,
0000
0000
0000
0000
,
1000
0000
0000
0000
,
0001
0000
0000
0000
,
0001
0000
0000
0000
,
1000
0000
0000
0000
,
0010
0000
0000
0000
,
0100
0000
0000
0000
,
0001
0000
0000
0000
,
1000
0000
0000
0000
,
0001
0000
0000
0000
,
0100
0000
0000
0000
,
1000
0000
0000
0000
,
0001
0000
0000
0000
,
0010
0000
0000
0000
,
0100
0000
0000
0000
,
0000
0000
0000
0000
,
1000
0000
0000
0000
,
0001
0000
0000
0000
,
1000
0000
0000
0000
,
0000
0000
0000
0000
,
0010
0000
0000
0000
,
0100
0000
0000
0000
,
0010
0000
0000
0000
,
0000
0000
0000
0000
,
1000
0000
0000
0000
,
0001
0000
0000
0000
,
1000
0000
0000
0000
,
0001
0000
0000
0000
,
0010
0000
0000
0000
,
0100
0000
0000
0000
,
1000
0000
0000
0000
,
0000
0000
0000
0000
,
1000
0000
0000
0000
,
0001
0000
0000
0000
,
0100
0000
0000
0000
,
0000
0000
0000
0000
,
0001
0000
0000
0000
,
0010
0000
0000
0000
,
0100
0000
0000
0000
,
0000
0000
0000
0000
,
1000
0000
0000
0000
,
0001
0000
0000
0000
,
0100
0000
0000
0000
,
0000
0000
0000
0000
,
1000
0000
0000
0000
,
0010
0000
0000
0000
,
0100
0000
0000
0000
,
0000
0000
0000
0000
,
0000
1000
0000
0000
0000
0000
0000
0000
,
0000
0010
0000
0000
0000
0000
0000
0000
,
0000
0001
0000
0000
0000
0000
0000
0000
,
0000
0100
0000
0000
0000
0000
0000
0000
,
0000
0010
0000
0000
0000
0000
0000
0000
,
0000
0100
0000
0000
0000
0000
0000
0000
,
0000
0001
0000
0000
0000
0000
0000
0000
,
0000
0000
0000
0000
,
0000
1000
0000
0000
0000
0000
0000
0000
,
0000
0001
0000
0000
0000
0000
0000
0000
,
0000
0100
0000
0000
0000
0000
0000
0000
,
0000
0010
0000
0000
0000
0000
0000
0000
,
0000
1000
0000
0000
0000
0000
0000
0000
,
0000
0001
0000
0000
0000
0000
0000
0000
,
0000
0100
0000
0000
0000
0000
0000
0000
,
0000
0000
0000
0000
,
1000
0000
0010
0000
,
0001
0000
0000
0000
,
0010
0000
0100
0000
,
1000
0000
0000
0000
,
0100
0000
0001
0000
,
1000
0000
0000
0000
,
1000
0000
0100
0000
,
2002
0000
3003
0000
;

//---------------dance-single - Wahyu D.L----------------
#NOTES:
     dance-single:
     Wahyu D.L:
     Easy:
     4:
     0.310,0.302,0.025,0.333,0.000:
2000
0000
3002
0000
,
0023
0000
0000
0000
,
2030
0000
3200
0000
,
0302
0000
0000
0000
,
2003
0000
3020
0000
,
0230
0000
0000
0000
,
0302
0000
2003
0000
,
3200
0000
0000
0000
,
0320
0000
0230
0000
,
0302
0000
0000
0000
,
2003
0000
3200
0000
,
0320
0000
0000
0000
,
0032
0000
2003
0000
,
3200
0000
2300
0000
,
3200
0000
0320
0000
,
2032
0000
0000
0000
,
3003
0000
0000
0000
,
1000
0100
0010
0100
,
0010
0100
0001
0010
,
0100
0100
0100
0100
,
0100
0100
1000
0100
,
0001
0001
0001
0001
,
0010
0010
0010
0010
,
0100
0100
0100
0100
,
0100
0100
1000
0100
,
0010
0010
0010
0010
,
0100
0100
0100
0100
,
0001
0001
0001
0001
,
0010
0100
1000
0100
,
0010
0010
0010
0010
,
0001
0001
0001
0001
,
1000
1000
1000
1000
,
1000
1000
1000
1000
,
0100
0100
0100
0100
,
0010
0010
0010
0010
,
0001
0001
0001
0001
,
0001
0001
1000
0100
,
0010
0010
0010
0010
,
0100
0100
0100
0100
,
0001
0001
0001
0001
,
0001
0001
0001
0010
,
1000
1000
1000
1000
,
0100
0100
0100
0100
,
0010
0010
0010
0010
,
1000
0001
0100
0010
,
0001
0001
0001
0001
,
1000
1000
1000
1000
,
0100
0100
0100
0100
,
0010
0100
0001
0010
,
0000
0001
0000
0000
0000
0000
0000
0000
,
0000
1000
0000
0000
0000
0000
0000
0000
,
0000
0100
0000
0000
0000
0000
0000
0000
,
0000
0010
0000
0000
0000
0000
0000
0000
,
0100
0001
0100
0001
,
1000
0010
1000
0010
,
0100
1000
0100
1000
,
0001
1000
0001
1000
,
0001
0001
0001
0001
,
1000
1000
1000
1000
,
1010
0010
0010
0010
,
0010
1000
1000
1000
,
1000
0100
0100
0100
,
0100
0010
0010
0010
,
0000
0001
0000
0100
0000
0010
0000
0100
,
0000
0001
0000
1000
0000
0010
0000
0000
,
2000
0000
3200
0000
,
0302
0000
0000
0000
,
2003
0000
3020
0000
,
0230
0000
0000
0000
,
0320
0000
0230
0000
,
0302
0000
2003
0000
,
3200
0000
0320
0000
,
2032
0000
3003
0000
;

//---------------dance-single - Wahyu D.L----------------
#NOTES:
     dance-single:
     Wahyu D.L:
     Medium:
     5:
     0.385,0.453,0.250,0.458,0.000:
2000
0000
3020
0000
,
0230
0000
0000
0000
0000
0000
2300
3200
,
0302
0000
2003
0000
,
3020
0000
0000
0000
,
0032
0000
0023
0000
,
2030
0000
3020
0000
,
0032
0000
0203
0000
,
2302
0000
0000
0000
,
3023
0000
0230
0000
,
0302
0000
0000
0000
,
2003
0000
3200
0000
,
2300
0000
0000
0000
0000
0000
0000
3000
,
0002
0000
0023
0000
,
0032
0000
2003
0000
,
3020
0000
0230
0000
,
2302
0000
0000
0000
,
3003
0000
0000
0000
,
1000
1000
1000
1000
,
0100
0100
0100
0100
,
0010
0010
0010
0010
,
0010
0010
0100
1000
,
0001
0001
0001
0001
,
0010
0010
0010
0010
,
0100
0100
0100
0100
,
0100
0100
1000
0100
,
0001
0001
0001
0001
,
1000
1000
0001
1000
,
0100
0100
0100
0100
,
0001
1000
0010
0100
,
0001
0001
0001
0001
,
1000
1000
1000
1000
,
0010
0010
0010
0010
,
0010
0010
0010
0010
,
1000
1000
1000
1001
,
0101
0100
0100
0101
,
1001
0001
0001
0001
,
0001
0001
1001
1010
,
1100
0100
0100
0110
,
0011
0010
0010
1010
,
1100
0100
0100
0100
,
0100
0101
0011
1010
,
1100
1000
1000
1010
,
1001
0001
0001
0011
,
0110
0100
0100
0100
,
0101
0001
1001
1000
,
1010
0010
0010
0011
,
0101
0100
0100
0110
,
1010
1000
1000
1000
,
1000
0100
0010
0001
0100
0010
0100
1000
,
0100
0001
0000
0000
0000
0000
0000
0000
,
0000
0100
0000
0000
0000
0000
0000
0000
,
0000
0010
0000
0000
0000
0000
0000
0000
,
0000
1000
0000
0000
0000
0000
0000
0000
,
1000
0001
0010
0000
0001
1000
0010
0000
,
0100
0001
1000
0000
0001
1000
0100
0000
,
0010
0001
0100
0000
0010
1000
0100
0000
,
0001
1000
0100
0110
,
2000
0010
0010
0010
,
3020
0000
0100
0000
0100
0000
0100
0100
,
0230
0001
0001
0001
,
0302
0010
0010
0010
,
0023
0100
0100
0100
,
0230
1000
1000
1000
,
2300
0010
0000
0001
0000
0010
0000
0100
,
0000
0010
0000
0001
0000
0010
0000
0100
,
3002
0000
0023
0000
,
0230
0000
0000
0000
0000
0000
0320
0230
,
0302
0000
2003
0000
,
3200
0000
0000
0000
0000
0000
2300
3200
,
0320
0000
0230
0000
,
0302
0000
2003
0000
,
3020
0000
0230
0000
,
2302
0000
3003
0000
;

//---------------dance-single - Wahyu D.L----------------
#NOTES:
     dance-single:
     Wahyu D.L:
     Hard:
     8:
     0.494,0.544,0.083,0.700,0.013:
2000
0000
3200
0000
,
0320
0000
0000
0000
0000
0000
0032
2003
,
3020
0000
0230
0000
,
2300
0000
0000
0000
0000
0000
3200
0302
,
0023
0000
0230
0000
,
0320
0000
0000
0000
0000
0000
0000
0000
2030
0000
0000
3002
0000
0000
0203
0000
,
0320
0000
0230
0000
,
2302
0000
0000
0000
,
3023
0000
2030
0000
,
3002
0000
0000
0000
0000
0000
0023
0230
,
0302
0000
2003
0000
,
3200
0000
0000
0000
0000
0000
2300
3002
,
0023
0000
0230
0000
,
0302
0000
0000
0000
0000
0000
0000
0000
2003
0000
0000
3002
0000
0000
0023
0000
,
0230
0000
0000
0000
0000
0000
0000
0000
0000
0000
0000
0000
0000
0000
0000
0000
0302
0000
0000
0000
0000
0000
0000
0000
0000
0000
0000
0000
0000
0000
0000
0003
,
2002
0000
0000
0000
,
3003
0000
0000
0000
,
1000
0001
1000
0001
1000
0001
1000
0001
,
0010
0001
0010
0001
0010
0001
0010
0001
,
0100
0001
0100
0001
0100
0001
0100
0001
,
0100
0001
0100
0001
1000
0010
0100
0001
,
0010
0100
0010
0100
0010
0100
0010
0100
,
1000
0100
1000
0100
1000
0100
1000
0100
,
0001
0100
0001
0100
0001
0100
0001
0100
,
0001
0100
0001
0100
0010
1000
0100
0001
,
2000
0100
0000
0100
0000
0100
0010
0100
,
3002
0010
0000
0010
0000
0010
1000
0010
,
0203
0001
0000
0001
0000
0001
0010
0001
,
2300
0010
0200
3001
0000
1000
0302
0100
,
0023
1000
0000
1000
0000
1000
0100
0001
,
0230
0010
0000
0010
0000
0010
1000
0001
,
2300
0010
0000
0010
0000
0010
0000
0010
,
0000
0010
0000
0010
0000
0010
0001
0010
,
3100
0000
0001
0000
0100
1000
0010
0100
,
0001
0000
0010
0000
0100
1000
0010
0100
,
0001
0010
0100
1000
,
0010
0000
0100
0000
0010
0001
0010
0100
,
1000
0000
0100
0000
0010
1000
0001
0100
,
1000
0000
0010
0000
0100
0010
0001
1000
,
0010
0100
0001
1000
,
0010
0000
0100
0001
1000
0010
0100
0001
,
0020
0000
1000
0000
0100
0001
1000
0100
,
0032
0000
1000
0000
0100
0010
1000
0100
,
2003
0010
0100
0001
,
0010
0000
0100
0010
0001
0000
0010
0100
,
3002
0000
0100
0000
1000
0100
0010
0100
,
2003
0000
0010
0000
0100
0010
0001
0010
,
3200
0001
0010
1000
,
0010
1000
0001
1000
0010
0001
1000
0001
,
0320
0000
0000
0000
,
2030
0000
0000
0000
,
3002
0000
0000
0000
,
0000
0000
0000
0000
,
2003
0000
0000
0000
,
3020
0000
0000
0000
,
0032
0000
0000
0000
,
0000
0000
0000
0000
,
1003
0010
1000
0010
1000
0010
1000
0010
,
0000
0001
0100
0001
0100
0001
0100
0001
,
0010
0100
0010
0100
0010
0100
0010
0100
,
0000
1000
0001
1000
0001
1000
0001
1000
,
0000
0001
0010
0001
0010
0001
0010
0001
,
0000
0100
1000
0100
1000
0100
1000
0100
,
0000
0011
0000
1010
0000
1100
0000
0101
,
0000
0011
0000
1010
0000
1100
0000
0101
,
0002
0000
0023
0000
,
2030
0000
0000
0000
0000
0000
3200
0320
,
0032
0000
0000
0023
0230
0000
0000
2300
,
3002
0000
0000
0000
0000
0000
0023
0230
,
0302
0000
2003
0000
,
3002
0000
0000
0000
0000
0000
0000
0000
2003
0000
0000
3002
0000
0000
0203
0000
,
0320
0000
0000
0230
0302
0000
0000
0023
,
0230
0000
0300
0000
;

//---------------dance-single - Wahyu D.L----------------
#NOTES:
     dance-single:
     Wahyu D.L:
     Challenge:
     11:
     0.899,0.997,0.317,1.000,0.504: // measure 1
2000
0000
3020
0000
,  // measure 2
0032
0000
0000
0000
0000
0000
2003
3200
,  // measure 3
0320
0000
0000
0032
2003
0000
0000
3020
,  // measure 4
0230
0000
0000
0000
0000
0000
0000
0000
0000
0000
0000
0000
0000
0000
0000
0000
0000
0000
0000
0000
0000
0000
0000
0302
2003
0000
0000
0000
3002
0000
0000
0000
,  // measure 5
0023
0000
0000
2030
3200
0000
0000
0320
,  // measure 6
0032
0000
0000
0000
0000
0000
0000
0000
2003
0000
0000
3002
0000
0000
0203
0000
,  // measure 7
0320
0000
0000
0032
0203
0000
0000
0320
,  // measure 8
2232
0000
0000
0000
0000
0000
0000
3303
,  // measure 9
2000
0000
3020
0000
,  // measure 10
0032
0000
0000
0000
0000
0000
2003
3200
,  // measure 11
0320
0000
0000
0032
2003
0000
0000
3200
,  // measure 12
0320
0000
0000
0000
0000
0000
0000
0000
0000
0000
0000
0000
0000
0000
0000
0000
0000
0000
0000
0000
0000
0000
0000
0032
2003
0000
0000
0000
3200
0000
0000
0000
,  // measure 13
0302
0000
0203
0000
,  // measure 14
0320
0000
0000
0000
0000
0000
0000
0000
0032
0000
0000
2003
0000
0000
3020
0000
,  // measure 15
0230
0000
0000
0302
2003
0000
3000
2000
,  // measure 16
3222
M000
0000
0000
0000
0000
0000
0000
,  // measure 17
0333
0000
0000
0000
0000
0001
1000
0000
0010
0001
0000
0000
1000
0000
0100
0000
0000
0000
0010
0000
0000
0000
0000
0000
0000
0000
0000
0000
0000
0000
0000
0000
,  // measure 18
1000
0010
1000
0000
0010
1000
0010
0000
1000
0010
1000
0000
0010
1000
0010
0000
,  // measure 19
0001
0010
0001
0000
0010
0001
0010
0000
0001
0010
0001
0000
0010
0001
0010
0000
,  // measure 20
0001
0100
0001
0000
0100
0001
0100
0000
0001
0100
0001
0000
0100
0001
0100
0000
,  // measure 21
0001
0100
0001
0000
0100
0001
0100
0000
0010
0100
0010
0000
0100
1000
0100
0000
,  // measure 22
1MM0
0001
1000
0000
0001
1000
0001
0000
1000
0001
1000
0000
0001
1000
0001
0000
,  // measure 23
1000
0100
1000
0000
0100
1000
0100
0000
1000
0100
1000
0000
0100
1000
0100
0000
,  // measure 24
0010
0100
0010
0000
0100
0010
0100
0000
0010
0100
0010
0000
0100
0010
0100
0000
,  // measure 25
M010
0100
0010
0000
0100
0010
0100
0000
1000
0100
1000
0000
0100
0001
0100
0000
,  // measure 26
0001
0010
0001
0000
0010
0001
0010
0000
0001
0010
0001
0000
0010
1000
0010
0000
,  // measure 27
1000
0001
1000
0000
0001
1000
0001
0000
0010
0100
0010
0000
0100
1000
0100
0000
,  // measure 28
0001
0100
0001
0000
0100
0001
0100
0000
0001
0100
0001
0000
0100
0010
0100
0000
,  // measure 29
1000
0100
1000
0000
0001
0100
0001
0000
0100
0001
0100
0000
0010
1000
0010
0000
,  // measure 30
1000
0001
1000
0000
0001
1000
0001
0000
1000
0001
1000
0000
0001
0100
0001
0000
,  // measure 31
0100
0010
0100
0000
0010
0100
0010
0000
0100
0010
0100
0000
0010
1000
001M
0000
,  // measure 32
1000
0100
1000
0000
0100
1000
0100
0000
1000
0100
1000
0000
01M0
1000
0100
0000
,  // measure 33
1000
0100
0010
0100
0001
0010
0100
1000
0001
0100
0010
0001
1000
0010
0100
1000
,  // measure 34
0001
0010
0100
1000
0010
0100
0002
0103
,  // measure 35
2000
3010
0100
0001
M010
0100
0020
0031
,  // measure 36
0200
1300
0001
0010
0001
0100
0010
0100
,  // measure 37
1000
0001
0100
0010
0200
1300
0020
1030
,  // measure 38
0200
0310
1000
0001
0010
1000
0002
1003
,  // measure 39
0020
0130
1000
0010
0100
0001
0020
0130
,  // measure 40
0002
0103
1000
0010
0100
0001
0010
1000
,  // measure 41
0001
0100
1000
0100
0020
1000
0031
0100
2000
0010
3100
0001
0020
0001
0130
1000
,  // measure 42
0002
0013
1000
0100
1000
0001
0200
0310
,  // measure 43
0002
0103
1000
0020
0130
0001
0020
0130
,  // measure 44
2000
3010
0100
0001
0100
001M
2000
3100
,  // measure 45
0002
0013
0001
0200
0310
0100
2000
3100
,  // measure 46
0020
0031
0100
0010
0100
1000
0002
0103
,  // measure 47
0020
0130
1000
0001
0010
0100
0002
0103
,  // measure 48
0020
1030
0100
1000
00M1
0100
0010
0100
,  // measure 49
1000
0010
0001
0010
0100
0001
0010
1000
0100
0010
1000
0100
0001
0010
0100
0001
,  // measure 50
0010
0000
1000
0000
0100
0000
M010
0000
0M01
0000
M010
0000
0100
000M
1000
00M0
,  // measure 51
0000
0M00
0001
M000
0010
0000
010M
0000
10M0
0000
010M
0000
0010
M000
0001
0M00
,  // measure 52
0000
00M0
1000
000M
0100
0000
M010
0000
0M01
0000
M010
0000
010M
0000
10M0
0000
,  // measure 53
0M00
10M0
010M
M010
0M01
M010
0100
1000
,  // measure 54
0011
1010
1100
0000
1001
0011
0110
0000
,  // measure 55
1100
1001
0101
0000
1010
1001
0110
0000
,  // measure 56
0011
1010
1100
0000
1001
0110
1010
0000
,  // measure 57
0011
0110
1100
0000
1100
0110
0011
0000
,  // measure 58
200M
3100
0020
0130
0002
0013
0200
1300
,  // measure 59
0002
0013
0200
0301
0200
1300
0210
2310
,  // measure 60
3021
0130
0020
0031
0200
1300
0002
0103
,  // measure 61
0020
1030
0200
0310
0200
1300
0002
0103
,  // measure 62
0020
0000
0031
0000
0200
M000
0301
0000
0200
0000
1300
0000
0020
0000
0130
0000
,  // measure 63
0002
0013
0002
0103
2000
3001
0200
0310
,  // measure 64
0200
1000
0301
1000
0010
0100
0002
0010
0103
1000
0020
1M00
0031
0010
0200
0001
,  // measure 65
1300
0001
0020
1000
0130
0001
0020
1000
0130
0001
2000
0010
3001
0010
0200
0001
,  // measure 66
2300
0000
0000
000M
0000
0000
00M0
0000
3200
0000
0000
0000
0000
0000
0000
0000
,  // measure 67
0322
0000
0000
0000
0000
0000
2033
3200
,  // measure 68
0320
0000
0000
0230
0320
0000
0000
0032
,  // measure 69
2203
0000
0000
0000
0000
0000
0000
0000
0000
0000
0000
0000
0000
0000
0000
0000
0000
0000
0000
0000
0000
0000
0000
3302
2003
0000
0000
0000
3200
0000
0000
0000
,  // measure 70
0322
0000
0000
0233
0320
0032
0203
2300
,  // measure 71
3022
0000
0M00
0000
0000
0000
0000
0000
2033
0000
0000
3002
0000
0000
0023
0000
,  // measure 72
2230
0000
0000
0000
0000
0000
0000
0000
0000
0000
0000
0000
0000
0000
0000
0000
0000
0000
0000
0000
0000
0000
0000
0000
3322
0000
0000
0000
0000
0000
0000
0000
2233
0000
0000
0000
0000
0000
0000
0000
0000
0000
0000
0000
0000
0000
0000
0000
3300
0000
0000
0000
0000
0000
0000
0000
0220
0000
0000
0000
0000
0000
0000
0330
,  // measure 73
2222
0000
3333
0000
;
