#TITLE:Pier Pressure;
#SUBTITLE:;
#ARTIST:Jon Holland;
#TITLETRANSLIT:;
#SUBTITLETRANSLIT:;
#ARTISTTRANSLIT:;
#CREDIT:;
#BANNER:Pier Pressure-bnr.png;
#BACKGROUND:Pier Pressure-bg.png;
#LYRICSPATH:;
#CDTITLE:;
#MUSIC:Pier Pressure.mp3;
#OFFSET:-0.046;
#SAMPLESTART:9.503;
#SAMPLELENGTH:16.000;
#SELECTABLE:YES;
#BPMS:0.000=199.758;
#STOPS:;
#BGCHANGES:0.000=Pier Pressure-bg.png=1.000=0=0=1,
32.000=-random-=1.000=0=0=1,
64.000=-random-=1.000=0=0=1,
96.000=-random-=1.000=0=0=1,
128.000=-random-=1.000=0=0=1,
160.000=-random-=1.000=0=0=1,
192.000=-random-=1.000=0=0=1,
224.000=-random-=1.000=0=0=1,
256.000=-random-=1.000=0=0=1,
320.000=-random-=1.000=0=0=1,
352.000=-random-=1.000=0=0=1,
384.000=Pier Pressure-bg.png=1.000=0=0=1,
99999=-nosongbg-=1.000=0=0=0 // don't automatically add -songbackground-
;

//---------------dance-single - Wahyu D. L----------------
#NOTES:
     dance-single:
     Wahyu D. L:
     Beginner:
     1:
     0.065,0.205,0.008,0.059,0.000:
0000
0000
0000
0000
,
0000
0000
0000
0000
,
0000
0000
0000
0000
,
0000
0000
0000
0000
,
0000
0000
0000
0000
,
0000
0000
0000
0000
,
0000
0000
0000
0000
,
0000
0000
0000
0000
,
1000
0000
0000
0000
,
0000
0000
0000
0000
,
0001
0000
0000
0000
,
0000
0000
0000
0000
,
1000
0000
0000
0000
,
0000
0000
0000
0000
,
1000
0000
0000
0000
,
0000
0000
0000
0000
,
0100
0000
0000
0000
,
0000
0000
0000
0000
,
1000
0000
0000
0000
,
0000
0000
0000
0000
,
0001
0000
0000
0000
,
0000
0000
0000
0000
,
0010
0000
0000
0000
,
0000
0000
0000
0000
,
0001
0000
0000
0000
,
0000
0000
0000
0000
,
1000
0000
0000
0000
,
0000
0000
0000
0000
,
1000
0000
0000
0000
,
0000
0000
0000
0000
,
1000
0000
0000
0000
,
0000
0000
0000
0000
,
0001
0000
0000
0000
,
0000
0000
0000
0000
,
1000
0000
0000
0000
,
0000
0000
0000
0000
,
0001
0000
0000
0000
,
0000
0000
0000
0000
,
1000
0000
0000
0000
,
0000
0000
0000
0000
,
0001
0000
0000
0000
,
0000
0000
0000
0000
,
1000
0000
0000
0000
,
0000
0000
0000
0000
,
0001
0000
0000
0000
,
0000
0000
0000
0000
,
1000
0000
0000
0000
,
0000
0000
0000
0000
,
0002
0000
0000
0000
,
0003
0000
0000
0000
,
2000
0000
0000
0000
,
3000
0000
0000
0000
,
0002
0000
0000
0000
,
0003
0000
0000
0000
,
0020
0000
0000
0000
,
0230
0000
0000
0000
,
0301
0000
0000
0000
,
0000
0000
0000
0000
,
1000
0000
0000
0000
,
0000
0000
0000
0000
,
0001
0000
0000
0000
,
0000
0000
0000
0000
,
1000
0000
0000
0000
,
0000
0000
0000
0000
,
0001
0000
0000
0000
,
0000
0000
0000
0000
,
1000
0000
0000
0000
,
0000
0000
0000
0000
,
0001
0000
0000
0000
,
0000
0000
0000
0000
,
1000
0000
0000
0000
,
0000
0000
0000
0000
,
0001
0000
0000
0000
,
0000
0000
0000
0000
,
1000
0000
0000
0000
,
0000
0000
0000
0000
,
0001
0000
0000
0000
,
0000
0000
0000
0000
,
1000
0000
0000
0000
,
0000
0000
0000
0000
,
1000
0000
0000
0000
,
0000
0000
0000
0000
,
0100
0000
0000
0000
,
0000
0000
0000
0000
,
1000
0000
0000
0000
,
0000
0000
0000
0000
,
0001
0000
0000
0000
,
0000
0000
0000
0000
,
1000
0000
0000
0000
,
0000
0000
0000
0000
,
0001
0000
0000
0000
,
0000
0000
0000
0000
,
1000
0000
0000
0000
,
0000
0000
0000
0000
,
0001
0000
0000
0000
,
0000
0000
0000
0000
,
2002
0000
0000
0000
,
3003
0000
0000
0000
;

//---------------dance-single - Wahyu D. L----------------
#NOTES:
     dance-single:
     Wahyu D. L:
     Easy:
     4:
     0.300,0.616,0.034,0.466,0.000:
0000
0000
0000
0000
,
0000
0000
0000
0000
,
0000
0000
0000
0000
,
0000
0000
0000
0000
,
1001
0000
0000
0000
,
0000
0000
0000
0000
,
0000
0000
0000
0000
,
0000
0000
0000
0000
,
1000
0000
1000
0000
,
0001
0000
0001
0000
,
1000
0000
1000
0000
,
0001
0000
0001
0000
,
0100
0000
0100
0000
,
0010
0000
0010
0000
,
0100
0000
0100
0000
,
0010
0000
0010
0000
,
1000
0100
1000
0100
,
1000
0000
1000
0000
,
0001
0100
0001
0100
,
0001
0000
0001
0000
,
0010
0000
1000
0000
,
1000
0100
1000
0100
,
1000
0000
0010
0000
,
1000
0000
0001
0000
,
0100
0001
0100
0001
,
0100
0000
0010
0000
,
0001
0010
0001
0010
,
0001
0000
0100
0000
,
0010
0000
1000
0000
,
1000
0100
0010
0001
,
0010
0000
0100
0000
,
0001
0000
1000
0000
,
2000
0000
0100
0000
,
0010
0000
0001
0000
,
3020
0000
0100
0000
,
1000
0000
0000
0000
1000
0000
0000
0030
,
1001
1000
1000
1000
,
0000
0000
0000
0000
,
1001
0001
0001
0001
,
0000
0000
0000
0000
,
2000
0000
0100
0000
,
0010
0000
0001
0000
,
3020
0000
0100
0000
,
1000
0000
0100
0030
,
0010
0010
0010
1000
,
0000
0000
1000
0000
,
1000
1000
0100
1000
,
0000
0000
1000
0000
,
0200
0000
2300
0000
,
3200
0000
0320
0000
,
0032
0000
0023
0000
,
0032
0000
0203
0000
,
0320
0000
2030
0000
,
3002
0000
2003
0000
,
0002
0003
0002
3003
,
0002
0000
0000
0000
,
2003
3000
2000
0000
,
3020
0000
0000
0030
0020
0000
0000
0030
,
0200
0000
0000
0300
0200
0000
0000
0300
,
0002
0000
0000
0003
2000
0000
0000
3000
,
0002
0000
0000
0003
0200
0000
0000
0300
,
0002
0000
0000
0003
0200
0000
0000
0300
,
0020
0000
0000
0030
2000
0000
0000
3000
,
0002
0000
0000
0003
2000
0000
0000
3000
,
0001
0001
1000
0001
,
0000
0000
0001
0000
,
1000
1000
0002
2003
,
3002
2003
3002
2003
,
3001
0000
0001
0000
,
1000
0000
1000
0000
,
0001
0000
1000
0001
,
1000
0001
0100
0010
,
1000
0000
1000
0000
,
1000
0000
0001
0000
,
0001
0000
0001
0000
,
1000
0000
1000
0000
,
0001
0000
0001
0000
,
0100
0000
0100
0000
,
0010
0000
0010
0000
,
1000
0000
1000
0000
,
0001
0000
1000
0000
,
0001
1000
0001
0000
,
1000
0000
1000
0000
,
0100
0000
0010
0000
,
0002
0000
0000
0000
,
0003
0000
2000
0000
,
3002
0000
0000
0000
,
0003
0000
0000
0000
,
2000
0000
3200
0000
,
0320
0000
0032
0000
,
0023
0000
0230
0000
,
2300
0000
3002
0000
,
2003
0000
0000
0000
,
3000
0000
0000
0000
,
0001
0000
0000
0000
,
0000
0000
0000
0000
,
2002
0000
0000
0000
,
3003
0000
0000
0000
;

//---------------dance-single - Wahyu D. L----------------
#NOTES:
     dance-single:
     Wahyu D. L:
     Challenge:
     9:
     0.797,1.000,0.661,0.271,0.000: // measure 1
0000
0000
0000
0000
,  // measure 2
0000
0000
0000
0000
,  // measure 3
0000
0000
0000
0000
,  // measure 4
0000
0000
0000
0000
,  // measure 5
1111
0000
0000
0000
,  // measure 6
0000
0000
0000
0000
,  // measure 7
0111
0000
1110
0000
,  // measure 8
0000
0000
0000
0000
,  // measure 9
0001
0000
1000
0100
1000
0010
1000
0001
,  // measure 10
0100
0010
0001
1000
0100
0000
1000
0001
,  // measure 11
1000
0000
0001
0100
0010
1000
0001
0100
,  // measure 12
0010
1000
0001
1000
0001
0000
0001
0001
,  // measure 13
0100
0000
0100
0010
1000
0001
1000
0001
,  // measure 14
0100
0100
0010
0010
1000
0000
1000
0001
,  // measure 15
1000
0000
1000
0100
1000
0010
1000
0001
,  // measure 16
0100
0010
1000
0001
0010
0000
0001
0100
,  // measure 17
0010
0100
0010
0100
0010
0100
0010
0100
,  // measure 18
0010
0010
1000
1000
0001
0000
0000
0000
,  // measure 19
1000
0001
1000
0001
1000
0001
1000
0001
,  // measure 20
0100
0000
0100
0100
0001
0000
0001
0001
,  // measure 21
1000
0000
1000
0010
1000
0001
0100
0001
,  // measure 22
0010
0100
1000
0010
1000
0100
0010
0001
,  // measure 23
0100
0000
0010
1000
0001
0000
0010
0000
,  // measure 24
1000
0001
1000
0100
0010
0000
1000
0010
,  // measure 25
1000
0001
1000
0001
1000
0001
1000
0001
,  // measure 26
1000
1000
0001
0001
0100
0000
0000
0000
,  // measure 27
0001
0010
0001
0010
0001
0010
0001
0010
,  // measure 28
0001
0000
0001
0001
0010
0000
0010
0010
,  // measure 29
0100
0000
0100
0010
1000
0001
1000
0100
,  // measure 30
0010
1000
0001
0010
0100
1000
0100
0010
,  // measure 31
0001
0000
0001
0100
0010
0000
1000
0000
,  // measure 32
0001
1000
0100
1000
0010
0000
1000
0010
,  // measure 33
1000
0000
1000
0001
0100
0000
0100
0010
,  // measure 34
1000
0000
0010
1000
0001
0000
1000
0001
,  // measure 35
0100
0000
0010
1000
0001
0000
1000
0001
,  // measure 36
0100
0000
0100
0010
0100
0000
0100
0010
,  // measure 37
1000
1000
0001
0001
,  // measure 38
0100
0001
0100
0010
1000
0000
0100
1000
,  // measure 39
0100
0000
0100
1000
0001
0000
1000
0000
,  // measure 40
1000
0001
0100
0010
1000
0000
1000
0001
,  // measure 41
1000
0000
1000
0001
0100
0000
0100
0010
,  // measure 42
0100
0000
0100
0010
1000
0000
0010
1000
,  // measure 43
0001
0000
1000
0001
0100
0000
0100
0001
,  // measure 44
0100
0000
0001
0010
0001
0000
0100
0010
,  // measure 45
0100
0100
0010
0010
,  // measure 46
1000
0001
1000
0001
0100
0000
0010
1000
,  // measure 47
0001
0010
0001
0100
,  // measure 48
1000
0100
0010
0001
0010
0000
0100
1000
,  // measure 49
0010
0000
1M00
0001
10M0
0000
M001
0100
,  // measure 50
0001
0M00
0010
M001
0100
00M0
0001
1M00
,  // measure 51
0010
0000
100M
0010
0100
00M0
0001
0100
,  // measure 52
M010
0000
0M01
0010
0001
M000
0010
010M
,  // measure 53
0010
0M00
0010
100M
0010
M000
0010
100M
,  // measure 54
0100
00M0
0100
1000
00M1
0000
1M00
0001
,  // measure 55
0100
M000
0001
0100
001M
0000
010M
0010
,  // measure 56
1000
00M0
0001
1M00
0001
00M0
0100
0001
,  // measure 57
M010
0000
0011
0011
0011
0000
0101
0101
,  // measure 58
0101
0000
0110
0110
0110
0000
1010
1010
,  // measure 59
1010
0000
0011
0011
0011
0000
1001
1001
,  // measure 60
1001
0000
0110
0110
0110
0000
1001
1001
,  // measure 61
1001
0000
1100
1100
1100
0000
0011
0011
,  // measure 62
0011
0000
0101
0101
0101
0000
1001
1001
,  // measure 63
1001
0000
1100
1100
1010
0000
1010
1010
,  // measure 64
0110
0000
0110
0110
0101
0000
0101
0101
,  // measure 65
0011
1000
0001
1000
,  // measure 66
0100
1000
0010
1000
0001
0000
0001
0100
,  // measure 67
0010
0000
1000
0000
1002
0003
2001
3000
,  // measure 68
1002
0003
2001
3000
1002
0003
2001
3000
,  // measure 69
0001
0001
0100
0100
,  // measure 70
0010
1000
0001
0100
0010
0000
0010
1000
,  // measure 71
0001
0000
1000
0000
0102
0003
0210
0300
,  // measure 72
0012
0003
1200
0300
0012
0003
0210
0300
,  // measure 73
0112
0003
0000
0000
2011
3000
0000
0000
,  // measure 74
0010
1000
0001
1000
0020
0030
2000
3000
,  // measure 75
1102
0003
0000
0000
0112
0003
0000
0000
,  // measure 76
1201
0300
0000
0000
1021
0030
2101
3000
,  // measure 77
0211
0300
0000
0000
1210
0300
0000
0000
,  // measure 78
0010
1000
0001
1000
0200
0300
0020
0030
,  // measure 79
1021
0030
0000
0000
1210
0300
0000
0000
,  // measure 80
1102
0003
0000
0000
0112
0003
2110
3000
,  // measure 81
0001
1000
0100
0010
1000
0001
0010
0001
,  // measure 82
0100
0010
1000
0001
1000
0100
1000
0010
,  // measure 83
1000
0001
0100
0010
1000
0001
1000
0100
,  // measure 84
1000
0010
1000
0001
0100
0010
1000
0001
,  // measure 85
0010
0100
1000
0010
1000
0001
0010
0001
,  // measure 86
0100
0010
1000
0001
0010
0100
1000
0100
,  // measure 87
0010
0001
0010
0100
1000
0001
0100
0010
,  // measure 88
1000
0001
1000
0010
1000
0001
0100
0010
,  // measure 89
1000
0000
1000
0001
1000
0000
0001
0100
,  // measure 90
0010
0000
1000
0010
1000
0000
1000
0001
,  // measure 91
0100
0000
0010
1000
0001
0000
1000
0100
,  // measure 92
1000
0000
0001
1000
0010
0000
0010
1000
,  // measure 93
0001
0001
1000
1000
,  // measure 94
0001
1000
0100
0010
1000
0000
1000
0001
,  // measure 95
0100
0100
0001
0001
,  // measure 96
0100
0010
1000
0001
1000
0000
0100
0010
,  // measure 97
2002
0000
0000
0000
,  // measure 98
3003
0000
0000
0000
;

//---------------dance-single - Wahyu D. L----------------
#NOTES:
     dance-single:
     Wahyu D. L:
     Medium:
     6:
     0.370,0.534,0.178,0.423,0.000:
0000
0000
0000
0000
,
0000
0000
0000
0000
,
0000
0000
0000
0000
,
0000
0000
0000
0000
,
1001
0000
0000
0000
,
0000
0000
0000
0000
,
0101
0000
1010
0000
,
0000
0000
0000
0000
,
1000
0100
0001
1000
,
0001
1000
0010
1000
,
0001
0100
0010
1000
,
0001
0100
0001
0010
,
0100
1000
0010
1000
,
0001
0100
0010
1000
,
0001
1000
0001
0100
,
0010
1000
0001
0000
,
1000
0100
1000
0100
1000
0100
1000
0100
,
0000
0000
1000
0000
,
0001
0010
0001
0010
0001
0010
0001
0010
,
0001
0000
0100
0000
,
0010
0000
0000
0000
,
1000
0100
0010
0001
0010
0100
1000
0100
,
0010
0000
0000
0000
,
0000
0000
0000
0000
,
1000
0010
1000
0010
1000
0010
1000
0010
,
1000
0000
1001
0000
,
0001
0100
0001
0100
0001
0100
0001
0100
,
0001
0000
1001
0000
,
0110
0000
0000
0000
,
1000
0100
0010
0001
0010
0100
1000
0100
,
0010
0000
0000
0000
,
0000
0000
0000
0000
,
2000
0000
3200
0000
,
0320
0000
0032
0000
,
0023
0000
0230
0000
,
2300
0000
3200
0000
,
0320
0000
0000
0000
,
0030
0000
0002
0000
,
2003
0000
0000
0000
,
3000
0000
0000
0000
,
0002
0000
0203
0000
,
0320
0000
2030
0000
,
3200
0000
0320
0000
,
0032
0000
2003
0000
,
3200
0000
0000
0000
,
0300
0000
2000
0000
,
3002
0000
0000
0000
,
0003
0000
0000
0000
,
2000
0000
0000
0000
,
3000
0000
0000
0000
,
0002
0000
0000
0000
,
0003
0000
0000
0000
,
2000
0000
0000
0000
,
3000
0000
0000
0000
,
0020
0000
0000
0000
,
0230
0000
0000
0000
,
0302
0000
2003
0000
,
3200
0000
2300
0000
,
3020
0000
0000
0030
,
0200
0300
0002
0003
,
2000
0000
0000
0000
,
3000
0000
0002
0000
,
0023
0000
0230
0000
,
2300
0000
3002
0000
,
1003
0100
0010
0001
,
0000
0000
1110
0000
,
0001
0010
0100
1000
,
0100
1000
0100
1000
,
0001
0001
0100
0010
,
0000
0000
1011
0000
,
0001
1000
0100
0010
,
0001
0010
0100
1000
,
1001
0000
1001
0000
,
1001
0000
1000
0100
,
0110
0000
0110
0000
,
0110
0000
0001
1000
,
0101
0000
0101
0000
,
0101
0000
1000
0100
,
1100
0000
1100
0000
,
1100
0000
1000
0100
,
0010
0001
0010
0100
,
1000
0001
1000
0001
,
1000
0100
1000
0010
,
1000
0001
0100
0010
,
1000
1000
0001
0001
,
0100
0010
1000
1000
,
0001
0001
0100
0010
,
1000
0001
0100
0010
,
2000
0000
3002
0000
,
0203
0000
0320
0000
,
2030
0000
3002
0000
,
2003
0000
3002
0000
,
0103
0100
0010
0010
,
0000
1000
0000
0000
0001
0000
0000
0000
,
1000
1000
0001
0001
,
0000
1000
0000
0000
0001
0000
0100
0000
,
0220
0000
0000
0000
,
0330
0000
0000
0000
;

//---------------dance-single - Wahyu D. L----------------
#NOTES:
     dance-single:
     Wahyu D. L:
     Hard:
     7:
     0.480,0.616,0.212,0.576,0.000:
0000
0000
0000
0000
,
0000
0000
0000
0000
,
0000
0000
0000
0000
,
0000
0000
0000
0000
,
1001
0000
0000
0000
,
0000
0000
0000
0000
,
0011
0000
1100
0000
,
0000
0000
0000
0000
,
1000
1000
0001
0001
,
0000
0100
0000
0000
0010
0000
0000
0000
,
1000
1000
0001
0001
,
0000
0100
0000
0000
0010
0000
0000
0000
,
1000
1000
0001
0001
,
0100
0000
0000
0010
0000
0000
0000
0000
,
1000
1000
0001
0001
,
0000
1000
0000
0000
0100
0000
0000
0000
,
1000
0010
1000
0010
1000
0010
1000
0010
,
0010
0000
1000
1000
0001
0000
0000
0000
,
0001
0100
0001
0100
0001
0100
0001
0100
,
0001
0000
0001
0001
1000
0000
1000
1000
,
0100
1000
0010
0010
,
1000
0100
1000
0010
1000
0001
0100
0001
,
0010
0001
0001
0100
,
0000
0010
0000
0000
1000
0000
0000
0000
,
1000
0001
1000
0001
1000
0001
1000
0001
,
1000
0000
1000
1000
0100
0000
0000
0000
,
0010
1000
0010
1000
0010
1000
0010
1000
,
0010
0000
0010
0010
0100
0000
0100
0100
,
0001
0001
1000
0001
,
1000
0100
1000
0010
1000
0001
1000
0001
,
0100
0100
0100
0001
,
0000
1000
0000
0000
0010
0000
0000
0000
,
2000
0000
0000
3010
0002
0000
0000
0013
,
2000
0000
0000
3100
0002
0000
0000
0013
,
0200
0000
0000
0301
0020
0000
0000
1030
,
0200
0000
0000
0310
2000
0000
0000
3001
,
2000
0100
0100
0010
,
3001
0000
0000
0000
1000
0000
0000
1000
,
0002
0100
0100
1000
,
0023
0000
2030
0000
,
3020
0000
0000
0031
0200
0000
0000
0301
,
0020
0000
0000
0031
0020
0000
0000
0130
,
2000
0000
0000
3010
2000
0000
0000
3100
,
0002
0000
0000
1003
0020
0000
0000
0031
,
0200
0010
0010
1000
,
0300
0001
0000
0000
2000
0000
0000
3100
,
2000
0010
0010
0100
,
3001
0000
0000
0100
0000
0000
0100
0000
,
0020
0000
2000
3000
,
0032
0003
0200
0300
,
0020
0000
0000
0000
,
0032
0003
2000
3000
,
0200
0000
2000
3000
,
0300
0000
0200
0300
,
0002
0000
2000
3000
,
0203
0000
0000
0000
,
0320
0000
2030
0000
,
3002
0000
2003
0000
,
3200
0000
0000
0000
,
2300
0000
3002
0000
,
2003
0000
0000
0000
,
3000
0000
0200
0000
,
2300
0000
3020
0000
,
0230
0000
0302
0000
,
1003
1000
0100
0100
,
1000
0000
0000
0010
0000
0000
0001
0000
,
1000
1000
0001
0100
,
0001
0010
0001
0100
,
0010
0010
1000
1000
,
0000
0001
0000
0000
1000
0000
0000
0000
,
0001
0001
1000
0100
,
1000
0010
1000
0001
,
1100
0000
0110
0000
,
0011
0000
0110
1010
,
0101
0000
0011
0000
,
0101
0000
0011
1010
,
0011
0000
0101
0000
,
1010
0000
0110
1001
,
0011
0000
1100
0000
,
0011
0000
1010
0110
,
1001
0000
0000
0010
2000
0000
0000
3100
,
0002
0000
0000
1003
0002
0000
0000
0103
,
0002
0000
0000
0013
0200
0000
0000
0310
,
2000
0000
0000
3100
0002
0000
0000
1003
,
0020
0000
1000
0000
,
0130
0000
0000
0000
1000
0000
0000
0010
,
2000
0000
0100
0000
,
3001
0000
0100
0000
,
1000
0000
0000
1000
0200
0000
0000
1300
,
0002
0000
0000
1003
0002
0000
0000
1003
,
0020
0000
0000
1030
0200
0000
0000
1300
,
0020
0000
0000
1030
0002
0000
0000
0103
,
0020
0001
1000
1000
,
0031
0000
0000
1000
0000
0000
0010
0000
,
0001
0001
0100
0100
,
0000
0010
0000
0000
1000
0000
0000
0000
,
2002
0000
0MM0
0000
,
3003
0000
0000
0000
;
