#TITLE:Moonlight;
#SUBTITLE:Original Version;
#ARTIST:BanYa;
#TITLETRANSLIT:;
#SUBTITLETRANSLIT:;
#ARTISTTRANSLIT:;
#CREDIT:;
#BANNER:Moonlight (Original ver.)-bnr.png;
#BACKGROUND:Moonlight (Original ver.)-bg.png;
#LYRICSPATH:;
#CDTITLE:;
#MUSIC:Moonlight (Original ver.).ogg;
#OFFSET:-0.060;
#SAMPLESTART:69.426;
#SAMPLELENGTH:10.700;
#SELECTABLE:YES;
#BPMS:0.000=180.040,128.000=45.010,146.000=90.020,150.000=180.040;
#STOPS:;
#BGCHANGES:0.000=Pump It Up Zero - Moonlight 1.avi=1.000=1=1=0,
242.000=Moonlight (Original ver.)-bg.png=1.000=0=0=1,
99999=-nosongbg-=1.000=0=0=0 // don't automatically add -songbackground-
;

//---------------dance-single - Wahyu D. L----------------
#NOTES:
     dance-single:
     Wahyu D. L:
     Beginner:
     1:
     0.061,0.147,0.000,0.000,0.000:
0000
0000
0000
0000
,
0000
0000
0000
0000
,
0000
0000
0000
0000
,
0000
0000
0000
0000
,
0000
0000
0000
0000
,
0001
0000
0000
0000
,
0000
0000
0000
0000
,
1000
0000
0000
0000
,
0000
0000
0000
0000
,
0100
0000
0000
0000
,
0000
0000
0000
0000
,
0010
0000
0000
0000
,
0001
0000
0000
0000
,
0100
0000
0000
0000
,
0000
0000
0000
0000
,
0010
0000
0000
0000
,
0000
0000
0000
0000
,
0001
0000
0000
0000
,
0000
0000
0000
0000
,
0000
0000
0000
0000
,
1000
0000
0000
0000
,
0000
0000
0000
0000
,
0100
0000
0000
0000
,
0000
0000
0000
0000
,
0010
0000
0000
0000
,
0000
0000
0000
0000
,
0001
0000
0000
0000
,
1000
0000
0000
0000
,
0001
0000
0000
0000
,
0100
0000
0000
0000
,
0010
0000
0000
0000
,
0000
0000
0000
0000
,
0001
0000
1000
0000
,
0010
0000
0100
0000
,
0001
0000
0100
0000
,
0010
0000
1000
0000
,
0001
0000
1000
0000
,
0010
1000
0001
0000
,
0000
0000
0000
0000
,
0000
0000
1000
0000
,
0000
0000
0000
0000
,
0000
0000
0001
0000
,
0000
0000
0000
0000
,
0000
0000
0010
0000
,
0000
0000
0100
0000
,
0000
0000
1000
0000
,
0000
0000
0000
0000
,
0000
0000
0001
0000
,
0000
0000
0000
0000
,
0000
0000
1000
0000
,
0000
0000
0000
0000
,
0000
0000
0100
0000
,
0000
0000
0000
0000
,
0000
0000
0010
0000
,
0000
0000
0000
0000
,
0000
0000
0001
0000
,
0000
0000
0000
0000
,
0000
0000
1000
0000
,
0000
0000
0001
0000
,
0010
0000
0100
0000
;

//---------------dance-single - Wahyu D. L----------------
#NOTES:
     dance-single:
     Wahyu D. L:
     Easy:
     5:
     0.353,0.777,0.158,0.346,0.000:
0000
0000
0000
0000
,
0000
0000
0000
0000
,
0001
0000
1000
0000
,
0010
0000
0001
0000
,
2002
0000
0000
3003
,
0010
0000
0010
0000
,
1000
0000
0100
1000
,
0001
0000
0010
0000
,
1000
0000
0010
1001
,
0010
0000
0001
0000
,
0010
0000
1000
1001
,
0010
0000
0001
1001
,
0010
0000
1000
1001
,
0010
0010
0010
0001
,
0010
1000
0100
1000
,
0010
0010
0010
0010
,
0010
0010
0010
0001
,
0010
1000
0100
1000
,
0001
0001
0001
0000
,
1000
0001
0100
0011
,
0100
0000
1000
0000
,
0010
0000
1000
0000
,
0100
0000
1000
0000
,
0001
0000
0010
0000
,
1000
0000
0001
0000
,
1000
0000
0001
0100
,
1000
0100
0001
0100
,
1000
0010
0001
0010
,
1000
0100
0001
0100
,
1000
0010
0001
0010
,
2002
0000
0000
0000
,
3003
0010
0010
0010
,
2001
3200
0000
0302
0023
2030
0000
3200
,
0302
0023
0032
0023
2030
0000
3200
0000
,
0302
0023
2030
3002
0203
0000
0000
0302
,
0023
0032
0203
0302
0023
0000
2030
0000
,
3200
0302
0023
0000
,
2030
3002
0013
1000
,
0010
0001
0010
1000
,
0010
1001
0001
0100
,
1000
0100
0001
0100
,
1000
1001
1000
0100
,
0010
0001
0010
0100
,
1000
1001
0001
0010
,
0100
1001
1000
0100
,
0010
1001
0010
0010
,
0001
0010
1000
0100
,
1000
0001
1000
0000
,
0010
1000
0001
0100
,
0010
0001
0010
0000
,
1000
0001
1000
0100
,
1000
0010
0001
0000
,
0001
0100
1000
0100
,
1000
0001
0100
0100
,
0100
0100
0001
0001
,
0001
0001
1000
1000
,
1000
1000
0010
0010
,
0010
0010
0100
0100
,
0100
0100
0011
0000
,
1100
0000
2002
0000
,
0000
0000
3003
0000
;

//---------------dance-single - Wahyu D. L----------------
#NOTES:
     dance-single:
     Wahyu D. L:
     Medium:
     7:
     0.470,0.598,0.119,0.326,0.020:
0000
0000
0000
0000
,
0000
0000
0000
0000
,
1000
0010
0100
0001
,
0010
0010
0010
0010
,
2002
0000
0000
3003
,
1000
0000
0010
0000
1000
0100
0001
0000
,
0010
0000
1000
0000
0001
0100
1000
0000
,
0010
0000
1000
0000
0001
1000
0100
0000
,
0010
0000
1000
0000
0001
1000
0010
0000
,
0100
0000
1000
0000
0010
1000
0001
0000
,
0100
0000
0010
0000
0001
0010
1000
0000
,
0100
0000
1000
0000
0001
0000
1000
0001
,
0010
0000
0100
0000
1000
0000
0010
1000
,
0001
1000
0100
0010
,
0100
0000
0001
0000
0010
1000
0001
1000
,
0010
0001
0010
1000
,
0001
0000
0100
0000
0010
1000
0010
0001
,
0200
0302
0203
2300
,
3010
1000
0001
1000
1001
0000
0000
0000
,
0200
0302
2003
3101
,
1000
0001
0000
0001
0100
0000
1000
0010
,
0000
0010
0001
0000
0100
0000
1001
0000
,
0010
1000
0000
1000
0001
0000
0100
0010
,
0000
0010
0001
0000
0010
0000
1001
0000
,
0010
0100
0000
0100
0010
0000
0100
1000
,
0000
1000
0010
0000
0001
0000
0100
0000
,
0020
0001
1030
0000
0010
0000
1001
0000
,
0002
1000
0103
0000
0001
0000
0110
0000
,
0002
1000
0013
0000
0001
0000
0100
0000
,
0200
0001
1300
0000
0100
0000
0010
0000
,
2002
0000
0000
0000
,
3003
0000
0000
0000
0000
0000
0000
0000
0000
0000
0000
0000
0000
0000
0000
0000
0020
0000
0000
0000
0000
0000
0000
0000
0000
0000
0000
0000
0000
0000
0000
0000
2030
0000
0000
0000
0000
0000
0000
0000
0000
0000
0000
0000
0000
0000
0000
0000
3200
0000
0000
0000
0000
0000
0000
0000
0000
0000
0000
0000
0000
0000
0000
0300
,
1001
0000
0020
0000
0000
0000
1030
0100
1000
0000
0020
0000
0000
0000
0031
0010
,
0001
0100
0010
1000
0200
0000
2300
0000
,
3001
0010
0100
1000
0002
0000
0000
0013
,
1000
0001
0100
0010
0002
0000
0203
0000
,
0320
0000
0000
0000
1000
0000
0000
0000
0031
0000
0000
0000
0000
0000
0000
0000
0020
0000
0000
0000
1000
0000
0000
0000
0031
0000
0000
0000
0000
0000
0000
0000
2000
0000
0000
0000
0000
0000
0000
0000
0000
0000
0000
0000
0000
0000
0000
0000
0020
0000
0000
0000
0000
0000
0000
0000
0000
0000
0000
0000
0000
0000
0000
0030
,
3002
0000
0000
0000
0000
0000
0000
0000
0000
0000
0000
0000
0000
0000
0000
0000
0200
0000
0000
0000
0000
0000
0000
0000
0000
0000
0000
0000
0000
0000
0000
0300
1003
0000
0000
0000
0000
0000
0000
0000
0000
0000
0000
0000
0000
0000
0000
0000
0010
0000
0000
0000
0000
0000
0000
0000
1000
0000
0000
0000
0000
0000
0000
0000
,
0001
0000
0100
1000
0001
0000
0010
0000
,
0001
0100
1000
0000
0010
0000
1000
0001
,
0100
0000
1000
0010
1000
0000
0001
0000
,
0100
0010
0001
0000
1000
0010
1000
0100
,
0001
0010
0001
0100
1000
0010
1000
0001
,
1000
0001
0100
0000
0001
0100
1000
0010
,
1000
0001
0100
0010
0001
0100
1000
0010
,
0001
1000
0100
1000
0010
0000
0001
0000
,
0100
1000
0010
1000
,
0001
1000
0010
0001
1000
0000
0010
0000
,
1000
0100
0001
1000
,
0001
1000
0001
0010
1000
0000
0100
0000
,
0001
0010
0001
0100
,
1000
0001
0010
0100
0001
0000
1000
0000
,
0001
0100
1000
0010
,
1000
0001
0010
1000
0100
0000
0010
0000
,
1000
0001
0010
0001
,
0100
0010
0100
1000
,
0001
1000
0010
1000
,
0100
1000
0001
0010
,
0100
1000
1001
0000
,
0110
0000
2002
0000
,
0000
0000
3003
0000
;

//---------------dance-single - Wahyu D. L----------------
#NOTES:
     dance-single:
     Wahyu D. L:
     Hard:
     9:
     0.662,0.777,0.277,0.089,0.247:
0000
0000
0000
0000
,
0000
0000
0000
0000
,
0010
1001
0100
1001
,
1000
0100
0010
0001
0010
0100
1000
0100
,
0002
0000
0000
0000
,
1003
0100
0010
0001
0010
0100
1000
0100
,
0010
0001
0010
0100
1000
0100
1001
0000
,
0001
0010
0100
1000
0100
0010
0001
0010
,
0100
1000
0100
0010
0001
0010
1001
0000
,
1000
0100
0010
0001
0010
0100
1000
0100
,
0010
0001
0010
0100
1000
0100
1001
0000
,
0001
0010
0100
1000
0001
0010
1100
1100
,
1000
0100
0010
0001
1000
0100
0011
0011
,
1000
0010
0001
0100
0010
1000
0001
0100
,
0010
1000
0001
0100
0010
0001
0010
1000
,
0100
1000
0010
0001
0100
0010
0001
1000
,
0010
0100
0001
1000
0010
0100
0001
1000
,
0010
0000
0000
0010
0100
0000
0000
0100
0001
0000
0000
0001
1000
0000
0000
1000
,
0001
0010
0100
1000
1001
0000
0000
0000
,
2000
3002
0023
1131
,
1000
0100
0000
0100
0001
0000
0010
1000
,
0000
0100
1000
0010
1000
0000
1001
0000
,
0100
1000
0000
0100
0001
0000
0100
1000
,
0000
1000
0001
0100
0010
0000
1001
0000
,
0100
1000
0000
0010
1000
0000
0010
0001
,
0000
0000
0100
0000
1000
0000
0001
0000
0010
0100
1000
0000
0100
0000
0001
0000
,
0010
0000
1000
0010
1000
0000
0100
0000
1000
0000
0010
0000
1010
0000
0000
0000
,
1000
0000
0010
0100
0010
0000
0001
0000
0100
0000
0001
0000
0011
0000
0000
0000
,
0100
0000
0001
1000
0001
0000
0100
0000
1000
0000
0100
0000
0011
0000
0000
0000
,
1000
0000
0100
0010
0100
0000
0001
0000
1000
0000
0100
0000
1100
0000
0000
0000
,
2002
0000
0000
0000
,
3000
1000
0100
0010
,
1003
0010
0100
0000
1000
0000
0010
1000
0001
0100
0010
0000
0000
0000
0010
1000
,
0001
0100
0010
0000
1000
0000
0001
0100
0010
1000
0001
0000
0010
0100
0010
0001
,
0010
0000
0100
0000
1000
0100
1000
0010
0100
0000
0001
0000
1000
0100
1000
0010
,
0100
0000
0001
0000
0010
0001
0010
0100
0001
1000
0100
0000
1000
0000
0100
1000
,
0020
0000
1000
0000
0100
0000
0001
0000
0130
0010
1000
0010
0100
0010
0001
0010
,
0100
0010
1000
0010
0001
0010
1000
0010
0001
0000
1000
0000
0010
0000
0100
0000
,
1000
0001
0010
0001
0100
0010
1000
0100
,
0010
0001
1001
0000
0001
0100
0010
1000
,
0100
1000
0010
0001
0100
0010
0001
0010
,
0100
1000
1001
0000
1000
0100
0001
0010
,
1000
0100
0001
0010
1000
0100
0001
0010
,
1000
0100
1001
0000
0001
0010
1000
0100
,
0001
0010
1001
1001
0010
0001
0100
1000
,
0010
0001
1001
1001
1000
0010
1000
0100
,
0010
0001
0010
0100
0001
0100
1000
0010
,
1000
0001
1000
0001
0010
0100
0001
1000
,
0001
1000
0010
0100
1000
0010
1000
0010
,
1000
0100
0001
1000
0010
0001
0100
1000
,
0001
1000
0001
0100
0010
0001
0100
0010
,
0100
0010
1000
0010
1000
0100
0001
0010
,
0100
0010
0100
1000
0010
1000
0100
0001
,
0010
0000
1000
0000
0001
0000
1000
0000
0001
0000
0000
0001
1000
0000
0000
1000
,
0010
0000
0000
0010
0100
0000
0000
0100
0010
0000
0000
0010
1000
0000
0000
1000
,
0100
0000
0000
0100
0001
0000
0000
0001
0100
0000
0000
0100
1000
0000
0000
1000
,
0010
0000
0000
0010
0001
0000
0000
0001
0010
0000
0000
0010
0100
0000
0000
0100
,
1000
0000
0000
1000
0100
0000
0000
0100
0010
0000
0001
0000
1000
0000
0100
0000
,
0010
0001
1000
0100
0011
0000
0000
0000
,
1100
0000
2002
0000
,
0000
0000
3003
0000
;

//---------------dance-single - Wahyu D. L----------------
#NOTES:
     dance-single:
     Wahyu D. L:
     Challenge:
     15:
     1.000,1.000,1.000,0.138,1.000: // measure 1
0000
0000
0000
0000
,  // measure 2
0000
0000
0000
0000
,  // measure 3
0010
1001
0100
1001
,  // measure 4
0001
0001
1001
0001
0001
0001
0001
0001
,  // measure 5
0002
0000
0000
0000
0000
0000
0000
0000
1100
0000
0000
0000
0000
0000
0000
0000
1000
0100
1000
0100
1000
0000
0100
0000
1000
0000
0000
0000
0100
0000
0000
0000
,  // measure 6
0013
0100
1000
0001
0010
0100
1000
0001
0010
0100
1000
0001
0010
0100
1000
0001
,  // measure 7
0010
0100
0010
0001
1000
0100
0010
0001
1000
0000
1001
0000
1001
0000
0000
0000
,  // measure 8
1000
0100
0010
0001
1000
0100
0010
0001
1000
0100
0010
0001
1000
0100
0010
0100
,  // measure 9
1000
0001
0010
0100
1000
0001
0010
0100
1000
0000
1001
0000
1001
0000
0000
0000
,  // measure 10
1000
0010
0100
0001
1000
0010
0100
0001
1000
0010
0100
0001
1000
0010
0100
0010
,  // measure 11
1000
0001
0100
0010
1000
0001
0100
0010
1000
0000
1010
0000
1010
0000
0000
0000
,  // measure 12
0001
0100
0010
1000
0001
0100
0010
1000
0001
0100
0010
1000
1001
0000
1001
0000
,  // measure 13
1000
0100
0010
0001
1000
0100
0010
0001
1000
0100
0010
0001
1001
0000
1001
0000
,  // measure 14
0001
1001
1000
1010
0010
0011
0001
0101
,  // measure 15
0100
0000
1100
0000
1000
0000
1010
0000
0010
0000
0110
0010
0100
0000
1100
0000
,  // measure 16
1000
1010
0010
0110
0100
0101
0001
1001
,  // measure 17
1000
0000
1010
0000
0010
0000
0110
0000
0100
0000
1100
1000
0100
0000
0110
0000
,  // measure 18
0011
0000
1000
0100
0001
0000
1000
0010
0001
0000
1000
0100
0001
0000
1000
0010
,  // measure 19
0001
0001
0011
0111
1111
0000
0000
0000
,  // measure 20
2000
0000
0000
0000
0000
0000
0000
0000
0000
0000
0000
0000
0000
0000
0000
0000
0002
0000
0000
0000
0000
0000
0000
0000
0000
0000
0000
0000
0000
0000
0000
0000
0020
0000
0000
0000
0000
0000
0000
0000
0000
0000
0000
0000
0000
0000
0000
3033
2222
3333
0000
0000
0000
0000
0000
0000
0000
0000
0000
0000
0000
0000
0000
0000
,  // measure 21
0001
0010
0000
0010
0100
0000
1000
0001
,  // measure 22
0000
0000
0010
0000
0001
0000
1000
0010
1010
0000
0000
0000
0101
0000
0000
0000
,  // measure 23
0010
0001
0000
0010
0100
0000
0010
0001
,  // measure 24
0000
0000
0001
0000
0100
0000
0010
0001
0011
0000
0000
0000
0101
0000
0000
0000
,  // measure 25
0010
0001
0000
1000
0001
0000
1000
0100
,  // measure 26
0000
0000
0010
0000
0001
0000
0100
0000
1000
0010
0001
1000
0010
0000
0100
0000
,  // measure 27
1000
0000
0001
1000
0001
0000
0010
1000
0001
0000
1000
0001
1001
0000
0000
0000
,  // measure 28
0001
0000
1000
0010
1000
0000
0100
0001
0010
0000
0100
1000
1100
0000
0000
0000
,  // measure 29
0010
0000
0100
0001
0100
0000
0010
0100
0001
0000
1000
0100
1100
0000
0000
0000
,  // measure 30
0001
0000
0010
1000
0010
0000
0100
0010
0001
0000
0010
0001
0011
0000
0000
0000
,  // measure 31
2002
0000
0000
0000
,  // measure 32
0100
0000
0010
0000
0100
0000
0010
0000
0100
0000
0010
0000
0100
0000
0010
0000
0100
0010
0100
0010
0100
0010
0100
0010
0100
0000
0010
0000
0100
0000
0010
0000
,  // measure 33
3103
0000
0000
0000
0101
0000
0010
0000
1000
0000
0000
0000
0100
0000
1000
0000
0010
0000
0001
0000
1000
0000
0110
0000
1000
0001
0010
0100
0001
0010
1000
0000
0001
0000
0010
0000
1000
0000
0110
0000
1000
0000
0000
0000
0010
0000
0100
0000
0001
0000
0010
0000
1000
0000
1001
0000
1000
0100
0010
1000
0100
0001
0010
0000
,  // measure 34
0001
0000
0000
0000
0011
0000
1000
0000
0100
0000
0000
0000
0001
0000
0100
0000
1000
0000
0010
0000
0100
0000
1001
0000
0100
0010
1000
0001
0010
1000
0100
0000
0010
0000
1000
0000
0100
0000
1001
0000
0100
0000
0000
0000
1000
0000
0001
0000
0010
0000
1000
0000
0100
0000
0110
0000
0100
0001
1000
0100
0001
0010
1000
0000
,  // measure 35
0010
0000
0000
0000
1010
0000
0100
0000
0001
0000
0000
0000
0010
0000
0001
0000
0100
0000
1000
0000
0001
0000
0110
0000
0001
1000
0100
0010
1000
0100
0001
0000
1000
0000
0100
0000
0001
0000
0110
0000
0001
0000
0000
0000
0100
0000
0010
0000
1000
0000
0100
0000
0001
0000
1001
0000
0001
0010
0100
0001
0010
1000
0100
0000
,  // measure 36
1000
0000
0000
0000
1100
0000
0001
0000
0010
0000
0000
0000
1000
0000
0010
0000
0001
0000
0100
0000
0010
0000
1001
0000
0010
0100
0001
1000
0100
0001
0010
0000
0100
0000
0001
0000
0010
0000
1001
0000
0010
0000
0000
0000
0001
0000
1000
0000
0100
0000
0001
0000
0010
0000
0110
0000
0010
1000
0001
0010
1000
0100
0001
0000
,  // measure 37
0010
0000
0000
0000
1010
0000
0100
0000
0001
0000
0000
0000
0010
0000
0001
0000
0100
0000
1000
0000
0001
0000
0110
0000
0001
1000
0100
0010
1000
0100
0001
0000
1000
0000
0000
0000
0100
0000
0000
0000
0010
0000
0000
0000
1000
0000
0000
0000
0001
0000
0000
0000
0100
0000
0000
0000
0010
0000
0000
0000
1000
0000
0000
0000
,  // measure 38
0001
0000
0100
0000
0010
0000
1000
0000
0001
0100
0010
1000
0001
0100
0010
1000
0001
0000
0010
0000
0100
0000
1000
0000
0001
0000
0000
0000
0010
0000
0000
0000
,  // measure 39
1000
0100
0010
0001
1000
0000
0100
0000
0001
0010
0100
1000
0001
0010
0100
1000
,  // measure 40
0001
0000
1001
0000
1001
0000
0000
0000
1000
0100
0010
0001
1000
0000
0010
0000
,  // measure 41
0001
0010
0100
1000
0001
0000
0100
0000
1000
0100
0010
0001
1000
0100
0010
0001
,  // measure 42
1000
0000
1001
0000
1001
0000
0000
0000
1000
0100
0010
0001
1000
0100
0010
0001
,  // measure 43
1000
0100
0010
0001
1000
0100
0010
0001
1000
0100
0010
0001
1000
0100
0010
0001
,  // measure 44
1000
0000
1001
0000
1001
0000
0000
0000
0001
0010
0100
1000
0001
0010
0100
1000
,  // measure 45
0001
0010
0100
1000
1001
0000
1001
0000
1000
0100
0010
0001
1000
0100
0010
0001
,  // measure 46
1000
0100
0010
0001
1001
0000
1001
0000
1010
0000
0001
0000
0011
0000
0100
0000
,  // measure 47
1010
0001
1100
0010
1001
0001
0110
0010
,  // measure 48
0101
0010
1010
0001
1100
0100
1010
0010
,  // measure 49
1100
0100
1001
0010
0101
0010
0110
1000
,  // measure 50
0011
1000
0101
1000
0110
1000
1001
0010
,  // measure 51
0101
0100
1010
0001
1100
0010
1001
0001
,  // measure 52
0110
0001
1100
0010
1001
0100
1010
0100
,  // measure 53
1001
0001
0110
0001
1010
0100
1001
0100
,  // measure 54
1010
0000
0001
0000
1100
0000
0010
0000
1000
0100
0010
0000
0100
0010
1000
0000
,  // measure 55
0001
0100
0001
0000
0010
0100
1000
0000
0001
1000
0100
0000
0010
0100
0001
0000
,  // measure 56
0010
0100
1000
0000
0100
0010
0001
1000
0010
0001
0100
0000
1000
0010
0100
0000
,  // measure 57
0001
0100
0010
0001
0010
0100
1000
0001
0010
1000
0100
0010
0100
0001
1000
0100
,  // measure 58
0010
0000
0100
0000
0001
0000
1000
0000
0100
0000
0010
0000
0001
0000
0010
0000
1000
0010
0100
0001
0010
0100
1000
0100
0010
0001
0100
0010
1000
0100
0010
1000
,  // measure 59
0001
0100
0010
0001
1000
0100
0010
1000
0001
1000
0010
0100
1000
0100
0010
0001
0111
0000
0000
0000
0000
0000
0000
0000
0000
0000
0000
0000
0000
0000
0000
0000
,  // measure 60
1110
0000
2222
0000
,  // measure 61
0000
0000
3333
0000
;
