#TITLE:Higan Retour;
#SUBTITLE:idling mix;
#ARTIST:ZUN;
#TITLETRANSLIT:;
#SUBTITLETRANSLIT:;
#ARTISTTRANSLIT:;
#CREDIT:;
#BANNER:Higan Retour-bnr.png;
#BACKGROUND:Higan Retour-bg.png;
#LYRICSPATH:;
#CDTITLE:;
#MUSIC:higan.mp3;
#OFFSET:1.160;
#SAMPLESTART:30.300;
#SAMPLELENGTH:12.000;
#SELECTABLE:YES;
#BPMS:0.000=100.000,20.000=200.000,183.000=400.000,184.000=200.000,187.000=400.000,188.000=200.000,191.000=400.000,192.000=200.000,195.000=400.000,196.000=200.000,199.000=400.000,200.000=200.000,203.000=400.000,204.000=200.000,207.000=400.000,208.000=200.000,211.000=400.000,212.000=50.000,216.000=100.000,232.000=200.000;
#STOPS:51.000=0.300
,183.000=0.150
,187.000=0.150
,191.000=0.150
,195.000=0.150
,199.000=0.150
,203.000=0.150
,207.000=0.150
,211.000=0.150
;
#BGCHANGES:;

//---------------dance-single - Wahyu D. L----------------
#NOTES:
     dance-single:
     Wahyu D. L:
     Challenge:
     15:
     1.000,1.000,0.527,0.029,1.000: // measure 1
0000
0000
0000
0000
,  // measure 2
0100
0000
0000
1000
0000
0000
0010
0000
0100
0000
0000
1000
0000
0000
0010
0000
,  // measure 3
1000
0100
0010
0100
0010
0000
0100
0000
1000
0000
0000
0010
0000
0000
0100
0000
,  // measure 4
0010
0000
0000
1000
0000
0000
0010
0000
0100
0000
0000
0001
0000
0000
0010
0000
,  // measure 5
0001
0010
0100
0000
0010
0000
0010
0000
0002
0000
0000
0000
0000
0000
0003
0000
,  // measure 6
0001
0000
0010
0000
1100
0000
0001
0010
0100
0001
1000
0000
0001
0100
0010
0000
,  // measure 7
1000
0000
0010
0000
1100
0000
0001
0010
0100
0001
1000
0000
0001
0100
0010
0000
,  // measure 8
1000
0000
0001
0000
1010
0000
0001
0010
0100
0001
0100
0000
1000
0100
0010
0000
,  // measure 9
0100
0001
1000
0100
1000
0001
0100
1000
0001
0100
0010
0001
1000
0100
0010
0000
,  // measure 10
0100
0000
0010
0000
0101
0000
1000
0010
0100
0001
1000
0000
0001
0100
0010
0000
,  // measure 11
0001
0000
1000
0000
0110
0000
0001
0010
0100
0001
1000
0000
1000
0100
0010
0000
,  // measure 12
0100
0000
0010
0000
1001
0000
0100
0010
0100
0001
1000
0000
1000
0100
0010
0000
,  // measure 13
0001
0100
0010
0100
0010
0100
0010
0100
0010
0100
0010
0100
0020
0000
0030
0000
,  // measure 14
0001
0000
1000
0000
0101
0000
0010
1000
0001
0010
0100
0000
0010
0001
1000
0000
,  // measure 15
0001
0000
1000
0000
0011
0000
0010
1000
0100
1000
0001
0000
1000
0010
1000
0000
,  // measure 16
0001
0000
1000
0000
0110
0000
1000
0100
0001
1000
0010
0000
1000
0010
0100
0000
,  // measure 17
0010
1000
0001
0010
0100
1000
0010
0100
1000
0100
0001
1000
0010
0001
0100
0000
,  // measure 18
0001
0000
1000
0000
0101
0000
0010
1000
0001
0010
0100
0000
0010
0001
1000
0000
,  // measure 19
0001
0000
1000
0000
1001
0000
0010
1000
0001
0010
0001
0000
0010
0100
1000
0000
,  // measure 20
0100
0000
0001
0000
0101
0000
0010
1000
0100
0010
0001
0000
0010
0100
1000
0000
,  // measure 21
0001
0010
0100
0010
0001
0010
1000
0010
0001
0010
0100
0010
0001
0010
1000
0010
,  // measure 22
0001
0000
0100
0000
1001
0000
0010
1000
0001
0010
0100
0000
1000
0001
1000
0000
,  // measure 23
0001
0000
1000
0000
0101
0000
0010
1000
0001
0010
0001
0000
0100
0001
0010
0000
,  // measure 24
1000
0000
0100
0000
1001
0000
0100
0010
0001
0010
1000
0000
0010
0001
1000
0000
,  // measure 25
0001
0010
0100
0001
1000
0010
0001
0100
0010
0001
0100
0010
1000
0001
0100
0000
,  // measure 26
0001
0000
1000
0000
0110
0000
0010
1000
0001
0010
0100
0000
0010
0001
1000
0000
,  // measure 27
0001
0000
0100
0000
1001
0000
0010
1000
0001
0010
0001
0000
0010
0001
0100
0000
,  // measure 28
1000
0000
0010
0000
0101
0000
0010
1000
0001
0100
0001
0000
0010
0100
1000
0000
,  // measure 29
0001
0000
0000
0000
0010
0000
0000
0000
0100
0000
0000
0000
1000
0000
0000
0000
0001
0000
0000
0000
0010
0000
0000
0000
0100
0000
0000
0000
1000
0000
0000
0000
0001
0000
0010
0000
0100
0000
1000
0000
0001
0000
0010
0000
0100
0000
1000
0000
0001
0010
0100
1000
0001
0010
0100
1000
0001
0010
0100
1000
0001
0010
0100
1000
,  // measure 30
0001
0010
0100
1000
0001
1000
0001
1000
0001
0010
0100
1000
0001
1000
0001
1000
,  // measure 31
0001
0010
0100
1000
0001
1000
0001
1000
0001
0010
0100
1000
0001
1000
0001
1000
,  // measure 32
0001
0010
0100
1000
0001
1000
0001
1000
0001
0010
0100
1000
0001
1000
0001
1000
,  // measure 33
0001
0010
0100
1000
0100
0010
0100
0010
1000
0100
0010
0001
1000
0001
1000
0001
,  // measure 34
1000
0100
0010
0001
1000
0001
1000
0001
1000
0100
0010
0001
1000
0001
1000
0001
,  // measure 35
1000
0100
0010
0001
1000
0001
1000
0001
1000
0100
0010
0001
1000
0001
1000
0001
,  // measure 36
1000
0100
0010
0001
1000
0001
1000
0001
1000
0100
0010
0001
1000
0001
1000
0001
,  // measure 37
1000
0100
0010
0001
0010
0100
1000
0100
0010
0001
0010
0100
1000
0100
0010
0001
,  // measure 38
1000
0100
0010
0001
0010
0100
0010
0100
0001
0010
0100
1000
0100
0010
0100
0010
,  // measure 39
1000
0100
0010
0001
0010
0100
0010
0100
0001
0010
0100
1000
0100
0010
0100
0010
,  // measure 40
1000
0100
0010
0001
0010
0100
0010
0100
0001
0010
0100
1000
0100
0010
0100
0010
,  // measure 41
1000
0100
0010
0001
0010
0100
0010
0100
0001
0010
0100
1000
0100
0010
0001
0010
,  // measure 42
1000
0100
0010
0001
0010
0001
0100
0010
0001
0010
0100
1000
0100
1000
0010
0100
,  // measure 43
1000
0100
0010
0001
0010
0001
0100
0010
0001
0010
0100
1000
0100
1000
0010
0100
,  // measure 44
1000
0100
0010
0001
0010
0001
0100
0010
0001
0010
0100
1000
0100
1000
0010
0100
,  // measure 45
1000
0000
0000
0000
0000
0000
0000
0000
0000
0000
0000
0000
0100
0000
0000
0000
0000
0000
0000
0000
0000
0000
0000
0000
0010
0000
0000
0000
0000
0000
0000
0000
0000
0000
0000
0000
0001
0000
0000
0000
0000
0000
0000
0000
0000
0000
0000
0000
1000
0000
0000
0000
0000
0000
0100
0000
0000
0000
0000
0000
0010
0000
0000
0000
0000
0000
0001
0000
0000
0000
0000
0000
1000
0000
0000
0000
0000
0000
0100
0000
0000
0000
0000
0000
0010
0000
0000
0000
0000
0000
0001
0000
0000
0000
0000
0000
1000
0000
0000
0000
0100
0000
0000
0000
0010
0000
0000
0000
0001
0000
0000
0000
1000
0000
0000
0000
0100
0000
0000
0000
0010
0000
0000
0000
0001
0000
0000
0000
1000
0000
0000
0000
0100
0000
0000
0000
0010
0000
0000
0000
0001
0000
0000
0000
1000
0000
0000
0100
0000
0000
0010
0000
0000
0001
0000
0000
1000
0000
0000
0100
0000
0000
0010
0000
0000
0001
0000
0000
1000
0000
0000
0100
0000
0000
0010
0000
0000
0001
0000
0000
1000
0000
0000
0100
0000
0000
0010
0000
0000
0001
0000
0000
,  // measure 46
1001
0000
1001
0000
1001
0000
1001
0000
1000
0100
0010
0001
1001
0000
0000
0000
,  // measure 47
1001
0000
1001
0000
1001
0000
1001
0000
0001
0010
0100
1000
1001
0000
0000
0000
,  // measure 48
1001
0000
1001
0000
1001
0000
1001
0000
1000
0100
0010
0001
1001
0000
0000
0000
,  // measure 49
1001
0000
1001
0000
1001
0000
1001
0000
0001
0010
0100
1000
1001
0000
0000
0000
,  // measure 50
1001
0000
1001
0000
1001
0000
1001
0000
1000
0100
0010
0001
1001
0000
0000
0000
,  // measure 51
1001
0000
1001
0000
1001
0000
1001
0000
0001
0010
0100
1000
1001
0000
0000
0000
,  // measure 52
1001
0000
1001
0000
1001
0000
1001
0000
1000
0100
0010
0001
1001
0000
0000
0000
,  // measure 53
0011
1100
0011
1100
0011
1100
0011
1100
0011
1100
0011
1100
0011
0000
0000
0000
,  // measure 54
2002
0000
0000
0000
0000
0000
0000
0000
0000
0000
0000
0000
0000
0000
0000
3003
,  // measure 55
0100
0000
0000
1000
0001
0000
0000
0000
0010
0000
1000
0000
0001
0000
0010
0000
,  // measure 56
0100
0000
0000
0000
0010
0000
1000
0000
0010
0000
0001
0010
0100
0010
1000
0100
1000
0000
0000
0000
1000
0000
0000
0000
0001
0000
1000
0000
0000
0000
1000
0000
,  // measure 57
0100
0000
0000
1000
0001
0000
0000
0000
0001
0000
1000
0000
0001
0000
0001
0000
,  // measure 58
1000
0000
0000
1000
0001
0000
0000
0000
1000
0000
1000
0000
0001
1000
0000
1000
,  // measure 59
0010
0000
0100
0000
0011
0000
1000
0001
0100
0010
0100
0000
1000
0001
1000
0000
,  // measure 60
0010
0000
0100
0000
0011
0000
1000
0001
0100
0010
0100
0000
0010
0001
1000
0000
,  // measure 61
0010
0000
0100
0000
0101
0000
1000
0001
0100
0010
0001
0010
0100
0001
1000
0010
,  // measure 62
0001
0010
0100
0001
1000
0100
0010
0001
1000
0010
0100
0001
1000
0001
1000
0010
,  // measure 63
0001
0000
0100
0000
0011
0000
1000
0001
0100
0010
0100
0000
1000
0001
1000
0000
,  // measure 64
0010
0000
0100
0000
0101
0000
1000
0001
0100
0010
0100
0000
0010
0001
1000
0000
,  // measure 65
0010
0000
0100
0000
0001
0000
1000
0001
0100
0010
0100
0000
1000
0001
0010
0000
,  // measure 66
0001
0010
0100
0010
0001
0100
1000
0001
0100
0001
1000
0001
0100
0010
0001
0100
,  // measure 67
0001
0000
1000
0000
0010
0000
1000
0001
0010
0000
0100
0001
0010
0100
0010
0000
,  // measure 68
0001
0000
1000
0000
0001
0000
0100
0001
0010
0000
0100
0001
0010
0100
0010
0000
,  // measure 69
0001
0000
0100
0000
0001
0000
0100
0001
0010
0000
0001
0010
0100
1000
0100
0000
,  // measure 70
1000
0000
0010
0000
0001
0000
0100
0001
1000
0000
0100
0001
0010
0100
1000
0000
,  // measure 71
0001
0000
1000
0000
0001
0000
0100
0001
0010
0000
0100
0001
0010
0100
0010
0000
,  // measure 72
0001
0000
1000
0000
0001
0000
0100
1000
0010
0000
0100
0001
0010
0100
1000
0000
,  // measure 73
0010
0000
1000
0000
0001
0000
0100
0001
1000
0000
0100
0001
0010
0100
1000
0000
,  // measure 74
0100
0010
0001
0010
0100
0010
0100
0010
0100
0010
0100
0010
0100
0010
0100
0010
,  // measure 75
0001
0000
1000
0000
0001
0000
0100
0001
0010
0000
0100
0001
0010
0100
0010
0000
,  // measure 76
0001
0000
1000
0000
0001
0000
0100
0001
0010
0000
0100
0001
0010
0100
1000
0000
,  // measure 77
0001
0000
0100
0000
0001
0000
1000
0001
0010
0000
0010
0001
0010
0100
1000
0000
,  // measure 78
0100
0000
0010
0000
0001
0000
0100
0001
1000
0000
0100
0001
0010
0100
1000
0000
,  // measure 79
0100
0000
0001
0000
1000
0000
0010
1000
0100
0000
0010
1000
0100
0010
0100
0000
,  // measure 80
1000
0000
0001
0000
1000
0000
0010
1000
0100
0000
0001
1000
0010
0001
0010
0000
,  // measure 81
0100
0000
0010
0000
1000
0000
0010
1000
0001
0000
0010
1000
0100
0010
0100
0000
,  // measure 82
0010
0100
1000
0100
0010
0100
0010
0100
0010
0100
0010
0100
0010
0100
0010
0100
,  // measure 83
1000
0000
0001
0000
0010
0000
0001
0010
1000
0000
0001
0010
1000
0001
1000
0000
,  // measure 84
0010
0000
0100
0000
0010
0000
0001
0100
1000
0000
0010
0001
1000
0010
1000
0000
,  // measure 85
0010
0000
0001
0000
0010
0000
0001
0010
1000
0000
1000
0100
0010
0001
0010
0000
,  // measure 86
0001
0000
1000
0000
0010
0000
0001
0010
0100
0000
0001
0010
1000
0001
0010
0000
,  // measure 87
0100
0000
1000
0000
0010
0000
0001
0100
0010
0000
0001
0010
0100
1000
0001
0000
,  // measure 88
0010
0000
0100
0000
1000
0000
0001
0010
0100
0000
1000
0010
0100
0001
0010
0000
,  // measure 89
0010
0000
1000
0000
0010
0000
1000
0010
0001
0000
0100
0010
1000
0001
1000
0000
,  // measure 90
1000
0010
0001
1000
0001
1000
0001
1000
0001
1000
0001
1000
0001
1000
0001
1000
,  // measure 91
0010
0000
0010
0000
0100
0000
1000
0100
0001
0000
0010
0100
0010
1000
0001
0000
,  // measure 92
0100
0000
0001
0000
0100
0000
1000
0010
0001
0000
0010
0100
1000
0100
0001
0000
,  // measure 93
0100
0000
0010
0000
0001
0000
0010
0100
0001
0000
0100
1000
0100
0010
0001
0000
,  // measure 94
0010
0000
0001
0000
0010
0000
1000
0001
0010
0000
1000
0100
0010
1000
0010
0000
,  // measure 95
0001
0000
0010
0000
0100
0000
1000
0100
0010
0000
0001
0100
0010
1000
0010
0000
,  // measure 96
1000
0000
0010
0000
0001
0000
1000
0010
0001
0000
0010
0100
0001
1000
0100
0000
,  // measure 97
0001
0000
0010
0000
0100
0000
1000
0100
0010
0000
1000
0010
0001
1000
0001
0000
,  // measure 98
0001
0100
1000
0001
1000
0001
1000
0001
1000
0001
1000
0001
1000
0001
1000
0001
,  // measure 99
1001
0000
0000
0000
;

//---------------dance-single - Wahyu D. L----------------
#NOTES:
     dance-single:
     Wahyu D. L:
     Hard:
     9:
     0.752,0.884,0.296,0.130,0.191: // measure 1
0000
0000
0000
0000
,  // measure 2
0100
0000
0000
1000
0000
0000
0010
0000
0100
0000
0000
1000
0000
0000
0010
0000
,  // measure 3
1000
0100
0010
0100
0010
0000
0100
0000
1000
0000
0000
0010
0000
0000
0100
0000
,  // measure 4
0010
0000
0000
1000
0000
0000
0010
0000
0100
0000
0000
0001
0000
0000
0010
0000
,  // measure 5
0001
0010
0100
0000
0010
0000
0010
0000
0002
0000
0000
0000
0000
0000
0003
0000
,  // measure 6
1000
0100
0010
0100
0001
0010
1000
0000
,  // measure 7
1000
0100
0010
0100
0001
0010
0100
1000
,  // measure 8
0001
0010
0100
1000
0001
1000
0100
0010
,  // measure 9
0001
1000
0001
1000
0001
0100
0001
0100
,  // measure 10
0001
0010
0100
1000
0001
1000
0100
0000
,  // measure 11
1000
0010
0100
0001
0010
0100
1000
0001
,  // measure 12
1000
0100
0010
0100
0001
0010
0100
1000
,  // measure 13
0001
1000
0001
1000
0001
1000
0001
0000
,  // measure 14
1000
0100
1000
0010
0100
0001
0011
0000
,  // measure 15
0100
1000
0010
0100
1000
0001
1010
0000
,  // measure 16
0100
0010
0100
1000
0001
0100
1010
0100
,  // measure 17
0101
0001
0010
0100
1000
0001
1000
0010
,  // measure 18
1001
0000
0100
1010
0000
0100
0001
0010
,  // measure 19
0100
0000
1000
1001
0000
0001
1001
0000
,  // measure 20
0010
0100
1000
0001
1000
0100
0010
0100
,  // measure 21
2002
0000
0000
0000
0000
0000
0000
3003
,  // measure 22
1000
0100
1000
1010
0000
0100
0001
0010
,  // measure 23
0100
1000
0001
1001
0000
1000
0001
1000
,  // measure 24
0001
0010
0100
1010
0000
0100
0010
0100
,  // measure 25
0001
0010
0100
1000
0001
1000
0001
1000
,  // measure 26
0100
0010
0001
0010
0100
1000
0001
1000
,  // measure 27
0100
0010
0100
0001
0000
0010
0100
0000
,  // measure 28
1000
0100
0010
0100
0001
0010
0100
0010
,  // measure 29
2000
0000
0000
0000
0200
0000
0000
0000
0020
0000
0000
0000
0002
0000
0000
3333
,  // measure 30
0001
0010
0100
1000
0001
0010
0100
1000
,  // measure 31
0001
0010
0100
1000
0001
0010
0100
1000
,  // measure 32
1000
0100
0010
0001
1000
0100
0010
0001
,  // measure 33
1000
0100
0010
0001
0001
0010
0100
1000
,  // measure 34
1000
0100
0010
0001
1000
0100
0010
0001
,  // measure 35
1000
0100
0010
0001
1000
0100
0010
0001
,  // measure 36
0001
0010
0100
1000
0001
0010
0100
1000
,  // measure 37
0001
0010
0100
1000
0100
0010
0001
0010
,  // measure 38
1000
0010
0100
0001
1000
0010
0100
0001
,  // measure 39
1000
0010
0100
0001
1000
0010
0100
0001
,  // measure 40
0001
0100
0010
1000
0001
0100
0010
1000
,  // measure 41
0001
0100
0010
1000
1000
0010
0100
0001
,  // measure 42
0001
0100
0010
1000
0001
0100
0010
1000
,  // measure 43
0001
0100
0010
1000
0001
0100
0010
1000
,  // measure 44
1000
0010
0100
0001
0010
0001
0100
0010
,  // measure 45
2002
0000
0000
0000
0000
0000
0000
3003
,  // measure 46
1000
0000
0001
0000
1000
0000
0001
0000
1000
0001
1000
0001
1000
0000
0000
0000
,  // measure 47
0001
0000
1000
0000
0001
0000
1000
0000
0001
1000
0001
1000
0001
0000
0000
0000
,  // measure 48
1000
0000
0001
0000
1000
0000
0001
0000
1000
0001
1000
0001
1000
0000
0000
0000
,  // measure 49
0001
0000
1000
0000
0001
0000
1000
0000
0001
1000
0001
1000
0001
0000
0000
0000
,  // measure 50
1000
0000
0000
0000
1000
0000
0001
0000
1000
0001
1000
0001
1000
0000
0000
0000
,  // measure 51
0001
0000
0000
0000
0001
0000
1000
0000
0001
1000
0001
1000
0001
0000
0000
0000
,  // measure 52
1000
0000
0000
0000
1000
0000
0001
0000
1000
0001
1000
0001
1000
0000
0000
0000
,  // measure 53
0001
1000
0001
1000
0001
1000
0001
1000
0001
1000
0001
1000
0001
0000
0000
0000
,  // measure 54
2002
0000
0000
0000
0000
0000
0000
0000
0000
0000
0000
0000
0000
0000
0000
3003
,  // measure 55
1000
0000
0100
0000
0010
0000
1000
0001
,  // measure 56
0100
0000
0000
0000
0010
0000
1000
0000
0010
0000
0001
0010
0100
0010
1000
0100
1000
0000
0000
0000
0000
0000
0000
0000
0000
0000
0000
0000
0000
0000
0000
0000
,  // measure 57
1000
0000
0100
0000
0010
0000
0001
0010
,  // measure 58
0100
0000
0000
0000
,  // measure 59
1000
0000
0010
0000
,  // measure 60
0100
0000
0001
0010
,  // measure 61
0100
0000
0010
0000
1000
0000
0010
0000
0000
0000
0001
0010
0001
0100
0010
1000
,  // measure 62
0100
0000
0000
0000
,  // measure 63
0001
0000
0010
0000
,  // measure 64
1000
0000
0001
0010
,  // measure 65
2100
0000
0000
0000
0000
0000
0000
3000
0210
0000
0000
0000
0000
0000
0000
0300
,  // measure 66
0012
0000
0000
0003
2001
0000
0000
3000
1002
0000
0000
0003
2001
0000
0000
3000
,  // measure 67
0001
0010
0100
1000
0001
1000
0100
0010
,  // measure 68
0100
0001
0010
0100
1000
0001
1000
0010
,  // measure 69
0100
1000
0001
0100
0000
0010
1000
0100
,  // measure 70
0001
0000
0010
0100
0000
0001
1000
0010
,  // measure 71
0100
0001
0010
1000
0000
0100
1000
0010
,  // measure 72
0100
0001
1000
0010
0100
0001
0010
0100
,  // measure 73
0002
0000
0000
0000
0000
0000
0000
0003
,  // measure 74
1000
0100
0010
0001
1000
0001
0010
0100
,  // measure 75
1000
0000
1000
0100
0000
1000
0010
0100
,  // measure 76
0001
0010
0100
1000
0000
1000
0001
1000
,  // measure 77
0010
0100
0001
0010
0000
1000
0100
0010
,  // measure 78
0001
0000
0001
1000
0000
0010
0100
0001
,  // measure 79
0010
1000
0001
1000
0000
0010
0100
0001
,  // measure 80
0010
0100
1000
0001
1000
0010
0100
0001
,  // measure 81
1000
0010
0100
0001
0100
1000
0010
0001
,  // measure 82
0010
0100
0010
0100
0010
0100
0010
0100
0010
0100
0010
0100
0010
0100
0010
0100
,  // measure 83
0010
1000
0001
1000
0000
0010
0100
0001
,  // measure 84
0010
0100
1000
0001
0000
1000
0100
1000
,  // measure 85
0010
0100
0001
0010
0000
1000
0100
1000
,  // measure 86
1010
0000
0100
0101
0000
0001
0011
0010
,  // measure 87
1010
0000
0100
0101
0000
1000
0010
0100
,  // measure 88
0110
0000
0001
0101
0000
0001
1010
0100
,  // measure 89
0110
0000
0001
1100
0000
0010
1000
0001
,  // measure 90
0110
0001
0011
0001
0101
0100
1100
0100
,  // measure 91
1010
0000
1000
0010
0000
0100
1000
0010
,  // measure 92
1100
0000
1000
1010
0000
0100
0001
0100
,  // measure 93
1000
0010
0100
0001
0010
0100
1000
0001
,  // measure 94
1001
0000
1001
1001
0000
0010
0100
0001
,  // measure 95
0010
0000
0100
1000
0000
1000
0100
0010
,  // measure 96
0100
0001
0010
0100
0000
1000
0100
1000
,  // measure 97
1010
0000
0100
0001
0000
0010
0100
1000
,  // measure 98
0010
0100
0010
0100
0010
0100
0010
0100
0010
0100
0010
0100
0010
0100
0010
0100
,  // measure 99
0010
0000
0000
0000
;

//---------------dance-single - Wahyu D. L----------------
#NOTES:
     dance-single:
     Wahyu D. L:
     Beginner:
     2:
     0.127,0.248,0.079,0.022,0.000:
0000
0000
0000
0000
,
0000
0000
0000
0000
,
0000
0000
0000
0000
,
0000
0000
0000
0000
,
0000
0000
0000
0000
,
1000
0000
0000
0000
,
0001
0000
0000
0000
,
0001
0000
0000
0000
,
0010
0000
0000
0000
,
0100
0000
0000
0000
,
0010
0000
0000
0000
,
0001
0000
0000
0000
,
2000
0000
0000
3000
,
0001
0000
0000
0000
,
0010
0000
0000
0000
,
0001
0000
0000
0000
,
1000
0000
0000
0000
,
0100
0000
0000
0000
,
1000
0000
0000
0000
,
0001
0000
0000
0000
,
0010
0000
0000
0000
,
1000
0000
0000
0000
,
0001
0000
0000
0000
,
1000
0000
0000
0000
,
0100
0000
0000
0000
,
1000
0000
0000
0000
,
0001
0000
0000
0000
,
0010
0000
0000
0000
,
0001
0000
0000
0000
,
1000
0000
1000
0000
,
0100
0000
0100
0000
,
0001
0000
0001
0000
,
0010
0000
0010
0000
,
1000
0000
1000
0000
,
0100
0000
0100
0000
,
1000
0000
1000
0000
,
0001
0000
0000
0000
,
0001
0000
0001
0000
,
0010
0000
0010
0000
,
0100
0000
0100
0000
,
1000
0000
1000
0000
,
0100
0000
0100
0000
,
0001
0000
0001
0000
,
0010
0000
0010
0000
,
1000
0000
0000
0000
,
1000
0000
0001
1001
,
0000
0000
0000
1001
,
0000
0000
0000
1001
,
0000
0000
0000
1001
,
0000
0000
0000
1001
,
0000
0000
0000
1001
,
0000
0000
0000
1001
,
0000
0000
0000
1001
,
2002
0000
0000
0000
0000
0000
0000
3003
,
1000
0000
0000
0000
,
0000
0000
0000
0000
,
0010
0000
0000
0000
,
0000
0000
0000
0000
,
1001
0000
0000
0000
,
0100
0000
0000
0000
,
0010
0000
0000
0000
,
1000
0000
0000
0000
,
0001
0000
0000
0000
,
0010
0000
0000
0000
,
0001
0000
0000
0000
,
1000
0000
1000
0000
,
0100
0000
0000
0000
,
1000
0000
0000
0000
,
0001
0000
0000
0000
,
0010
0000
0000
0000
,
0100
0000
0000
0000
,
0001
0000
0000
0000
,
0010
0000
0000
0000
,
0001
0000
0000
0000
,
1000
0000
0000
0000
,
0100
0000
0000
0000
,
1000
0000
0000
0000
,
0001
0000
0000
0000
,
0010
0000
0000
0000
,
0001
0000
0000
0000
,
1000
0000
0000
0000
,
0100
0000
0000
0000
,
1000
0000
0000
0000
,
0001
0000
0000
0000
,
1000
0000
0000
0000
,
0010
0000
0000
0000
,
0100
0000
0000
0000
,
1000
0000
0000
0000
,
0001
0000
0000
0000
,
0010
0000
0000
0000
,
0001
0000
0000
0000
,
1000
0000
0000
0000
,
0100
0000
0000
0000
,
1000
0000
0000
0000
,
0001
0000
0000
0000
,
0010
0000
0000
0000
,
0001
0000
0000
0000
,
1000
0000
0000
0000
,
1001
0000
0000
0000
;

//---------------dance-single - Wahyu D. L----------------
#NOTES:
     dance-single:
     Wahyu D. L:
     Easy:
     3:
     0.322,0.495,0.144,0.101,0.000: // measure 1
0000
0000
0000
0000
,  // measure 2
0000
0000
0000
0000
,  // measure 3
0000
0000
0000
0000
,  // measure 4
0000
0000
0000
0000
,  // measure 5
0000
0000
0000
0000
,  // measure 6
1000
0000
0001
0000
,  // measure 7
0010
0000
1000
0000
,  // measure 8
0100
0000
1000
0000
,  // measure 9
0001
0010
0100
1000
,  // measure 10
0001
0000
1000
0000
,  // measure 11
0100
0000
1000
0000
,  // measure 12
0010
0000
1000
0000
,  // measure 13
0100
0010
0001
0010
,  // measure 14
1000
0000
0100
0000
,  // measure 15
1000
0000
0010
0000
,  // measure 16
1000
0001
0100
0010
,  // measure 17
1000
0000
0001
0000
,  // measure 18
0010
0000
1000
0000
,  // measure 19
0100
0000
1000
0000
,  // measure 20
0010
1000
0100
0001
,  // measure 21
0220
0000
0000
0000
0000
0000
0000
0330
,  // measure 22
0001
0000
1000
0000
,  // measure 23
0010
0000
0100
0000
,  // measure 24
1000
0001
0100
0010
,  // measure 25
1000
0000
0001
0000
,  // measure 26
0010
0000
1000
0000
,  // measure 27
0100
0000
1000
0000
,  // measure 28
0010
1000
0001
0100
,  // measure 29
2000
0000
0002
0020
,  // measure 30
3133
0000
0001
0000
,  // measure 31
0010
1000
0001
0000
,  // measure 32
0100
0000
1000
0000
0010
0000
1000
0001
,  // measure 33
0000
0001
0100
1000
0100
0000
0000
0000
,  // measure 34
0001
0000
0010
0000
,  // measure 35
1000
0000
0001
0000
0010
0000
1000
0001
,  // measure 36
1000
0000
0100
0000
1000
0010
1000
0001
,  // measure 37
0100
0000
0000
0000
,  // measure 38
0001
0000
1000
0000
,  // measure 39
0010
0100
0001
0000
,  // measure 40
1000
0000
0100
0000
0001
0000
1000
0010
,  // measure 41
0000
1000
0001
1000
0100
0000
0000
0000
,  // measure 42
0010
0000
0001
0000
,  // measure 43
1000
0000
0100
0000
1000
0000
0010
1000
,  // measure 44
0001
0000
0100
0000
0001
0010
0100
1000
,  // measure 45
2002
0000
0000
0000
0000
0000
0000
3003
,  // measure 46
1000
0000
0001
0000
1000
0001
1000
0000
,  // measure 47
0001
0000
1000
0000
0001
1000
0001
0000
,  // measure 48
1000
0000
0001
0000
1000
0001
1000
0000
,  // measure 49
0001
0000
1000
0000
0001
1000
0001
0000
,  // measure 50
1000
0000
1000
0000
0001
1000
0001
0000
,  // measure 51
1000
0000
1000
0000
0001
1000
0001
0000
,  // measure 52
1000
0000
1000
0000
0001
1000
0001
0000
,  // measure 53
1000
0001
1000
0001
1000
0001
1000
0000
,  // measure 54
2002
0000
0000
0000
0000
0000
0000
3003
,  // measure 55
1000
0011
0100
0101
,  // measure 56
0010
1100
0100
1001
,  // measure 57
0001
1010
0001
0110
,  // measure 58
1000
0011
1000
0110
,  // measure 59
1000
0000
0100
0000
,  // measure 60
1000
0000
0010
0000
,  // measure 61
0100
0001
0010
0100
,  // measure 62
2000
0000
0000
0000
0000
0000
0000
3000
,  // measure 63
1000
0000
0001
0000
,  // measure 64
0010
0000
1000
0100
,  // measure 65
1001
0000
0011
0000
,  // measure 66
1010
1100
1010
1001
,  // measure 67
0101
0000
0010
0000
,  // measure 68
1000
0000
0100
1000
,  // measure 69
0010
0100
0001
0010
,  // measure 70
1000
0000
0000
0000
,  // measure 71
1000
0000
0001
0000
,  // measure 72
0010
0000
0100
0001
,  // measure 73
0220
0000
0000
0000
,  // measure 74
0000
0000
0000
0000
0000
0000
0000
0330
,  // measure 75
0010
0000
0100
0000
,  // measure 76
0001
0000
1000
0100
,  // measure 77
1000
0010
0000
0100
,  // measure 78
0001
0000
0000
0010
,  // measure 79
1000
0000
0001
0000
,  // measure 80
0010
0000
1000
0001
,  // measure 81
0020
0100
0100
0100
,  // measure 82
0100
0000
0100
0000
0100
0000
0100
0030
,  // measure 83
0001
0000
1000
0000
,  // measure 84
0010
0000
0100
0001
,  // measure 85
0010
0100
1000
0001
,  // measure 86
1000
0000
0000
0000
,  // measure 87
1000
0000
0100
0000
,  // measure 88
1000
0000
0001
1000
,  // measure 89
0010
0000
0000
0000
,  // measure 90
1000
0100
0010
0001
,  // measure 91
0010
0000
0100
0000
,  // measure 92
1000
0000
0001
0100
,  // measure 93
1000
0010
0100
0001
,  // measure 94
1000
0000
0000
0000
,  // measure 95
1000
0000
0100
0000
,  // measure 96
1000
0000
0010
0100
,  // measure 97
0001
1000
0100
1000
,  // measure 98
0200
0010
0010
0310
,  // measure 99
1001
0000
0000
0000
;

//---------------dance-single - Wahyu D. L----------------
#NOTES:
     dance-single:
     Wahyu D. L:
     Medium:
     7:
     0.573,0.672,0.072,0.296,0.119: // measure 1
0000
0000
0000
0000
,  // measure 2
1000
0000
0000
0001
0000
0000
0010
0000
1000
0000
0000
0100
0000
0000
0010
0000
,  // measure 3
1000
0000
0100
0000
0010
0000
0100
0000
0001
0000
0000
0010
0000
0000
1000
0000
,  // measure 4
0100
0000
0000
1000
0000
0000
0010
0000
0100
0000
0000
0001
0000
0000
0010
0000
,  // measure 5
1000
0100
1000
0010
0100
0000
0000
0000
,  // measure 6
1000
0000
0000
0010
0000
0000
0100
0000
,  // measure 7
1000
0000
0000
0001
0000
0000
0010
0000
,  // measure 8
1000
0001
1000
0100
1000
0000
0010
0000
,  // measure 9
1000
0000
0000
0001
0000
0000
0010
0000
,  // measure 10
0100
0000
0000
0001
0000
0000
1000
0000
,  // measure 11
0010
0000
0000
0100
0000
0000
1000
0000
,  // measure 12
0001
0010
0100
0000
1000
0000
0001
0000
,  // measure 13
2000
0000
0000
0000
0000
0000
0000
0000
0000
0000
0000
0000
0000
0000
0000
0000
0000
0000
0000
0000
0000
0000
0000
0000
3002
0000
0000
0003
0000
0000
0000
0000
,  // measure 14
0001
0000
0000
0010
0000
0000
0100
0000
,  // measure 15
1000
0000
0000
0001
0000
0000
0100
0000
,  // measure 16
0010
1000
0001
0100
1000
0000
0001
0000
,  // measure 17
1000
0000
0000
1000
0000
0010
1000
0000
,  // measure 18
0100
0000
0010
1000
0000
1000
0010
0000
,  // measure 19
0100
0000
1000
0010
0000
1000
0001
0000
,  // measure 20
0100
1000
0010
0000
0110
0000
0110
0000
,  // measure 21
0220
0000
0000
0000
0000
0000
0000
0330
,  // measure 22
0010
0000
0010
1000
0000
0001
1000
0000
,  // measure 23
0100
0000
0010
0100
0000
0001
0010
0000
,  // measure 24
0001
0100
1000
0010
1000
0000
0001
0000
,  // measure 25
0100
0000
0010
1000
0000
1000
0001
0000
,  // measure 26
0100
0000
0010
1000
0000
0001
0100
0000
,  // measure 27
1000
0000
0010
1000
0000
0001
0100
0000
,  // measure 28
0010
1000
0001
0000
0100
0000
0010
0000
,  // measure 29
2000
0000
0000
0000
0200
0000
0000
0000
0020
0000
0000
0000
0002
0000
0000
3333
,  // measure 30
0001
0000
0000
0000
0001
0000
0010
0000
0000
0000
1000
0100
1000
0000
0100
0000
,  // measure 31
0010
0100
0001
0010
0100
1000
0010
1000
,  // measure 32
0001
0000
0000
0000
0100
0000
0010
0000
0000
0000
1000
0001
1000
0000
0100
0000
,  // measure 33
0010
0000
1000
0001
1000
0000
0010
0000
0200
0000
0000
0000
0000
0000
0300
0000
,  // measure 34
1000
0000
0000
0000
0001
0000
0010
0000
0000
0000
0001
1000
0001
0000
0010
0000
,  // measure 35
0100
1000
0010
1000
0001
0100
0001
0010
,  // measure 36
0100
0000
1000
0001
1000
0000
0010
0000
0100
0000
0010
0000
0001
0000
0100
0000
,  // measure 37
2000
0000
0000
0000
0000
0000
0000
3000
,  // measure 38
1000
0000
0000
0000
0001
0000
1000
0000
0000
0000
1000
0001
1000
0000
0010
0000
,  // measure 39
1000
0100
0010
0001
0010
0100
1000
0010
,  // measure 40
1000
0000
0000
0000
1000
0000
0001
0000
0000
0000
1000
0100
1000
0000
0010
0000
,  // measure 41
1000
0001
1000
0100
0020
0000
0000
0030
,  // measure 42
0001
0000
0000
0000
0010
0000
0100
0000
0000
0000
1000
0001
1000
0000
0100
0000
,  // measure 43
1000
0010
1000
0100
0001
0010
0100
1000
,  // measure 44
0002
0000
2003
0000
3010
1000
0100
0010
,  // measure 45
0001
0010
0100
1000
,  // measure 46
1000
0000
0000
0000
0001
0000
0000
0000
1000
0001
1000
0001
1000
0000
0000
0000
,  // measure 47
0001
0000
0000
0000
1000
0000
0000
0000
0001
1000
0001
1000
0001
0000
0000
0000
,  // measure 48
1000
0000
0000
0000
0001
0000
0000
0000
1000
0001
1000
0001
1000
0000
0000
0000
,  // measure 49
0001
0000
0000
0000
1000
0000
0000
0000
0001
1000
0001
1000
0001
0000
0000
0000
,  // measure 50
1000
0000
0001
0000
1000
0000
0001
0000
1000
0001
1000
0001
1000
0000
0000
0000
,  // measure 51
0001
0000
1000
0000
0001
0000
1000
0000
0001
1000
0001
1000
0001
0000
0000
0000
,  // measure 52
1000
0000
0001
0000
1000
0000
0001
0000
1000
0001
1000
0001
1000
0000
0000
0000
,  // measure 53
0001
1000
0001
1000
0001
1000
0001
1000
0001
1000
0001
1000
0001
0000
0000
0000
,  // measure 54
2002
0000
0000
0000
0000
0000
0000
0000
0000
0000
0000
0000
0000
0000
0000
3003
,  // measure 55
1000
0000
0100
0000
1000
0001
0010
0000
,  // measure 56
1000
0000
0001
0000
0010
0100
0001
0100
,  // measure 57
0010
0000
1000
0000
0100
1000
0010
0000
,  // measure 58
0100
0000
0001
0000
0010
1000
0100
0001
,  // measure 59
1000
0100
0010
0100
,  // measure 60
0001
0010
0100
1000
,  // measure 61
0001
1000
0010
0100
,  // measure 62
1000
0100
0010
0001
0010
0100
0001
0010
,  // measure 63
0001
0000
0010
0000
,  // measure 64
1000
0000
0001
0010
,  // measure 65
2100
0000
0000
0000
0000
0000
0000
3000
0210
0000
0000
0000
0000
0000
0000
0300
,  // measure 66
0012
0000
0000
0003
2001
0000
0000
3000
1002
0000
0000
0003
2001
0000
0000
3000
,  // measure 67
0002
0000
0000
0003
0002
0000
0000
0003
,  // measure 68
0020
0000
0000
0030
1000
0000
0100
0000
,  // measure 69
0010
1000
0001
0100
0000
0010
1000
0100
,  // measure 70
0002
0000
0000
0000
0000
0003
0020
0000
,  // measure 71
2030
0000
3002
0000
,  // measure 72
0203
0000
0320
2030
,  // measure 73
3002
0103
0010
1000
,  // measure 74
0001
1000
0010
0100
1000
0010
1000
0001
,  // measure 75
0200
0000
0302
0000
,  // measure 76
0023
0000
1030
0001
,  // measure 77
0010
1000
0001
0100
0000
0010
1000
0100
,  // measure 78
0001
0010
0100
2000
,  // measure 79
3002
0000
0023
0000
,  // measure 80
0230
0000
2300
3020
,  // measure 81
1030
0001
0100
0000
0010
0100
1000
0000
,  // measure 82
0001
0010
1000
0001
0100
0010
0000
0100
,  // measure 83
0000
0001
0000
0000
1000
0000
0000
0000
,  // measure 84
0010
0000
1000
0100
,  // measure 85
0001
0010
0100
1000
0000
0010
1000
0001
,  // measure 86
1000
0010
1000
1000
,  // measure 87
0010
0000
0000
1000
0010
1000
0100
1000
,  // measure 88
0001
0000
1000
0001
0010
0000
0001
0000
,  // measure 89
0100
0000
0010
0100
1000
0010
1000
0001
,  // measure 90
0100
0010
0100
0001
0010
0001
0100
1000
,  // measure 91
0010
0000
0010
1000
0100
0000
0010
1000
,  // measure 92
0001
0000
0100
0010
0001
0000
0100
0000
,  // measure 93
0010
1000
0001
1000
0000
0100
0010
1000
,  // measure 94
0001
0100
0100
0100
,  // measure 95
0001
0000
0010
1000
0001
0000
1000
0010
,  // measure 96
0100
0000
0001
0010
0001
0000
0100
0000
,  // measure 97
0010
0000
1000
0001
1000
0000
0100
0000
,  // measure 98
0010
1000
0001
0100
1000
0010
1000
0001
,  // measure 99
1000
0000
0000
0000
;
