#TITLE:Hardkore of the North;
#SUBTITLE:;
#ARTIST:Diclonius Kid;
#TITLETRANSLIT:;
#SUBTITLETRANSLIT:;
#ARTISTTRANSLIT:;
#CREDIT:;
#BANNER:Hardkore of the North-bnr.png;
#BACKGROUND:Hardkore of the North-bg.png;
#LYRICSPATH:;
#CDTITLE:;
#MUSIC:Hardkore of the North.ogg;
#OFFSET:-0.034;
#SAMPLESTART:22.773;
#SAMPLELENGTH:11.620;
#SELECTABLE:YES;
#DISPLAYBPM:190.000;
#BPMS:0.000=142.500,0.500=285.000,1.000=142.500,1.500=285.000,2.000=142.500,2.500=285.000,3.000=142.500,3.500=285.000,4.000=142.500,4.500=285.000,5.000=142.500,5.500=285.000,6.000=142.500,6.500=285.000,7.000=142.500,7.500=285.000,8.000=190.000,27.000=380.000,29.000=190.000,34.000=380.000,36.000=190.000,38.000=380.000,42.000=190.000,70.000=95.000,71.000=380.000,73.000=190.000,102.000=380.000,106.000=190.000,138.000=380.000,140.000=142.500,140.500=285.000,141.000=142.500,141.500=285.000,142.000=380.000,144.000=142.500,144.500=285.000,145.000=142.500,145.500=285.000,146.000=380.000,148.000=142.500,148.500=285.000,149.000=380.000,151.000=142.500,151.500=285.000,152.000=142.500,152.500=285.000,153.000=380.000,155.000=142.500,155.500=285.000,156.000=142.500,156.500=285.000,157.000=142.500,157.500=285.000,158.000=380.000,160.000=190.000,161.000=142.500,161.500=285.000,162.000=142.500,162.500=285.000,163.000=380.000,165.000=142.500,165.500=285.000,166.000=142.500,166.500=285.000,167.000=380.000,169.000=190.000,170.000=380.000,172.000=142.500,172.500=285.000,173.000=380.000,175.000=142.500,175.500=285.000,176.000=142.500,176.500=285.000,177.000=142.500,177.500=285.000,178.000=142.500,178.500=285.000,179.000=142.500,179.500=285.000,180.000=190.000,187.000=380.000,189.000=190.000,192.000=380.000,198.000=190.000,228.000=380.000,230.000=1520.000,272.000=190.000,287.000=380.000,289.000=190.000,304.000=380.000,306.000=190.000,321.000=380.000,323.000=190.000,338.000=380.000,340.000=142.500,340.500=285.000,341.000=142.500,341.500=285.000,342.000=142.500,342.500=285.000,343.000=142.500,343.500=285.000,344.000=142.500,344.500=285.000,345.000=142.500,345.500=285.000,346.000=142.500,346.500=285.000,347.000=142.500,347.500=285.000,348.000=142.500,348.500=285.000,349.000=142.500,349.500=285.000,350.000=142.500,350.500=285.000,351.000=142.500,351.500=285.000,352.000=142.500,352.500=285.000,353.000=142.500,353.500=285.000,354.000=142.500,354.500=285.000,355.000=142.500,355.500=285.000,356.000=142.500,356.500=285.000,357.000=142.500,357.500=285.000,358.000=142.500,358.500=285.000,359.000=142.500,359.500=285.000,360.000=142.500,360.500=285.000,361.000=142.500,361.500=285.000,362.000=95.000,363.000=190.000;
#STOPS:38.000=0.080
,38.500=0.080
,39.000=0.080
,39.500=0.080
,40.000=0.040
,40.250=0.040
,40.500=0.040
,40.750=0.040
,41.000=0.040
,41.250=0.040
,41.500=0.050
,41.750=0.040
,102.000=0.080
,102.500=0.080
,103.000=0.080
,103.500=0.080
,104.000=0.040
,104.250=0.040
,104.500=0.040
,104.750=0.040
,105.000=0.050
,105.250=0.040
,105.500=0.040
,105.750=0.040
,194.000=0.080
,194.500=0.080
,195.000=0.080
,195.500=0.070
,196.000=0.040
,196.250=0.040
,196.500=0.040
,196.750=0.040
,197.000=0.040
,197.250=0.040
,197.500=0.040
,197.750=0.040
,230.000=1.145
;
#BGCHANGES:;

//---------------dance-single - Wahyu D. L----------------
#NOTES:
     dance-single:
     Wahyu D. L:
     Challenge:
     15:
     1.000,1.000,0.753,0.635,1.000: // measure 1
0000
0000
0000
0000
0000
0000
M000
0M00
,  // measure 2
M0M0
0M0M
M0M0
0M0M
M0M0
0M0M
M0M0
0M00
,  // measure 3
0001
0010
0001
0000
0010
0100
0010
0000
0100
1000
0100
0000
0010
0100
0010
0000
,  // measure 4
0001
0010
0100
1000
0100
0001
1000
0100
,  // measure 5
1000
0100
1000
0000
0001
0100
0001
0000
0010
0100
0010
0000
1000
0100
1000
0000
,  // measure 6
0100
0000
0010
0000
0001
0000
0010
0000
0001
0000
1000
0000
0001
0010
0100
0000
,  // measure 7
1001
0000
0000
0001
0010
0100
1000
0000
0000
0002
0000
0000
,  // measure 8
MM00
0000
0000
11M3
0000
0000
1000
0100
0010
0001
0000
0000
,  // measure 9
20MM
3M11
0020
0M0M
,  // measure 10
M131
0000
0200
0000
1310
1100
0101
0011
,  // measure 11
0001
0000
0000
0010
0000
0000
0100
0000
0000
1000
0000
0000
0100
0000
0000
0010
0000
0000
0001
0000
0000
0010
0000
0000
1000
0000
0000
0000
0000
0000
0000
0000
0000
0000
0000
0000
1000
0000
0000
0000
0100
0000
0000
0000
0010
0000
0000
0000
,  // measure 12
0001
0000
0000
1000
0000
0000
0100
0000
0000
0010
0000
0000
0001
0000
0010
0000
0100
0000
1000
0000
0000
0010
0000
0000
,  // measure 13
0001
0000
0000
0010
0000
0000
0100
0000
0000
0001
0000
0000
1000
0000
0000
0100
0000
0000
1000
0000
0100
0000
0010
0000
,  // measure 14
0001
0010
0100
0010
0001
1000
0100
0010
,  // measure 15
0001
0000
0000
0000
0000
0000
0100
0000
0000
0000
0000
0000
0010
0000
0000
0000
0000
0000
1000
0000
0000
0010
0000
0000
0001
0000
0000
0000
0000
0000
0010
0000
0000
0000
0000
0000
1000
0000
0000
0000
0100
0000
0000
0000
0010
0000
0000
0000
,  // measure 16
0001
0000
0000
0100
0000
0000
0010
0000
0000
1000
0000
0000
0001
0000
0010
0000
0100
0000
1000
0000
0000
0001
0000
0000
,  // measure 17
0010
0000
0000
0100
0000
0000
1000
0000
0000
0001
0000
0000
0010
0000
0000
0001
0000
0000
1000
0000
0100
0000
0010
0000
,  // measure 18
0001
0010
0100
1000
02MM
M000
0312
MMM0
,  // measure 19
MM00
0000
0000
0000
11M3
0000
0000
0000
0001
0010
0100
1000
0001
0010
0100
1000
,  // measure 20
0010
0001
1000
0001
0010
0100
0001
1000
0100
0010
0001
0010
0100
1000
0010
0100
,  // measure 21
0001
0010
0001
0010
0100
1000
0001
0100
0010
0001
0010
0100
0001
1000
0100
0010
,  // measure 22
0100
0001
0010
0100
0010
0001
1000
0010
0001
0010
0100
0001
0010
0100
0010
1000
,  // measure 23
0001
0100
0010
0001
0010
0100
1000
0001
0100
1000
0100
0010
0100
0001
0010
0001
,  // measure 24
0010
0100
1000
0001
0100
0010
0001
0010
0100
1000
0100
1000
0010
0100
0001
0010
,  // measure 25
0100
0001
1000
0100
0010
0100
0001
0010
0001
0100
0010
1000
0100
0001
1000
0010
,  // measure 26
0100
0001
0010
0001
0010
0100
1000
0000
0011
0000
1010
0000
1100
0000
0101
0000
,  // measure 27
0001
1000
0100
0010
0100
0001
0010
0100
1000
0001
1000
0001
1100
0010
0100
0010
,  // measure 28
1000
0100
1000
0100
1010
0100
0010
0100
M001
0010
0001
0010
0101
1000
0001
1000
,  // measure 29
00M1
1000
0101
1000
00M1
1000
0001
1000
01M0
1000
0100
1000
0011
0100
0010
0100
,  // measure 30
0010
1000
0010
1000
0011
0100
0001
0100
0010
0001
1100
0001
10M0
0001
1000
0001
,  // measure 31
1100
0001
10M0
0001
1000
0001
1100
0011
1100
0001
0010
0001
1100
0010
0100
0010
,  // measure 32
M001
0010
0001
0010
0101
1000
0100
1000
001M
0100
0010
0100
1001
0010
0001
0010
,  // measure 33
M001
0010
0M01
0010
0001
0010
0101
0010
1000
0001
1000
0001
1010
0100
0010
0100
,  // measure 34
100M
0010
1000
0010
1001
0100
0001
0100
0011
1000
0010
1000
0M11
1000
0010
1000
,  // measure 35
0M11
1000
0011
1000
0011
1100
0011
1100
0022
0000
0000
0000
0000
0000
0000
0033
,  // measure 36
0001
1000
0100
0000
0010
0001
1M00
0000
0022
0000
0000
0000
0000
0000
0000
0000
,  // measure 37
1033
0100
0001
0000
1M00
0010
0100
0000
0202
0000
M000
0000
00M0
0000
0000
0000
,  // measure 38
0313
1000
0M01
0000
2002
0000
00M0
0000
0000
0000
0M00
0000
3013
1000
0100
0000
,  // measure 39
00M1
0100
1000
0000
0220
0000
M00M
0000
0000
0000
0000
0000
1330
0100
0001
0000
,  // measure 40
0100
1000
001M
0000
1M00
0001
0010
0000
2200
0000
00M0
0000
0000
0000
0000
0000
,  // measure 41
3322
0000
0000
0000
0000
0000
0000
0000
0000
0000
0000
0000
1033
0000
0000
0001
0000
0000
0100
0000
M000
0000
0000
0000
0010
0000
0000
1000
0M00
0000
0001
0000
0000
0000
0000
0000
0220
0000
0000
0000
0000
0000
0000
0000
0000
0000
0000
0000
,  // measure 42
M000
0000
0000
0000
1330
0100
0010
0000
M001
0010
0100
0000
22M0
0000
0000
0000
,  // measure 43
000M
0000
0000
3300
0220
0000
0000
0330
M022
0000
0000
0000
0M00
0000
0000
0003
,  // measure 44
0031
0010
0100
0000
2002
0000
0MM0
0000
0000
0000
0000
3003
1000
0100
M0M1
0000
,  // measure 45
0100
0000
0000
1000
000M
0000
0100
0000
0000
0000
0000
0000
M001
0000
0000
0100
00M0
0000
1000
0000
000M
0000
0000
0000
0100
0000
0000
0001
M0M0
0000
0100
0000
0000
0000
0000
0000
100M
0000
0000
0100
0000
0000
0001
0000
0000
0000
0000
0000
,  // measure 46
2200
0000
3300
1000
0100
0010
0001
0000
0000
0002
0000
0000
,  // measure 47
1103
0000
0000
0001
0010
0100
1000
0000
0000
0200
0000
0000
,  // measure 48
0000
1310
0020
0131
,  // measure 49
0220
0000
0000
0000
0330
0000
MMMM
0000
0000
0000
0000
0000
0011
0000
0000
1010
0000
0000
1100
0000
0000
0101
0000
0000
,  // measure 50
1000
0100
0010
0100
0001
0010
0100
1000
0010
0100
0010
0001
0010
0100
0001
1000
,  // measure 51
0100
0010
1000
0001
0010
0100
1000
0100
0010
0001
0010
0100
0001
0010
0100
1000
,  // measure 52
0001
1000
0100
0010
0100
0001
1000
0100
1000
0010
0100
0001
0010
1000
0001
0010
,  // measure 53
1000
0100
0010
0100
0001
1000
0100
1000
0010
0100
0001
0010
0100
0001
1000
0100
,  // measure 54
0010
1000
0100
0010
0001
0010
0100
1000
0001
1000
0100
0010
1000
0001
0010
0100
,  // measure 55
1000
0100
0010
0001
0010
0100
1000
0100
0001
0010
0100
1000
0001
0010
1000
0001
,  // measure 56
1000
0100
0010
0001
0100
0010
0100
0001
0010
1000
0100
1000
0010
0100
0001
0010
,  // measure 57
0100
0010
1000
0001
0100
0010
0001
0010
0100
1000
0100
0010
0100
0001
0010
0100
,  // measure 58
2020
0000
0000
0000
0000
0000
0000
3030
2002
0000
0000
3003
M000
0M00
M0M0
0M0M
,  // measure 59
M0M0
0M0M
M0M0
0M0M
M0M0
0M0M
M0M0
0M0M
M0M0
0M0M
M0M0
0M0M
M0M0
0M0M
M0M0
0M0M
,  // measure 60
M0M0
0M0M
M0M0
0M0M
M0M0
0M0M
M0M0
0M0M
M0M0
0M0M
M0M0
0M0M
M0M0
0M0M
M0M0
0M0M
,  // measure 61
M0M0
0M0M
M0M0
0M0M
M0M0
0M0M
M0M0
0M0M
M0M0
0M0M
M0M0
0M0M
M0M0
0M0M
M0M0
0M0M
,  // measure 62
M0M0
0M0M
M0M0
0M0M
M0M0
0M0M
M0M0
0M0M
M0M0
0M0M
M0M0
0M0M
M0M0
0M0M
M0M0
0M0M
,  // measure 63
M0M0
0M0M
M0M0
0M0M
M0M0
0M0M
M0M0
0M0M
M0M0
0M0M
M0M0
0M0M
M0M0
0M0M
M0M0
0M0M
,  // measure 64
M0M0
0M0M
M0M0
0M0M
M0M0
0M0M
M0M0
0M0M
M0M0
0M0M
M0M0
0M0M
M0M0
0M0M
M0M0
0M0M
,  // measure 65
M0M0
0M0M
M0M0
0M0M
M0M0
0M0M
M0M0
0M0M
M0M0
0M0M
M0M0
0M0M
M0M0
0M0M
M0M0
0M0M
,  // measure 66
M0M0
0M0M
M0M0
0M0M
M0M0
0M0M
M0M0
0M0M
M0M0
0M0M
M0M0
0M0M
M0M0
0M0M
M0M0
0M0M
,  // measure 67
M0M0
0M0M
M0M0
0M0M
M0M0
0M0M
M0M0
0M0M
M0M0
0M0M
M0M0
0M0M
M0M0
0M0M
M0M0
0M0M
,  // measure 68
M0M0
0M0M
M0M0
0M0M
M0M0
0M0M
M0M0
0M0M
M0M0
0M0M
M0M0
0M0M
M0M0
0M0M
00M0
000M
,  // measure 69
1000
0000
0000
0000
0000
0000
0001
0000
0010
0000
0001
0000
0010
0000
0000
0000
M000
0000
0001
0000
0000
0000
0000
0000
0100
0000
0010
0000
0100
0000
0010
0000
0000
0000
0000
0000
1000
0000
0000
0001
0000
0000
0010
0000
0000
0100
0000
0000
,  // measure 70
0010
0000
0000
0000
0000
0000
0100
0000
0001
0000
0100
0000
0001
0000
0000
0000
0000
0000
0010
0000
0000
0000
0000
0000
0001
0000
0000
0010
0000
0000
0100
0000
0000
1000
0000
0000
0001
0000
0000
0010
0000
0000
0100
0000
0000
0010
0000
0000
,  // measure 71
0001
0000
0000
0000
M000
0000
0010
0000
0001
0000
0010
0000
0001
0000
0000
0000
0000
0000
0100
0000
0000
0000
0000
0000
0010
0000
1000
0000
0010
0000
1000
0000
0000
0000
0000
0000
0001
0000
0000
0010
0000
0000
0100
0000
0000
0010
0000
0000
,  // measure 72
0001
0000
0000
1000
0100
1000
0100
0000
0000
0001
0000
0000
0010
0000
0000
0000
000M
0000
2200
0000
0000
0000
0000
0000
,  // measure 73
0000
0000
0000
0000
0000
0000
3310
0000
0000
0010
M100
0010
0100
0000
0000
0010
0000
0000
1000
0100
1000
0100
0000
0000
,  // measure 74
0001
0000
0000
0100
0000
0000
0010
0000
0000
1000
0000
0000
0100
0000
0000
0000
0000
0000
1000
0000
0010
0000
1000
0000
0010
0000
0000
0000
0000
0000
0100
0000
M000
0000
0000
0000
0010
0000
0000
0001
0000
0000
0100
0000
0000
0010
0000
0000
,  // measure 75
1000
0000
0000
0100
0000
0000
0010
0000
0000
0001
0000
0000
0100
0000
0000
0000
0000
0000
0001
0000
0100
0000
0001
0000
0100
0000
0000
0000
0000
0000
0010
0000
0000
0000
0000
0000
1M00
0000
0001
0000
1000
0000
0001
0000
0000
0000
0000
0000
,  // measure 76
0010
0000
0000
0100
0000
0000
1000
0000
0000
0100
0000
0000
0001
0000
0000
0000
0000
0000
0010
0000
0001
0000
0010
0000
0001
0000
0000
0000
0000
0000
1000
0000
0000
0000
0000
0000
0100
0000
0000
0000
0000
0000
0000
0000
00M0
0000
0000
0000
,  // measure 77
2002
0000
0000
0000
0000
0000
0000
0000
0M00
0000
0000
0000
0000
0000
0000
0000
0000
0000
0000
0000
0000
0000
0000
0000
3013
0000
0000
0000
0000
0000
0001
0000
0010
0000
0100
0000
1000
0000
0000
0100
0000
0000
0010
0000
0000
0100
0000
0000
,  // measure 78
1000
0000
0100
0000
0010
0000
0001
0000
0000
0010
0000
0000
0001
0000
0000
0010
0000
0000
0100
0000
0000
0010
0000
0000
1000
0000
0000
0100
0000
0000
0001
0000
0010
0000
0100
0000
1000
0000
0000
0100
0000
0000
0010
0000
0000
0001
0000
0000
,  // measure 79
1000
0000
0100
0000
0010
0000
0001
0000
0000
0100
0000
0000
0010
0000
0000
0100
0000
0000
0001
0000
0000
0010
0000
0000
0001
0000
0000
0100
0000
0000
1000
0000
0100
0000
0010
0000
0001
0000
0000
0010
0000
0000
0100
0000
0000
0010
0000
0000
,  // measure 80
0001
0000
0010
0000
0100
0000
1000
0000
0000
0100
0000
0000
0010
0000
0000
0100
0000
0000
0001
0000
0000
1000
0000
0000
0010
0000
0000
0001
0000
0000
1000
0000
0100
0000
0010
0000
0001
0000
0000
0010
0000
0000
0100
0000
0000
1000
0000
0000
,  // measure 81
0100
0000
0000
0000
0000
0000
2020
0000
0000
0000
0000
0000
0000
0000
0000
0000
0000
0000
3130
0000
0000
1000
0010
0100
,  // measure 82
0001
0000
0000
0010
0000
0000
0100
0000
0000
0010
0000
0000
0001
0000
0100
0000
0010
0000
1000
0000
0000
0100
0000
0000
0010
0000
0000
0100
0000
0000
1000
0000
0000
0010
0000
0000
0100
0000
0000
0001
0000
0000
1000
0000
0010
0000
0100
0000
,  // measure 83
0001
0000
0000
0010
0000
0000
0100
0000
0000
1000
0000
0000
0001
0000
0100
0000
0010
0000
1000
0000
0000
0100
0000
0000
0010
0000
0000
0001
0000
0000
0010
0000
0000
0100
0000
0000
0001
0000
0000
0100
0000
0000
1000
0000
0100
0000
0010
0000
,  // measure 84
0001
0000
0000
0010
0000
0000
0100
0000
0000
0010
0000
0000
0001
0000
0010
0000
0100
0000
1000
0000
0000
0100
0000
0000
0010
0000
0000
0100
0000
0000
0010
0000
0000
0001
0000
0000
0010
0000
0000
0100
0000
0000
1000
0000
0001
0000
0100
0000
,  // measure 85
0010
0100
0010
1000
0001
0010
0100
1000
0100
0000
1000
0000
0100
0000
1000
0000
,  // measure 86
0100
1000
0100
0000
0010
0100
1000
0000
0100
0010
0001
0000
0010
0100
1000
0000
,  // measure 87
0100
0010
0001
0000
0010
0100
1000
0000
2200
0000
0000
0000
3322
0000
0000
0000
,  // measure 88
1033
0100
0010
0000
0001
0100
0010
0000
1000
0100
0001
0000
0010
0100
1000
0000
,  // measure 89
0100
0010
1000
0000
0001
0010
0100
0000
0202
0000
0000
0000
2323
0000
0000
0000
,  // measure 90
3031
0000
0010
0000
0100
0000
0000
0000
1000
0000
0000
0000
0000
0000
0000
0000
0220
0000
0000
0000
0000
0000
0000
0000
2332
0000
0000
0000
0000
0000
0000
3003
,  // measure 91
1000
0100
0010
0000
0001
0000
0000
0000
2MM2
0000
0000
3013
0001
0010
0100
0010
,  // measure 92
1000
0000
0000
0100
0000
0000
0010
0000
0000
0001
0000
0000
1100
0000
0000
0001
0000
0000
0010
0000
0000
0100
0000
0000
0011
0000
0000
1100
0000
0000
0011
0000
0000
1100
0000
0000
0002
0000
0000
0000
M0M0
0000
0000
0000
0M00
0000
0000
0000
,  // measure 93
M020
0M00
M000
0200
M000
0000
2000
0000
0000
3333
0000
0000
;

//---------------dance-single - Wahyu D. L----------------
#NOTES:
     dance-single:
     Wahyu D. L:
     Beginner:
     1:
     0.095,0.224,0.000,0.000,0.000:
0000
0000
0000
0000
,
0000
0000
0000
0000
,
0010
0000
0000
0000
,
0000
0000
0000
0000
,
0100
0000
0000
0000
,
0000
0000
0000
0000
,
0001
0000
0000
0000
,
0000
1000
0000
0000
,
0000
0010
0000
0000
,
0000
0000
1000
0000
,
0000
0000
0001
0000
,
0000
0000
0000
0000
,
0000
0000
1000
0000
,
0000
0000
0000
0000
,
0000
0000
0010
0000
,
0000
0000
0000
0000
,
0000
0000
0001
0000
,
0000
0000
0100
1000
,
0000
0000
0001
0000
,
0000
0000
0000
0000
,
0000
0000
1000
0000
,
0000
0000
0000
0000
,
0000
0000
0100
0000
,
0000
0000
0000
0000
,
0000
0000
0001
0000
,
0000
0000
1000
0000
,
0000
0000
0001
0000
,
0000
0000
0000
0000
,
0000
0000
1000
0000
,
0000
0000
0000
0000
,
0000
0000
0100
0000
,
0000
0000
0000
0000
,
0000
0000
0010
0000
,
0000
0000
0000
0000
,
0000
0000
0001
0000
,
0000
0000
1000
0000
,
0000
0000
0001
0000
,
0000
1000
0000
0000
,
0000
0010
0000
0000
,
0000
0000
0100
0000
,
0000
0000
0000
0010
,
0000
0000
0000
0100
,
0000
0000
0000
0000
,
0000
0010
0000
0000
,
0000
0000
0000
0000
,
0001
0000
0000
0000
,
1000
0000
0000
0000
,
0000
0000
0001
0000
,
1000
0000
0000
0000
,
0000
0000
0001
0000
,
0000
0000
0000
0000
,
0000
0000
1000
0000
,
0000
0000
0000
0000
,
0000
0000
0001
0000
,
0000
0000
0000
0000
,
0000
0000
0010
0000
,
0000
0000
0000
0000
,
1000
0000
0000
0000
,
0000
0000
0000
0000
,
0000
0000
0000
0000
,
0000
0000
0000
0000
,
0000
0000
0000
0000
,
0000
0000
0000
0000
,
0000
0000
0000
0000
,
0000
0000
0000
0000
,
0000
0000
0000
0000
,
0000
0000
0000
0000
,
0000
0000
0000
0000
,
1000
0000
0000
0000
,
0001
0000
0000
0000
,
0100
0000
0000
0000
,
0010
0000
0000
0000
,
0000
0001
0000
0000
,
0000
1000
0000
0000
,
0000
0001
0000
0000
,
0000
0100
0000
0000
,
1000
0000
0001
0000
,
0000
0000
1000
0000
,
0000
0000
0100
0000
,
0000
0000
1000
0000
,
0000
0001
0000
0000
,
1000
0000
0000
0000
,
0001
0000
0000
0000
,
0100
0000
0000
0000
,
0010
0000
1000
0000
,
0001
0000
0000
0000
,
0000
0000
1000
0000
,
0001
0000
0000
0000
,
0000
0000
1000
0000
,
0000
0001
0000
0000
,
1000
0000
0001
1000
,
0000
0001
0000
0010
;

//---------------dance-single - Wahyu D. L----------------
#NOTES:
     dance-single:
     Wahyu D. L:
     Easy:
     4:
     0.510,0.816,0.626,0.293,0.000:
0000
0000
0000
0000
,
0000
0000
0000
0000
,
1000
0001
0010
0100
,
0000
0000
0000
0000
,
0001
1000
0010
0100
,
0000
0000
0000
0000
,
1000
0001
0020
0000
,
0030
1000
0001
0200
,
0300
2000
0000
3000
,
0002
0003
0010
1000
,
0001
0100
0010
1000
,
0001
0100
0010
1000
,
1000
0100
1000
0010
,
1000
0001
0100
0010
,
0010
0010
1000
0001
,
0100
0010
0001
0100
,
1000
1000
0010
1000
,
0001
1000
0100
2000
,
0000
3001
0010
1000
,
0001
0100
0010
1000
,
0001
0100
1000
0001
,
1000
0010
1000
0001
,
0100
0010
0001
0010
,
0100
1000
0010
1000
,
0001
0100
1000
0001
,
0010
0100
1000
1000
,
0001
0001
1000
1001
,
0000
1001
0000
0101
,
0000
0100
0000
1010
,
0000
1000
0000
1001
,
0000
0100
0000
0011
,
0000
0100
0000
0110
,
0000
1000
0000
1010
,
0000
1000
0000
1001
,
0000
0001
1000
0000
,
0001
0001
2000
0000
,
3010
0010
2000
0000
,
3001
2000
0000
3010
,
0100
2000
0000
3001
,
0100
1000
0020
0000
,
2030
3001
0100
0020
,
0000
0031
1000
0020
,
0000
2030
3002
0000
,
1003
0200
0000
0320
,
1000
1000
1000
1000
,
1030
0010
0100
1001
,
1000
0010
0100
2001
,
0000
3200
0311
0100
,
1020
0000
1030
1000
,
1000
1000
0011
0110
,
1001
0110
1010
0101
,
1100
0110
0011
0101
,
1010
0101
0110
1010
,
0101
1010
0101
1010
,
0101
1100
0011
1100
,
0011
1010
0110
0101
,
1010
0011
1100
0110
,
2002
3003
2002
0000
,
0000
0000
0000
0000
,
0000
0000
0000
0000
,
0000
0000
0000
0000
,
0000
0000
0000
0000
,
0000
0000
0000
0000
,
0000
0000
0000
0000
,
0000
0000
0000
0000
,
0000
0000
0000
0000
,
0000
0000
0000
0000
,
0000
0000
0000
0000
,
3003
0010
0100
1000
,
0001
0100
0010
0100
,
0001
0010
0100
1000
,
0001
0010
0100
1002
,
0000
0103
1000
0010
,
1000
0001
0100
0010
,
0001
1000
0001
1000
,
0100
0010
0100
1000
,
0201
0000
0310
1000
,
0001
0100
0010
1000
,
0001
0100
1000
0010
,
0100
0001
0010
0100
,
1000
0012
0000
0013
,
0100
1000
0001
0100
,
1000
0010
1000
0100
,
0001
0010
0100
1000
,
0001
0100
2010
0000
,
3010
1010
1000
1001
,
0001
0101
0110
0110
,
1000
1010
1000
1001
,
0100
0101
0011
0011
,
0010
0110
1010
1010
,
1000
1100
1000
0001
,
0010
0100
1000
2002
,
0000
0000
0000
3003
;

//---------------dance-single - Wahyu D. L----------------
#NOTES:
     dance-single:
     Wahyu D. L:
     Medium:
     6:
     0.817,1.000,0.147,0.381,0.318:
0000
0000
0000
0000
,
0000
0000
0000
0000
,
0010
1000
0001
0100
,
0010
1000
0001
0000
1000
0100
0010
0000
,
0001
0100
0010
0001
,
0010
1000
0001
0000
0010
0100
1000
0001
,
0100
0010
0100
0001
1000
0000
1020
0000
,
0000
0000
0130
0000
0001
0010
0100
1000
,
0020
0031
2010
0000
,
3001
0000
0100
0000
0010
1000
0001
0100
,
1000
0010
1000
0001
1000
0000
0010
0000
,
0100
0000
1000
0000
0001
0100
1000
0000
,
0010
0000
1000
0000
0001
0000
0010
0001
,
0100
0000
0010
0000
1000
0001
1000
0000
,
0100
0000
1000
0000
0010
0000
1000
0001
,
1000
0000
0100
0000
1000
0010
1000
0000
,
0001
0000
0100
0000
0010
0000
0001
0010
,
1000
0100
2000
3002
,
0000
0013
1000
0001
,
0100
1000
0010
0000
1000
0001
1000
0000
,
0100
0010
0100
0000
1000
0000
0001
0000
,
0100
1000
0010
0000
0010
1000
0001
0000
,
1000
0100
0010
0000
0001
0000
0100
0000
,
0010
0001
0010
0000
0100
1000
0010
0000
,
1000
0001
1000
0000
0100
0000
0010
0000
,
1000
0001
0100
0000
1000
0010
1000
0001
,
0100
0010
0001
0100
1000
0000
0010
0000
,
1000
0000
0100
0000
1000
0000
0000
0000
0010
0000
0M00
0000
10M0
0000
0001
MM00
,
0000
0000
1000
0000
0001
00M0
0000
000M
0100
0000
0000
0000
0010
0000
0000
0000
,
1000
0000
0001
0000
1000
0000
0000
0000
0010
0000
0M00
0000
10M0
000M
0000
0000
,
0001
1000
0010
1000
0100
0000
1000
0000
,
0010
1000
0001
0000
0100
1000
0000
M010
,
1000
0M00
0000
M000
0000
00M0
1000
0000
100M
0000
00M0
0000
0100
0000
1000
0000
,
0010
0M00
0000
00M0
1000
0000
0001
0000
1000
0000
0000
0000
0100
0000
0000
0000
,
1000
0010
1000
0001
2000
0000
0000
0000
,
3010
1000
0100
0001
0200
0000
0000
0000
,
1300
0010
1000
0100
0002
0000
0000
0000
,
0013
1000
0200
0000
0000
0000
1300
0010
,
1000
0100
0002
0000
0000
0000
0013
1000
,
0001
1000
0010
1000
0200
0000
0000
0000
,
0302
0000
0013
1000
0001
1000
0020
0000
,
0000
0000
1030
0100
1000
0010
2000
0000
,
0000
3002
0203
0000
,
0310
1000
0200
0000
0000
0000
0301
0010
,
1000
0001
1000
0100
1000
0010
1000
0100
,
0001
0000
0010
1000
0001
0000
0010
0000
,
1000
0000
0001
1000
0010
0000
0200
0000
,
0000
1300
0002
0103
,
2000
0000
0000
0000
3010
1000
0001
0100
,
1000
0010
1000
0001
0100
1000
0010
1000
,
0001
0100
0010
0001
0100
0010
0100
1000
,
0010
1000
0100
0001
0010
0100
1000
0010
,
1000
0100
0010
0001
0100
0010
1000
0001
,
0100
1000
0010
1000
0001
0100
0010
0001
,
0100
0010
0100
1000
0010
1000
0100
0001
,
0010
0100
1000
0001
0100
0010
1000
0001
,
0100
0000
0010
0001
1000
0010
0001
0000
1000
0000
0010
0000
0100
0000
1000
0000
,
0020
0000
0000
0000
0000
0000
0000
0030
2002
0000
0000
0000
0000
0000
0000
0000
,
0000
0000
0000
0000
,
0000
0000
0000
0000
,
0000
0000
0000
0000
,
0000
0000
0000
0000
,
0000
0000
0000
0000
,
0M00
0000
0000
0000
,
0M00
0000
0000
0000
,
0M00
0000
0000
0000
,
0M00
0000
0000
0000
,
0000
0000
0000
0000
,
3103
0000
0010
0100
0010
0000
0100
0000
0010
0100
0010
0000
1000
0100
0010
0001
,
0100
0000
0010
0100
0010
0000
0001
0000
0100
0010
0100
0000
0001
0010
0100
1000
,
0010
0000
0100
0010
0100
0000
1000
0000
0010
0100
0010
0000
0001
0010
0100
1000
,
0010
0000
0100
0010
0100
0000
1000
0000
0100
0000
0000
0000
2002
0000
0000
0000
,
0000
0000
0000
0000
3013
0000
0100
0010
0100
0000
0010
0000
0100
0010
0100
0000
,
0001
0010
0100
1000
0010
0000
0100
0010
0100
0000
1000
0000
0010
0100
0010
0000
,
1000
0100
0010
0001
0100
0000
0010
0100
0010
0000
0001
0000
0100
0010
0100
0000
,
1000
0100
0010
0001
0100
0000
0010
0100
0010
0000
0001
0000
0010
0000
0000
0000
,
2002
0000
0000
0000
0000
0000
0000
0000
3013
0000
1000
0001
1000
0000
0001
0000
,
1000
0001
1000
0000
0100
0001
1000
0010
0001
0000
1000
0001
1000
0000
0010
0000
,
0001
1000
0001
0000
0010
1000
0001
0100
1000
0000
0001
1000
0001
0000
0100
0000
,
1000
0001
1000
0000
0010
1000
0001
0100
1000
0000
0001
1000
0001
0000
0100
0000
,
0001
0000
0000
0000
0220
0000
0000
0000
0000
0000
0000
0000
1330
0000
0001
1000
,
0001
0000
1000
0000
0001
1000
0001
0000
0010
1000
0001
0100
1000
0000
0001
1000
,
0001
0000
0100
0000
1000
0001
1000
0000
0100
0001
1000
0010
0001
0000
1000
0001
,
1000
0000
0010
0000
0001
1000
0001
0000
0100
0001
1000
0010
0001
0000
1000
0001
,
1000
0010
1000
0000
2002
0000
0000
0000
,
3103
0010
0001
0010
0100
1000
0100
0010
,
0001
0010
0100
1000
2200
0000
3322
0000
,
1033
0100
0010
0001
0010
0100
1000
0100
,
0010
0001
0010
0100
1100
0000
0011
0000
,
1000
0100
0010
0001
0011
0000
1100
0000
,
1000
0100
0010
0001
0022
0000
1033
0100
,
0010
0000
0100
0000
0010
0000
1000
0000
0001
1000
0001
1000
2002
0000
0000
0000
,
0000
0000
0000
3003
;

//---------------dance-single - Wahyu D. L----------------
#NOTES:
     dance-single:
     Wahyu D. L:
     Hard:
     13:
     1.000,1.000,0.342,0.508,1.000:
0000
0000
0000
0000
,
0000
0000
0000
0000
,
0001
0010
0001
0000
0010
0100
0010
0000
0100
1000
0100
0000
0010
0100
0010
0000
,
0001
0010
0100
1000
0100
0001
1000
0100
,
1000
0100
1000
0000
0001
0100
0001
0000
0010
0100
0010
0000
1000
0100
1000
0000
,
0100
0000
0010
0000
0001
0000
0010
0000
0001
0000
1000
0000
0001
0010
0100
0000
,
1001
0000
0000
0001
0010
0100
1000
0000
0000
0002
0000
0000
,
0000
0000
0000
1103
0000
0000
1000
0100
0010
0001
0000
0000
,
2000
3011
0020
0000
,
0131
0000
0200
0000
1300
0100
0010
0001
,
1000
0000
0000
0100
0000
0000
0010
0000
0000
0001
0000
0000
0010
0000
0000
0100
0000
0000
1000
0000
0000
0100
0000
0000
0001
0000
0000
0000
0000
0000
0000
0000
0000
0000
0000
0000
1000
0000
0000
0000
0100
0000
0000
0000
0010
0000
0000
0000
,
0001
0000
0000
1000
0000
0000
0100
0000
0000
0010
0000
0000
0001
0000
0010
0000
0100
0000
1000
0000
0000
0010
0000
0000
,
0001
0000
0000
0010
0000
0000
0100
0000
0000
0001
0000
0000
1000
0000
0000
0100
0000
0000
1000
0000
0100
0000
0010
0000
,
0001
0010
0100
0010
0001
1000
0100
0010
,
0001
0000
0000
0000
0000
0000
0100
0000
0000
0000
0000
0000
0010
0000
0000
0000
0000
0000
1000
0000
0000
0010
0000
0000
0001
0000
0000
0000
0000
0000
0010
0000
0000
0000
0000
0000
1000
0000
0000
0000
0100
0000
0000
0000
0010
0000
0000
0000
,
0001
0000
0000
0100
0000
0000
0010
0000
0000
1000
0000
0000
0001
0000
0010
0000
0100
0000
1000
0000
0000
0001
0000
0000
,
0010
0000
0000
0100
0000
0000
1000
0000
0000
0001
0000
0000
0010
0000
0000
0001
0000
0000
1000
0000
0100
0000
0010
0000
,
0001
0010
0100
1000
0200
M000
0312
0M00
,
00M0
0000
0000
0013
0000
0000
1000
0000
0000
0001
0010
0100
,
1000
0000
0000
0001
0000
0000
0010
0000
0000
0100
0000
0000
1000
0000
0100
0000
0010
0000
0001
0000
0000
0100
0000
0000
,
1000
0000
0000
0100
0000
0000
0010
0000
0000
1000
0000
0000
0001
0000
0000
0010
0000
0000
0001
0000
0010
0000
0100
0000
,
1000
0100
0010
0100
1000
0001
0010
0100
,
1000
0000
0000
0000
0000
0000
0010
0000
0000
0000
0000
0000
0100
0000
0000
0000
0000
0000
0001
0000
0000
0100
0000
0000
1000
0000
0000
0000
0000
0000
0100
0000
0000
0000
0000
0000
0001
0000
0000
0000
0010
0000
0000
0000
0100
0000
0000
0000
,
1000
0000
0000
0010
0000
0000
0100
0000
0000
0001
0000
0000
1000
0000
0100
0000
0010
0000
0001
0000
0000
1000
0000
0000
,
0100
0000
0000
0010
0000
0000
0001
0000
0000
1000
0000
0000
0100
0000
0000
1000
0000
0000
0001
0000
0010
0000
0100
0000
,
1000
0100
0010
0100
0001
0010
0100
1000
,
0001
0010
0100
1000
0100
0010
0001
0010
0100
0000
M100
0000
011M
0000
0010
1000
,
010M
1000
0010
0000
M110
0000
0100
0001
0010
0000
0100
0000
10M0
0100
100M
0000
,
0M10
0000
101M
0000
1000
0010
0100
0001
M100
0000
0M10
0000
101M
0000
1000
0001
,
0100
0000
0000
0010
0000
0000
0100
0000
0000
0001
0000
0000
10M0
0000
0000
0000
0000
0000
1000
0000
0000
0100
0000
0000
0010
0000
0000
0000
0000
0000
0M11
0000
0000
0000
0000
0000
1000
0000
0000
0000
00M0
0000
1000
0000
000M
0000
0000
0000
,
0110
0000
M010
0100
0001
0010
0100
1000
0010
0000
1000
0000
11M0
0000
0100
1000
,
0010
0100
0001
0000
01M1
0000
0100
0010
1000
0000
010M
0000
1010
0000
0M10
1000
,
0001
0100
0010
0000
0100
0010
100M
0000
0100
0000
10M0
0000
0101
0000
M001
0100
,
0010
0000
0100
0000
11M0
0000
100M
0010
0100
0000
M001
0100
0010
0000
100M
0010
,
0100
0000
01M0
0000
0100
0001
1000
0010
0M02
0000
0000
0000
0000
0000
0000
0003
,
0001
1000
0100
0000
0010
0001
1000
0000
0020
0000
0000
0000
0000
0000
0000
0000
,
1030
0100
0001
0000
1000
0010
0100
0000
0002
0000
0000
0000
0000
0000
0000
0000
,
0013
1000
0001
0000
2000
0000
0000
0000
0000
0000
0000
0000
3010
1000
0100
0000
,
0001
0100
1000
0000
0200
0000
0000
0000
0000
0000
0000
0000
1300
0100
0001
0000
,
0100
1000
0010
0000
1000
0001
0010
0000
0200
0000
0000
0000
0000
0000
0000
0000
,
0320
0000
0000
0000
1030
0001
0100
0000
0010
1000
0001
0000
0200
0000
0000
0000
,
0000
0000
0000
0000
1300
0100
0010
0000
0001
0010
0100
0000
2000
0000
0000
0000
,
0000
0000
0000
3000
0200
0000
0000
0300
0020
0000
0000
0000
0000
0000
0000
0000
,
0031
0010
0100
0000
0002
0000
0000
0000
0000
0000
0000
0003
0001
0010
0100
0000
,
1000
0100
0010
0000
0001
0010
0100
0000
1000
0100
0010
0000
0001
0010
0100
0000
,
2000
0000
0000
3010
1000
0001
0100
0000
0000
0200
0000
0000
,
1310
0000
0000
0100
0001
1000
0010
0000
0000
2000
0000
0000
,
0000
3011
0002
1103
,
2002
0000
0000
0000
3003
0000
0000
0000
0000
0000
0000
0000
0001
0000
0000
0010
0000
0000
0100
0000
0000
1000
0000
0000
,
0001
0010
0100
1000
0100
0010
0001
0010
1000
0100
0010
0000
0010
0100
0001
0000
,
0100
0010
1000
0000
0010
0100
1000
0000
0010
0001
0010
0000
0001
0010
0100
0000
,
0001
1000
0100
0000
0100
0001
1000
0000
1000
0010
0100
0000
0010
1000
0001
0000
,
1000
0100
0010
0000
0001
1000
0100
0000
0010
0100
0001
0000
0100
0001
1000
0000
,
0010
1000
0100
0000
0001
0010
0100
0000
0001
1000
0100
0000
1000
0001
0010
0000
,
1000
0100
0010
0000
0010
0100
1000
0000
0001
0010
0100
0000
0001
0010
1000
0000
,
1000
0100
0010
0000
0100
0010
0100
0000
0010
1000
0100
0000
0010
0100
0001
0000
,
0100
0010
1000
0000
0100
0010
0001
0000
0100
1000
0100
0000
0100
0001
0010
0000
,
2020
0000
0000
0000
0000
0000
0000
3030
2M02
0000
00M0
0000
0M00
0000
00M0
0000
,
0M00
00M0
0M00
00M0
0M00
00M0
0M00
00M0
,
0M00
00M0
0M00
00M0
0M00
00M0
0M00
00M0
,
0M00
00M0
0M00
00M0
0M00
00M0
0M00
00M0
,
0M00
00M0
0M00
00M0
0M00
00M0
0M00
00M0
,
0M00
00M0
0M00
00M0
0M00
00M0
0M00
00M0
,
0M00
00M0
0M00
00M0
0M00
00M0
0M00
00M0
,
0M00
00M0
0M00
00M0
0M00
00M0
0M00
00M0
,
0M00
00M0
0M00
00M0
0M00
00M0
0M00
00M0
,
0M00
00M0
0M00
00M0
0M00
00M0
0M00
00M0
,
0M00
00M0
0M00
00M0
0M00
00M0
0000
0000
,
3103
0000
0000
0000
0000
0000
0001
0000
0010
0000
0001
0000
0010
0000
0000
0000
0000
0000
0001
0000
0000
0000
0000
0000
0100
0000
0010
0000
0100
0000
0010
0000
0000
0000
0000
0000
1000
0000
0000
0001
0000
0000
0010
0000
0000
0100
0000
0000
,
0010
0000
0000
0000
0000
0000
0100
0000
0001
0000
0100
0000
0001
0000
0000
0000
0000
0000
0010
0000
0000
0000
0000
0000
0001
0000
0000
0010
0000
0000
0100
0000
0000
1000
0000
0000
0001
0000
0000
0010
0000
0000
0100
0000
0000
0010
0000
0000
,
0001
0000
0000
0000
0000
0000
0010
0000
0001
0000
0010
0000
0001
0000
0000
0000
0000
0000
0100
0000
0000
0000
0000
0000
0010
0000
1000
0000
0010
0000
1000
0000
0000
0000
0000
0000
0001
0000
0000
0010
0000
0000
0100
0000
0000
0010
0000
0000
,
0001
0000
0000
1000
0100
1000
0100
0000
0000
0001
0000
0000
0010
0000
0000
0000
0000
0000
2200
0000
0000
0000
0000
0000
,
0000
0000
0000
0000
0000
0000
3301
0000
0000
0100
0010
0100
0010
0000
0000
0100
0000
0000
0001
0010
0001
0010
0000
0000
,
1000
0000
0000
0010
0000
0000
0100
0000
0000
0001
0000
0000
0010
0000
0000
0000
0000
0000
0001
0000
0100
0000
0001
0000
0100
0000
0000
0000
0000
0000
0010
0000
0000
0000
0000
0000
0100
0000
0000
1000
0000
0000
0010
0000
0000
0100
0000
0000
,
0001
0000
0000
0010
0000
0000
0100
0000
0000
1000
0000
0000
0010
0000
0000
0000
0000
0000
1000
0000
0010
0000
1000
0000
0010
0000
0000
0000
0000
0000
0100
0000
0000
0000
0000
0000
0001
0000
1000
0000
0001
0000
1000
0000
0000
0000
0000
0000
,
0100
0000
0000
0010
0000
0000
0001
0000
0000
0010
0000
0000
1000
0000
0000
0000
0000
0000
0100
0000
1000
0000
0100
0000
1000
0000
0000
0000
0000
0000
0001
0000
0000
0000
0000
0000
0010
0000
0000
0000
0000
0000
0000
0000
0000
0000
0000
0000
,
2002
0000
0000
0000
0000
0000
0000
0000
0000
0000
0000
0000
3103
0000
0000
0010
1000
0010
1000
0000
0000
0010
0000
0000
,
0001
0000
1000
0000
0001
0000
1000
0000
0000
0000
0000
0000
0100
0000
0000
0010
0000
0000
1000
0000
0000
0001
0000
0000
1000
0000
0000
0000
0000
0000
0001
0000
0010
0000
0001
0000
0010
0000
0000
0000
0000
0000
1000
0000
0000
0000
0000
0000
,
0010
0000
0000
1000
0000
0000
0001
0000
0000
0100
0000
0000
0010
0000
0000
1000
0000
0000
0001
0000
0000
1000
0000
0000
0010
0000
0000
0000
0000
0000
1000
0000
0010
0000
1000
0000
0010
0000
0000
0000
0000
0000
0001
0000
0000
0000
0000
0000
,
1000
0000
0100
0000
1000
0000
0100
0000
0000
0000
0000
0000
0010
0000
0000
1000
0000
0000
0001
0000
0000
1000
0000
0000
0010
0000
0000
0000
0000
0000
0100
0000
0001
0000
0100
0000
0001
0000
0000
0000
0000
0000
0010
0000
0000
0000
0000
0000
,
1000
0000
0000
0000
0000
0000
2200
0000
0000
0000
0000
0000
0000
0000
0000
0000
0000
0000
3310
0000
0000
0100
0001
0100
,
0001
0000
0000
0000
0000
0000
0100
0000
0000
0000
0000
0000
1000
0000
0001
0000
1000
0000
0001
0000
0000
0000
0000
0000
0010
0000
0000
0100
0000
0000
0001
0000
0000
1000
0000
0000
0001
0000
0000
0000
0000
0000
1000
0000
0100
0000
1000
0000
,
0100
0000
0000
0000
0000
0000
0001
0000
0000
0000
0000
0000
0100
0000
0000
0001
0000
0000
1000
0000
0000
0010
0000
0000
0100
0000
0000
0001
0000
0000
1000
0000
0000
0001
0000
0000
0100
0000
0000
0000
0000
0000
0001
0000
0100
0000
0001
0000
,
0100
0000
0000
0000
0000
0000
1000
0000
0000
0000
0000
0000
0001
0000
0010
0000
0001
0000
0010
0000
0000
0000
0000
0000
0100
0000
0000
0001
0000
0000
1000
0000
0000
0001
0000
0000
0100
0000
0000
0000
0000
0000
0010
0000
1000
0000
0010
0000
,
1000
0100
0001
0000
0220
0000
0000
0000
,
1330
0100
0010
0000
0100
0000
0000
0000
0100
0010
0001
0000
0010
0000
0000
0000
,
0100
0010
0001
0000
0010
0000
0000
0000
2200
0000
0000
0000
3322
0000
0000
0000
,
1033
0100
0010
0000
0001
0000
0000
0000
1000
0100
0001
0000
0010
0000
0000
0000
,
0100
0010
1000
0000
0001
0000
0000
0000
0202
0000
0000
0000
2323
0000
0000
0000
,
3031
0000
0010
0000
0100
0000
0000
0000
1000
0000
0000
0000
0000
0000
0000
0000
0220
0000
0000
0000
0000
0000
0000
0000
2332
0000
0000
0000
0000
0000
0000
3003
,
1000
0100
0010
0000
0001
0000
0000
0000
2002
0000
0000
3003
0001
0010
0100
0010
,
1000
0100
0010
0001
1100
0001
0010
0100
0001
0010
0100
1000
2002
0000
0000
0000
,
0000
0000
0000
3003
;
