#TITLE:Death Piano;
#SUBTITLE:;
#ARTIST:Xi;
#TITLETRANSLIT:;
#SUBTITLETRANSLIT:;
#ARTISTTRANSLIT:;
#CREDIT:;
#BANNER:;
#BACKGROUND:;
#LYRICSPATH:;
#CDTITLE:;
#MUSIC:Death Piano.mp3;
#OFFSET:1.080;
#SAMPLESTART:44.440;
#SAMPLELENGTH:12.000;
#SELECTABLE:YES;
#BPMS:0.000=170.000,251.000=85.000,293.625=42.500,295.500=140.000,304.000=145.000,312.000=150.000,316.000=155.000,320.000=160.000,322.000=165.000,324.000=170.000,372.000=175.000,376.000=180.000,384.000=190.000,392.000=200.000,400.000=170.000;
#STOPS:116.500=1.000
,119.500=2.260
,250.750=1.040
,293.625=0.580
,295.500=0.980
;
#BGCHANGES:;

//---------------dance-single - W. D. Lesmono----------------
#NOTES:
     dance-single:
     W. D. Lesmono:
     Hard:
     13:
     1.000,1.000,0.133,0.099,1.000:
0000
0000
0000
0000
,
0001
0000
0000
0000
0000
0000
0000
0000
0010
0100
1000
0100
0010
0001
0010
0100
,
0001
0000
0000
0000
0000
0000
0000
0000
1000
0100
0010
0001
1000
0100
0010
0001
,
0100
0000
0000
0000
0010
0000
0000
0000
1000
0000
0000
0000
0010
0000
0000
0000
0001
0000
0000
0000
0000
0000
1000
0000
0001
0000
0000
0000
0000
0000
0000
0000
1000
0000
0000
0000
0010
0000
0000
0000
0100
0000
0000
0000
0001
0010
0000
0000
0100
0000
0000
0000
0000
0000
0000
0000
1000
0000
0000
0000
0000
0000
0000
0000
,
0001
0000
0000
0100
0000
0000
0010
0000
0000
1000
0000
0000
0001
0000
0000
0000
0100
0000
0000
0010
0001
0000
0000
0000
1000
0000
0000
0001
0000
0000
0010
0000
0000
0000
0000
0000
0100
0000
0000
0010
0000
0000
1000
0000
0000
0010
0000
0000
,
0001
0000
0000
0100
0000
0000
0010
0000
0000
1000
0000
0000
0010
0000
0000
0100
0000
0000
1000
0000
0000
0100
0000
0000
0001
0000
0000
0000
0100
0000
0000
0000
0001
0000
0000
0000
0100
0000
0000
0000
0001
0000
0000
0000
0100
0000
0000
0000
,
0001
0000
0000
0010
0000
0000
1000
0000
0000
0010
0000
0000
0100
0000
0000
0001
0000
0000
0100
0000
0000
0010
0000
0000
0100
0000
0000
0000
1000
0000
0000
0000
0100
0000
0000
0000
1000
0000
0000
0000
0100
0000
0000
0000
1000
0000
0000
0000
,
0010
0000
0000
0000
0000
0000
0000
0000
0000
0000
0000
0000
0001
0000
0000
0000
0000
0000
0000
0000
0000
0000
0000
0000
1000
0000
0000
0000
0000
0000
0100
0000
0000
0000
0000
0000
0010
0000
0000
0000
0000
0000
0000
0000
0000
0000
0000
0000
0001
0000
0000
0000
0000
0000
0000
0000
0000
0000
0000
0000
0100
0000
0000
0000
0010
0000
0000
0000
0000
0000
0000
0000
0000
0000
0000
0000
1000
0000
0000
0000
0000
0000
0000
0000
0001
0000
0000
0000
0000
0000
0000
0000
0000
0000
0000
0000
0010
0000
0000
0000
0000
0000
0000
0000
0000
0000
0000
0000
1000
0000
0000
0000
0000
0000
0000
0000
0000
0000
0000
0000
0100
0000
0000
0000
0000
0000
0000
0000
0000
0000
0000
0000
1000
0000
0000
0000
0000
0000
0000
0000
0000
0000
0000
0000
0010
0000
0000
0000
0000
0000
0000
0000
0000
0000
0000
0000
0001
0000
0000
0000
0000
0000
0000
0000
0000
0000
0000
0000
0100
0000
0000
0000
0000
0000
0000
0000
0000
0000
0000
0000
1000
0000
0000
0000
0000
0000
0000
0000
0000
0000
0000
0000
,
0010
0001
1000
0001
0010
0100
0001
1000
0010
0001
0100
0001
0010
1000
0001
0100
,
0010
0001
1000
0100
0010
0001
1000
0100
0010
0001
1000
0100
0010
0001
1000
0100
,
0010
0001
1000
0100
0010
0001
1000
0100
0010
0001
1000
0100
0010
0001
1000
0100
,
0001
0100
0001
0100
0001
0100
0001
1000
0010
1000
0010
1000
,
0010
0100
0001
0100
0001
0100
0001
1000
0010
1000
0010
1000
,
0001
0100
0001
0100
0001
0100
0001
0100
0001
0100
0001
0100
,
0001
0100
0001
0100
0001
0100
0001
0100
0001
0100
0001
0100
,
0010
0100
0010
0100
0010
0100
0010
1000
0100
1000
0100
1000
,
0001
0100
0001
0100
0001
0100
0001
0010
0001
0010
0001
0010
,
1000
0010
1000
0010
1000
0010
1000
0010
1000
0010
1000
0010
,
1000
0010
1000
0010
1000
0010
1000
0010
1000
0010
1000
0010
,
0001
0100
0001
0100
0001
0100
0010
0001
0010
0001
0010
0001
,
0100
0010
0100
0010
0100
0010
0001
1000
0001
1000
0001
1000
,
0001
0100
0001
0100
0001
0100
0010
1000
0010
1000
0010
1000
,
0010
0100
0010
0100
0010
0100
0001
1000
0001
1000
0001
1000
,
0001
1000
0001
0010
1000
0001
1000
0100
0001
1000
0001
0010
1000
0001
1000
0100
,
0001
1000
0001
0010
1000
0001
1000
0100
0001
1000
0001
0010
1000
0001
1000
0100
,
0001
0010
0100
1000
0001
0010
0100
1000
0001
0010
0100
1000
0001
0010
0100
1000
,
0001
0010
0100
1000
0001
0010
0100
1000
0001
0010
0100
1000
0001
0010
0100
1000
,
0001
0100
0001
0100
0010
1000
0010
1000
0010
0100
0010
0100
,
0010
0001
0010
0001
0010
1000
0010
1000
0001
0100
0001
0100
,
0001
0000
0000
0000
0000
0000
0000
0100
1000
0100
0010
0001
0000
0000
0000
0000
0000
0000
0000
0000
0000
0000
0000
0000
,
0001
0000
0001
0100
0010
0000
0000
0000
0010
1000
0100
1000
0001
0010
0001
1000
,
0010
0000
0000
1000
0001
0000
0000
0000
1001
0000
0000
0001
1000
0000
0100
0001
,
1000
0000
0000
0000
0000
0000
0001
0000
0000
0100
0000
0000
0001
0000
0000
0000
0010
0000
0000
0000
0100
0000
0000
0000
1000
0000
0000
0000
0100
0000
0000
0000
0010
0000
0000
0000
0001
0000
0000
0000
0010
0000
0000
0000
0100
0000
0000
0000
,
1000
0000
0000
1000
0100
0000
0000
0000
0011
0000
0000
0000
0101
0000
0000
0000
,
1010
0000
0000
1000
0010
0000
0000
0000
0010
0000
0100
0000
0001
0000
0010
0000
,
1000
0100
0010
0001
0100
0010
1000
0001
0010
0100
1000
0010
0100
0001
1000
0100
,
0001
1000
0010
0100
0001
0000
0001
0010
,
0100
1010
0101
0011
,
0100
0010
0001
0010
1000
0100
0020
0031
0010
0100
1000
0001
,
0100
0000
0000
0000
0001
0000
0000
0000
0010
0000
0000
0000
0100
0000
0000
0000
1000
0000
0000
0000
0100
0000
0000
0000
0020
0000
0000
0030
0001
0000
0000
0000
0010
0000
0000
0000
0100
0000
0000
0000
0010
0000
0000
0000
1000
0000
0000
0000
,
0001
1000
0010
0001
1000
0100
0020
0031
1000
0001
0100
0001
,
0010
0100
0001
0100
0010
0100
2000
3010
0100
0001
0100
1000
,
0010
0001
0100
0001
0100
1000
0020
0130
1000
0001
0100
0010
,
0001
0100
1000
0001
0010
0100
2000
3100
0010
0001
0010
0001
,
0100
0010
0100
0010
0100
0010
2000
3010
0100
0001
1000
0100
,
0001
0000
0000
0000
0010
0000
0000
0000
0100
0000
0000
0000
2000
0000
0000
0000
3001
0000
0000
0000
0010
0000
0000
0000
0001
0000
0000
0000
1000
0000
0000
0000
0100
0000
0000
0000
1000
0000
0000
0100
0000
0000
0010
0000
0000
0001
0000
0000
,
1000
0010
0001
0100
1000
0001
2000
3001
0010
0100
0010
0001
,
0010
1000
0001
0100
1000
0001
0020
0130
0001
0010
1000
0100
,
0010
0001
0100
0010
0001
1000
0002
1003
0100
0010
0001
0100
,
1000
0100
0010
0001
0100
0010
2000
3001
0010
1000
0100
0010
,
0001
0010
1000
0100
0010
1000
0020
1031
0100
0001
0100
1000
,
0100
1000
0010
0001
1000
0100
0020
0130
1000
0001
1000
0100
,
0001
0010
1000
0001
0010
0100
0002
1003
0001
0010
0100
1000
,
0010
0001
0010
1000
0001
0010
0100
1000
0100
0010
0001
0010
,
0100
0000
0000
0000
0010
0000
0000
0000
0100
0000
0000
0000
1000
0000
0000
0000
0010
0000
0000
0000
1000
0000
0000
0000
0001
0000
0000
0010
0000
0000
0100
0000
0000
1000
0000
0000
0010
0000
0000
0100
0000
0000
0001
0000
0000
1000
0000
0000
,
0001
0000
0000
0000
0100
0000
0000
0000
0001
0000
0000
0000
0100
0000
0000
0000
0010
0000
0000
0000
0100
0000
0000
0000
0010
0000
0000
0001
0000
0000
0100
0000
0000
0010
0000
0000
1000
0000
0000
0001
0000
0000
0010
0000
0000
0001
0000
0000
,
1000
0000
0000
0000
0010
0000
0000
0000
1000
0000
0000
0000
0001
0000
0000
0000
0100
0000
0000
0000
0001
0000
0000
0000
0100
0000
0000
1000
0000
0000
0010
0000
0000
1000
0000
0000
0100
0000
0000
0010
0000
0000
0001
0000
0000
1000
0000
0000
,
0010
0000
0000
0000
1000
0000
0000
0000
0010
0000
0000
0000
0100
0000
0000
0000
0010
0000
0000
0000
0100
0000
0000
0000
0010
0000
0000
1000
0000
0000
0001
0000
0000
1000
0000
0000
0010
0000
0000
0100
0000
0000
0001
0000
0000
0010
0000
0000
,
1000
0000
0000
0000
0010
0000
0000
0000
1000
0000
0000
0000
0100
0000
0000
0000
0010
0000
0000
0000
0100
0000
0000
0000
1000
0000
0000
0010
0000
0000
0100
0000
0000
0001
0000
0000
0010
0000
0000
0100
0000
0000
1000
0000
0000
0001
0000
0000
,
0010
0000
0000
0000
0001
0000
0000
0000
0010
0000
0000
0000
0001
0000
0000
0000
0100
0000
0000
0000
0001
0000
0000
0000
0100
0000
0000
0001
0000
0000
0010
0000
0000
0100
0000
0000
0001
0000
0000
1000
0000
0000
0001
0000
0000
0100
0000
0000
,
0001
0010
0100
0001
0010
0001
1000
0001
0010
0100
0001
0100
0001
1000
0100
0010
,
0100
0010
0001
0010
0001
1000
0010
0100
0010
0001
0100
0001
0010
1000
0001
0010
,
0022
0000
0000
0000
0000
0000
0000
0000
0000
0000
0000
0000
0000
0000
0000
0000
0000
0000
0000
0000
0000
0000
0000
0000
0000
0000
0000
0000
0000
0000
0000
0000
0000
0000
0033
0000
0100
0000
0000
1000
0000
0000
0100
0000
0000
0010
0000
0000
,
0001
0000
0000
0000
0000
0000
0010
0000
0001
0000
0010
0000
0100
0000
0000
0001
0000
0000
0010
0000
0000
0100
0000
0000
1000
0000
0000
0100
0000
0000
0001
0000
0000
0000
0000
0000
0010
0000
0000
0000
0000
0000
0010
0000
0000
0100
0000
0000
,
0001
0000
0000
0000
0000
0000
0000
0000
0000
0000
0000
0000
0000
0000
0000
0000
0100
0000
0000
0000
0010
0000
0000
0000
0000
0000
0000
0000
0000
0000
0000
0000
0100
0000
0000
0000
0010
0000
0000
0000
0000
0000
0000
0000
0000
0000
0000
0000
0000
0000
0000
0000
0000
0000
0000
0000
0000
0000
0000
0000
0100
0000
0000
0000
0000
0000
0000
0000
0000
0000
0000
0000
0001
0000
0000
0000
0000
0000
0000
0000
0000
0000
0000
0000
0000
0000
0000
0000
0000
0000
0000
0000
0000
0000
0000
0000
1000
0000
0000
0000
0000
0000
0000
0000
0000
0000
0000
0000
0100
0000
0000
0000
0010
0000
0000
0000
0000
0000
0000
0000
0000
0000
0000
0000
0000
0000
0001
0000
0000
0000
0000
0000
0000
0000
0000
0000
0000
0000
0001
0000
0000
0000
0000
0000
0010
0000
0000
0000
0000
0000
0000
0000
0000
0000
0000
0000
0000
0000
0000
0000
0000
0000
0000
0000
0000
0000
0000
0000
0100
0000
0000
0000
0000
0000
0000
0000
0000
0000
0000
0000
0010
0000
0000
0000
0000
0000
0000
0000
0000
0000
0000
0000
,
1000
0000
0000
0000
0000
0000
0000
0000
0000
0000
0000
0000
0000
0000
0000
0000
0000
0000
0000
0000
0000
0000
0000
0000
0100
0000
0000
0000
0000
0000
0000
0000
0000
0000
0000
0000
0010
0000
0000
0000
0000
0000
0000
0000
0000
0000
0000
0000
0001
0000
0000
0000
0000
0000
0000
0000
0000
0000
0000
0000
1000
0000
0000
0000
0000
0000
0000
0000
0000
0000
0000
0000
0010
0000
0000
0000
0000
0000
0000
0000
0000
0000
0000
0000
0001
0000
0000
0000
0000
0000
0010
0000
0000
0000
0000
0000
0100
0000
0000
0000
0000
0000
0010
0000
0000
0000
0000
0000
0001
0000
0000
0000
0000
0000
0010
0000
0000
0000
0000
0000
0100
0000
0000
0000
0000
0000
0000
0000
0000
0000
0000
0000
0010
0000
0000
0000
0000
0000
0000
0000
0000
0000
0000
0000
0100
0000
0000
0000
0000
0000
0000
0000
0000
0000
0000
0000
0010
0000
0000
0000
0000
0000
0000
0000
0000
0000
0000
0000
1000
0000
0000
0000
0000
0000
0000
0000
0000
0000
0000
0000
0000
0000
0000
0000
0010
0000
0000
0000
0000
0000
0000
0000
,
1000
0000
0000
0000
0000
0000
0000
0000
0100
0000
0000
0000
0000
0000
0000
0000
0010
0000
0000
0000
0000
0000
0000
0000
0001
0000
0000
0000
0000
0000
0000
0000
0000
0000
0000
0000
0100
0000
0000
0000
0000
0000
0001
0000
0000
0000
0000
0000
0010
0000
0000
0000
0000
0000
0001
0000
0000
0000
0000
0000
0100
0000
0000
0000
0000
0000
0000
0000
0000
0000
0000
0000
0010
0000
0000
0000
0000
0000
0000
0000
0100
0000
0000
0000
0000
0000
0000
0000
1000
0000
0000
0000
0000
0000
0000
0000
0001
0000
0000
0000
0000
0000
0000
0000
0000
0000
0000
0000
0000
0000
0000
0000
0100
0000
0000
0000
0000
0000
0000
0000
0010
0000
0000
0000
0000
0000
0000
0000
0100
0000
0000
0000
0000
0000
0000
0000
0000
0000
0000
0000
0000
0000
0000
0000
1000
0000
0000
0000
0000
0000
0000
0000
0000
0000
0000
0000
0100
0000
0000
0000
0000
0000
0010
0000
0000
0000
0000
0000
0001
0000
0000
0000
0000
0000
0000
0000
0010
0000
0000
0000
0000
0000
0000
0000
0100
0000
0000
0000
0000
0000
0000
0000
,
0001
0000
0000
0000
0000
0000
0000
0000
0000
0000
0000
0000
0010
0000
0000
0000
0000
0000
0000
0000
0000
0000
0000
0000
0100
0000
0000
0000
0000
0000
0000
0000
0000
0000
0000
0000
0010
0000
0000
0000
0000
0000
0100
0000
0000
0000
0000
0000
1000
0000
0000
0000
0000
0000
0000
0000
0000
0000
0000
0000
0000
0000
0000
0000
0010
0000
0000
0000
0000
0000
0000
0000
1000
0000
0000
0000
0000
0000
0000
0000
0010
0000
0000
0000
0100
0000
0000
0000
0000
0000
0000
0000
0000
0000
0000
0000
0001
0000
0000
0000
0000
0000
0000
0000
0000
0000
0000
0000
0000
0000
0000
0000
0000
0000
0010
0000
0000
0000
0000
0000
0100
0000
0000
0000
0000
0000
0000
0000
0000
0000
0000
0000
0000
0000
0000
0000
0000
0000
0000
0000
0000
0000
0000
0000
0001
0000
0000
0000
0000
0000
0000
0000
0000
0000
0000
0000
0100
0000
0000
0000
0000
0000
0000
0000
0000
0000
0000
0000
0001
0000
0000
0000
0000
0000
0100
0000
0000
0000
0000
0000
0000
0000
0000
0000
0000
0000
0000
0000
0000
0000
0000
0000
,
0001
0000
0100
0000
0001
0000
0010
0000
0100
0000
0010
0100
0001
0100
0010
0000
1000
0000
0010
0000
0001
0000
0001
0000
0001
0000
0000
0010
0100
0010
0001
0010
,
0100
0000
0000
0000
0000
0000
0000
0000
0000
0000
0000
0000
1000
0000
0000
0000
0010
0000
0000
0000
0000
0000
0000
0000
0001
0000
0000
0000
0000
0000
0000
0000
0010
0000
0000
0000
0000
0000
0000
0000
0000
0000
0000
0000
0000
0000
0000
0000
0001
0000
0000
0000
0000
0000
0010
0000
0000
0000
0000
0000
0100
0000
0000
0000
0000
0000
1000
0000
0000
0000
0000
0000
0001
0000
0000
0000
0000
0000
0000
0000
0000
0000
0000
0000
0000
0000
0000
0000
0100
0000
0000
0000
0000
0000
0000
0000
0010
0000
0000
0000
0000
0000
0000
0000
0100
0000
0000
0000
0000
0000
0000
0000
0000
0000
0000
0000
0000
0000
0000
0000
0010
0000
0000
0000
0000
0000
0000
0000
0000
0000
0000
0000
1000
0000
0000
0000
0100
0000
0000
0000
0000
0000
0000
0000
0001
0000
0000
0000
0000
0000
0000
0000
0000
0000
0000
0000
1000
0000
0000
0000
0000
0000
0100
0000
0000
0000
0000
0000
0010
0000
0000
0000
0000
0000
0000
0000
0000
0000
0000
0000
0000
0000
0000
0000
0001
0000
0000
0000
0000
0000
0000
0000
,
0100
0000
0001
0000
0000
0000
0010
0000
0000
0000
1000
0000
0000
0000
0010
0001
0000
0000
0100
0000
0000
0000
0001
0000
0010
0000
0000
0000
0000
0000
0001
0000
0000
0010
0000
0000
0001
0000
0100
0000
0000
0000
0001
0000
0000
0010
0000
0000
,
1000
0000
0000
0000
0000
0000
0000
0000
0000
0000
0000
0000
0010
0000
0000
0000
0000
0000
0000
0000
0000
0000
0000
0000
0001
0000
0000
0000
0000
0000
0000
0000
0000
0000
0000
0000
0010
0000
0000
0000
0000
0000
0100
0000
0000
0000
0000
0000
1000
0000
0000
0000
0000
0000
0010
0000
0000
0000
0000
0000
0100
0000
0000
0000
0000
0000
0000
0000
0000
0000
0000
0000
0010
0000
0000
0000
0000
0000
0000
0000
0000
0000
0000
0000
1000
0000
0000
0000
0000
0000
0000
0000
0000
0000
0000
0000
0100
0000
0000
0000
0000
0000
0000
0000
0000
0000
0000
0000
1000
0000
0000
0000
0000
0000
0000
0000
0000
0000
0000
0000
0010
0000
0000
0000
0000
0000
0000
0000
0000
0000
0000
0000
0000
0000
0000
0000
0000
0000
1000
0000
0000
0000
0000
0000
0100
0000
0000
0000
0000
0000
0010
0000
0000
0000
0000
0000
1000
0000
0000
0000
0000
0000
0100
0000
0000
0000
0000
0000
0010
0000
0000
0000
0000
0000
0000
0000
0000
0000
0000
0000
0000
0000
0000
0000
0001
0000
0000
0000
0000
0000
0000
0000
,
0010
0000
0000
0000
0000
0000
0000
0000
0100
0000
0000
0000
1000
0000
0000
0000
0000
0000
0000
0000
0000
0000
0000
0000
0001
0000
0000
0000
0000
0000
0000
0000
0100
0000
0000
0000
0000
0000
0000
0000
0010
0000
0000
0000
0000
0000
0000
0000
0001
0000
0000
0000
0000
0000
0000
0000
0000
0000
0000
0000
0000
0000
0000
0000
1000
0000
0000
0000
0000
0000
0000
0000
0100
0000
0000
0000
0000
0000
0000
0000
0010
0000
0000
0000
0000
0000
0000
0000
0000
0000
0000
0000
0000
0000
0000
0000
0001
0000
0000
0000
0000
0000
0000
0000
0000
0000
0000
0000
0000
0000
0000
0000
0010
0000
0000
0000
0000
0000
0000
0000
0100
0000
0000
0000
0000
0000
0000
0000
0001
0000
0000
0000
0000
0000
0000
0000
0010
0000
0000
0000
0000
0000
0000
0000
0001
0000
0000
0000
0000
0000
0000
0000
0000
0000
0000
0000
0010
0000
0000
0000
0000
0000
0000
0000
0000
0000
0000
0000
0001
0000
0000
0000
0000
0000
0010
0000
0000
0000
0000
0000
1000
0000
0000
0000
0000
0000
0010
0000
0000
0000
0000
0000
,
0001
0000
0000
0000
0000
0000
0000
0000
0000
0000
0000
0000
0000
0000
0000
0000
0000
0000
0000
0000
0000
0000
0000
0000
0000
0000
0000
0000
0000
0000
0000
0000
0000
0000
0000
0000
0000
0000
0000
0000
0000
0000
0000
0000
0000
0000
0000
0000
0000
0000
0000
0000
0000
0000
0000
0000
0000
0000
0000
0000
0000
0000
0000
0000
0000
0000
0000
0000
0000
0000
0000
0000
0000
0000
0000
0000
0000
0000
0000
0000
0000
0000
0000
0000
1000
0000
0100
0000
0010
0000
0001
0000
0010
0000
0000
0000
0000
0000
0000
0000
0000
0000
0000
0000
0000
0000
0000
0000
0000
0000
0000
0000
0000
0000
0000
0000
0000
0000
0000
0000
0000
0000
0000
0000
0000
0000
0000
0000
0000
0000
0000
0000
0000
0000
0000
0000
0000
0000
0000
0000
0000
0000
0000
0000
0000
0000
0000
0000
0000
0000
0000
0000
0000
0000
0000
0000
0000
0000
0000
0000
0000
0000
0000
0000
0000
0000
0000
0000
0000
0000
0000
0000
0000
0000
0000
0000
0000
0000
0000
0000
0000
0000
0000
0000
0000
0000
0000
0000
0000
0000
0000
0000
,
0001
0010
0001
0010
0100
1000
0010
0100
0001
1000
0100
0010
0001
1000
0100
0010
,
0100
1000
0010
0100
0001
1000
0100
0010
0001
0010
0100
0010
0100
1000
0100
0010
,
0001
0100
0010
0001
0100
0010
1000
0100
0010
0001
1000
0100
1000
0001
0010
0100
,
0010
0001
1000
0010
0100
0001
0010
0100
1000
0010
0100
0001
1000
0100
0010
0100
,
0001
0010
0100
1000
0010
0100
0001
1000
0010
0100
0001
1000
0100
0010
0100
0010
,
0001
0100
0010
0001
0010
0100
1000
0010
0100
0010
1000
0100
0010
0001
0100
0010
,
0001
0100
0010
1000
0001
0100
0010
0100
0001
0010
0100
0001
1000
0010
0100
1000
,
1001
0000
0000
0000
1001
0000
0000
0000
1001
0000
0000
0000
1001
0000
0000
1001
0000
0000
1001
0000
1001
0000
1001
0000
,
1001
0100
0010
0100
0001
0100
0010
0100
0001
0010
0100
0010
1000
0010
0100
0010
,
0100
0010
0001
1000
0100
0010
0001
1000
0100
0010
0001
1000
0100
0010
0001
1000
,
0100
0000
0010
0100
0001
0000
0000
0000
0010
0001
0010
0001
1000
0100
1000
0001
,
0010
0000
0000
0010
0100
0000
0000
0000
0010
0000
0000
0010
0001
0000
0010
1000
,
0001
0000
0000
0000
0000
0000
1000
0000
0000
0010
0000
0000
0001
0000
0000
0000
0100
0000
0000
0000
0010
0000
0000
0000
0001
0000
0000
0000
0100
0000
0000
0000
1000
0000
0000
0000
0001
0000
0000
0000
0100
0000
0000
0000
0010
0000
0000
0000
,
0001
0000
0000
1000
0001
0000
0000
0000
1001
0000
0000
0000
0110
0000
0000
0000
,
0011
0000
0000
0001
0010
0000
0000
0000
0010
0000
1000
0000
0010
0000
0001
0000
,
0001
0010
0100
1000
0010
0100
0001
1000
0100
0010
0001
0100
0010
1000
0001
0010
,
0001
0100
0010
0100
0001
0000
0010
1000
,
0001
0100
0001
0100
0010
0100
0010
1000
0010
1000
0100
0001
,
0100
0000
0000
0000
0010
0100
0001
0100
0001
1000
0010
0100
0001
0010
0100
0010
,
0100
0000
0000
0000
0100
0001
0010
0001
1000
0100
1000
0001
0100
1000
0001
1000
,
0100
0000
0000
0000
0100
0010
0001
1000
0010
0001
1000
0100
0001
0100
1000
0001
,
0010
1000
0001
0010
0100
0010
0001
1000
0010
0001
1000
0100
0001
0100
0010
0100
,
0001
0000
0000
1000
0010
1000
0100
0010
0001
0100
0010
0001
0100
0001
1000
0001
,
0100
0000
0000
0001
0100
0001
0010
0100
0001
0010
0100
1000
0001
1000
0001
1000
,
0100
0010
1000
0010
0100
0001
0100
0001
1000
0100
1000
0100
0010
0001
0010
0001
,
1000
0001
1000
0001
0100
0010
0100
0010
1000
0000
0001
0000
1000
0000
0001
0000
,
1000
0001
1000
0001
1000
0001
1000
0001
1000
0001
1000
0001
1000
0001
1000
0001
,
1000
0001
1000
0001
1000
0001
1000
0001
1000
0001
1000
0001
1000
0001
1000
0001
,
1000
1001
0000
0000
0000
0000
0000
0000
0000
1111
0000
0000
0000
0000
0000
0000
;

//---------------dance-single - W. D. Lesmono----------------
#NOTES:
     dance-single:
     W. D. Lesmono:
     Challenge:
     20:
     1.000,1.000,0.186,0.012,1.000: // measure 1
0000
0000
0000
0000
,  // measure 2
1001
0000
0000
0000
0000
0000
0000
0000
0010
0100
1000
0100
0010
0001
0010
0100
,  // measure 3
0001
0000
0000
0000
0000
0000
0000
0000
0000
0000
0000
0000
0000
0000
0000
0000
1000
0100
0010
0001
1000
0100
0010
0001
1000
0100
0010
0001
1000
0100
0010
0001
,  // measure 4
0100
0000
0000
0000
0010
0000
0000
0000
0001
0000
0000
0000
0010
0000
0000
0000
0001
0000
0000
0000
0000
0000
1000
0000
0001
0000
0000
0000
0000
0000
0000
0000
1000
0000
0000
0000
0010
0000
0000
0000
0100
0000
0000
0000
0001
0010
0000
0000
0100
0000
0000
0000
0000
0000
0000
0000
0001
0000
0000
0000
0000
0000
0000
0000
,  // measure 5
0001
0000
0000
0100
0000
0000
1000
0000
0000
0100
0000
0000
0001
0000
0000
0000
0100
0000
0000
0010
0001
0000
0000
0000
1000
0000
0000
0001
0000
0000
0100
0000
0000
0000
0000
0000
0100
0000
0000
0010
0000
0000
1000
0000
0000
0010
0000
0000
,  // measure 6
0001
0000
0000
0100
0000
0000
0010
0000
0000
0001
0000
0000
0010
0000
0000
0100
0000
0000
1000
0000
0000
0100
0000
0000
0001
0000
0000
0000
0001
0000
0000
0000
0001
0000
0000
0000
0001
0000
0000
0000
0001
0000
0000
0000
0001
0000
0000
0000
,  // measure 7
0001
0000
0000
0010
0000
0000
1000
0000
0000
0010
0000
0000
0100
0000
0000
0001
0000
0000
0100
0000
0000
0010
0000
0000
0100
0000
0000
0000
0100
0000
0000
0000
0100
0000
0000
0000
0100
0000
0000
0000
0100
0000
0000
0000
0100
0000
0000
0000
,  // measure 8
0010
0000
0001
0000
1000
0100
0010
0000
0001
0000
0100
0000
0010
0000
0001
0000
0010
0000
1000
0000
0010
0000
0001
0000
0010
0000
1000
0000
0100
0000
0001
0000
,  // measure 9
0010
0001
0100
0001
0010
1000
0100
1000
0010
0001
0100
0001
0010
1000
0100
1000
,  // measure 10
0010
0001
1000
0100
0010
0001
1000
0100
0010
0001
1000
0100
0010
0001
1000
0100
,  // measure 11
0010
0001
1000
0100
0010
0001
1000
0100
0010
0001
1000
0100
0010
0001
1000
0100
,  // measure 12
0001
0001
0001
0001
0001
0001
0001
0100
0100
0100
0100
0100
,  // measure 13
0001
0001
0001
0001
0001
0001
0001
0010
0010
0010
0010
0010
,  // measure 14
0001
0010
0100
1000
0001
0010
0100
1000
0001
0010
0100
1000
0001
0010
0100
1000
,  // measure 15
0001
0010
0100
1000
0001
0010
0100
1000
0001
0010
0100
1000
0001
0010
0100
1000
,  // measure 16
0010
0010
0010
0010
0010
0010
0010
1000
1000
1000
1000
1000
,  // measure 17
0001
0001
0001
0001
0001
0001
0001
0100
0100
0100
0100
0100
,  // measure 18
1000
0001
0010
0100
1000
0001
0010
0100
1000
0001
0010
0100
1000
0001
0010
0100
,  // measure 19
1000
0001
0010
0100
1000
0001
0010
0100
1000
0001
0010
0100
1000
0001
0010
0100
,  // measure 20
0001
0001
0001
0001
0001
0001
0001
0010
0010
0010
0010
0010
,  // measure 21
0010
0100
0100
0100
0100
0100
0001
0001
0001
0001
0001
0001
,  // measure 22
0001
1000
1000
1000
1000
1000
0010
0010
0010
0010
0010
0010
,  // measure 23
0010
0100
0100
0100
0100
0100
0001
0001
0001
0001
0001
0001
,  // measure 24
0001
1000
0001
0010
1000
0001
1000
0100
0001
1000
0001
0010
1000
0001
1000
0100
,  // measure 25
0001
1000
0001
0010
1000
0001
1000
0100
0001
1000
0001
0010
1000
0001
1000
0100
,  // measure 26
0001
0010
0100
1000
0001
0010
0100
1000
0001
0010
0100
1000
0001
0010
0100
1000
,  // measure 27
0001
0010
0100
1000
0001
0010
0100
1000
0001
0010
0100
1000
0001
0010
0100
1000
,  // measure 28
0001
0001
0001
0001
0001
0010
0010
0010
0010
1000
1000
1000
,  // measure 29
0001
0001
0001
0001
0001
0100
0100
0100
0100
1000
1000
1000
,  // measure 30
1001
0000
0000
0000
0000
0000
0000
0100
1000
0100
0010
0001
0000
0000
0000
0000
0000
0000
0000
0000
0000
0000
0000
0000
,  // measure 31
0100
0010
0100
0001
1000
0100
0001
0100
0001
1000
0100
0001
1000
0100
0001
0100
,  // measure 32
0010
1000
0100
0001
0010
0100
1000
0010
0001
0010
0100
0001
1000
0010
0100
0001
,  // measure 33
0100
0000
0000
0010
0000
0000
1000
0000
0000
0100
0000
0000
0010
0000
0000
0000
0001
0000
0000
0000
0100
0000
0000
0000
0010
0000
0000
0000
1000
0000
0000
0000
0010
0000
0000
0000
0100
0000
0000
0000
0010
0000
0000
0000
0001
0000
0000
0000
,  // measure 34
0010
1000
0001
0100
1000
0010
0100
0010
0001
0100
0010
1000
0001
0100
0010
0100
,  // measure 35
0010
0001
1000
0001
0100
0010
1000
0001
0010
0001
0100
0010
0001
1000
0010
0001
,  // measure 36
0100
0010
0001
0010
1000
0001
0100
0010
1000
0010
0100
0001
0010
1000
0100
0010
,  // measure 37
0001
0100
0001
1000
0010
0001
0100
0010
0001
0100
0010
0100
0001
1000
0010
0001
,  // measure 38
0100
0010
0001
1000
0010
0001
1000
0100
0001
0100
1000
0001
0010
1000
0001
0100
,  // measure 39
1000
0000
0000
0000
1000
0000
0000
0000
1000
0000
0000
0000
1000
0000
0000
0000
1000
0000
0000
0000
1000
0000
0000
0000
1000
0100
0010
0001
1000
0000
0000
0000
0001
0000
0000
0000
0001
0000
0000
0000
0001
0000
0000
0000
0001
0000
0000
0000
,  // measure 40
0001
0000
0000
0000
0001
0000
0000
0000
0001
0000
0000
0000
0001
0000
0000
0000
0001
0000
0000
0000
0001
0000
0000
0000
0001
0010
0100
1000
0001
0000
0000
0000
1000
0000
0000
0000
1000
0000
0000
0000
1000
0000
0000
0000
1000
0000
0000
0000
,  // measure 41
1000
0000
0000
0000
1000
0000
0000
0000
1000
0000
0000
0000
1000
0000
0000
0000
1000
0000
0000
0000
1000
0000
0000
0000
1000
0100
0010
0001
1000
0000
0000
0000
0001
0000
0000
0000
0001
0000
0000
0000
0001
0000
0000
0000
0001
0000
0000
0000
,  // measure 42
0001
0000
0000
0000
0001
0000
0000
0000
0001
0000
0000
0000
0001
0000
0000
0000
0001
0000
0000
0000
0001
0000
0000
0000
0001
0010
0100
1000
0001
0000
0000
0000
1000
0000
0000
0000
1000
0000
0000
0000
1000
0000
0000
0000
1000
0000
0000
0000
,  // measure 43
1000
0000
0000
0000
1000
0000
0000
0000
1000
0000
0000
0000
1000
0000
0000
0000
1000
0000
0000
0000
1000
0000
0000
0000
1000
0100
0010
0001
1000
0000
0000
0000
0001
0000
0000
0000
0001
0000
0000
0000
0001
0000
0000
0000
0001
0000
0000
0000
,  // measure 44
0001
0000
0000
0000
0001
0000
0000
0000
0001
0000
0000
0000
0001
0000
0000
0000
0001
0000
0000
0000
0001
0000
0000
0000
0001
0010
0100
1000
0001
0000
0000
0000
1000
0000
0000
0000
1000
0000
0000
0000
1000
0000
0000
0000
1000
0000
0000
0000
,  // measure 45
1000
0000
0000
0000
1000
0000
0000
0000
1000
0000
0000
0000
1000
0000
0000
0000
1000
0000
0000
0000
1000
0000
0000
0000
1000
0100
0010
0001
1000
0000
0000
0000
0001
0000
0000
0000
0001
0000
0000
0000
0001
0000
0000
0000
0001
0000
0000
0000
,  // measure 46
0001
0000
0000
0000
0001
0000
0000
0000
0001
0000
0000
0000
0001
0010
0100
1000
0001
0000
0000
0000
1000
0000
0000
0000
1000
0000
0000
0000
1000
0000
0000
0000
1000
0000
0000
0000
1000
0100
0010
0001
1000
0000
0000
0000
0001
0000
0000
0000
,  // measure 47
0010
0000
0000
0000
0010
0000
0000
0000
0010
0000
0000
0000
0010
0000
0000
0000
0010
0000
0000
0000
0010
0000
0000
0000
0010
1000
0001
0100
0010
0000
0000
0000
0100
0000
0000
0000
0100
0000
0000
0000
0100
0000
0000
0000
0100
0000
0000
0000
,  // measure 48
0100
0000
0000
0000
0100
0000
0000
0000
0100
0000
0000
0000
0100
0000
0000
0000
0100
0000
0000
0000
0100
0000
0000
0000
0100
0001
1000
0010
0100
0000
0000
0000
0010
0000
0000
0000
0010
0000
0000
0000
0010
0000
0000
0000
0010
0000
0000
0000
,  // measure 49
0010
0000
0000
0000
0010
0000
0000
0000
0010
0000
0000
0000
0010
0000
0000
0000
0010
0000
0000
0000
0010
0000
0000
0000
0010
1000
0001
0100
0010
0000
0000
0000
0100
0000
0000
0000
0100
0000
0000
0000
0100
0000
0000
0000
0100
0000
0000
0000
,  // measure 50
0100
0000
0000
0000
0100
0000
0000
0000
0100
0000
0000
0000
0100
0000
0000
0000
0100
0000
0000
0000
0100
0000
0000
0000
0100
0001
1000
0010
0100
0000
0000
0000
0010
0000
0000
0000
0010
0000
0000
0000
0010
0000
0000
0000
0010
0000
0000
0000
,  // measure 51
0010
0000
0000
0000
0010
0000
0000
0000
0010
0000
0000
0000
0010
0000
0000
0000
0010
0000
0000
0000
0010
0000
0000
0000
0010
1000
0001
0100
0010
0000
0000
0000
0100
0000
0000
0000
0100
0000
0000
0000
0100
0000
0000
0000
0100
0000
0000
0000
,  // measure 52
0100
0000
0000
0000
0100
0000
0000
0000
0100
0000
0000
0000
0100
0000
0000
0000
0100
0000
0000
0000
0100
0000
0000
0000
0100
0001
1000
0010
0100
0000
0000
0000
0010
0000
0000
0000
0010
0000
0000
0000
0010
0000
0000
0000
0010
0000
0000
0000
,  // measure 53
0010
0000
0000
0000
0010
0000
0000
0000
0010
0000
0000
0000
0010
0000
0000
0000
0010
0000
0000
0000
0010
0000
0000
0000
0010
1000
0001
0100
0010
0000
0000
0000
0100
0000
0000
0000
0100
0000
0000
0000
0100
0000
0000
0000
0100
0000
0000
0000
,  // measure 54
0100
0000
0000
0000
0100
0000
0000
0000
0100
0000
0000
0000
0100
0001
1000
0010
0100
0000
0000
0000
0010
0000
0000
0000
0010
0000
0000
0000
0010
0000
0000
0000
0010
0000
0000
0000
0010
1000
0001
0100
0010
0000
0000
0000
0100
0000
0000
0000
,  // measure 55
0001
0000
0000
0000
0001
0000
0000
0000
0001
0000
0000
0000
0010
0000
0000
0000
0010
0000
0000
0000
0010
0000
0000
0000
0001
0000
0000
0010
0000
0000
1000
0000
0000
0010
0000
0000
0001
0000
0000
0100
0000
0000
1000
0000
0000
0100
0000
0000
,  // measure 56
0001
0000
0000
0000
0001
0000
0000
0000
0001
0000
0000
0000
1000
0000
0000
0000
1000
0000
0000
0000
1000
0000
0000
0000
0010
0000
0000
0001
0000
0000
1000
0000
0000
0001
0000
0000
0100
0000
0000
0001
0000
0000
1000
0000
0000
0001
0000
0000
,  // measure 57
0010
0000
0000
0000
0010
0000
0000
0000
0010
0000
0000
0000
0100
0000
0000
0000
0100
0000
0000
0000
0100
0000
0000
0000
0001
0000
0000
1000
0000
0000
0100
0000
0000
1000
0000
0000
0010
0000
0000
1000
0000
0000
0100
0000
0000
1000
0000
0000
,  // measure 58
0001
0000
0000
0000
0001
0000
0000
0000
0001
0000
0000
0000
0100
0000
0000
0000
0100
0000
0000
0000
0100
0000
0000
0000
0010
0000
0000
1000
0000
0000
0001
0000
0000
1000
0000
0000
0001
0000
0000
0010
0000
0000
1000
0000
0000
0010
0000
0000
,  // measure 59
0001
0000
0000
0000
0001
0000
0000
0000
0001
0000
0000
0000
1000
0000
0000
0000
1000
0000
0000
0000
1000
0000
0000
0000
0010
0000
0000
0001
0000
0000
0100
0000
0000
0001
0000
0000
0010
0000
0000
0001
0000
0000
1000
0000
0000
0001
0000
0000
,  // measure 60
0010
0000
0000
0000
0010
0000
0000
0000
0010
0000
0000
0000
1000
0000
0000
0000
1000
0000
0000
0000
1000
0000
0000
0000
0001
0000
0000
0100
0000
0000
1000
0000
0000
0100
0000
0000
0010
0000
0000
0100
0000
0000
0001
0000
0000
0100
0000
0000
,  // measure 61
0001
0000
0000
0000
0001
0000
0000
0000
0001
0000
0000
0000
0100
0000
0000
0000
0100
0000
0000
0000
0100
0000
0000
0000
0010
0000
0000
0100
0000
0000
0001
0000
0000
0100
0000
0000
0001
0000
0000
1000
0000
0000
0100
0000
0000
1000
0000
0000
,  // measure 62
0100
0000
0000
0000
0100
0000
0000
0000
0100
0000
0000
0000
0001
0000
0000
0000
0001
0000
0000
0000
0001
0000
0000
0000
0010
0000
0000
0001
0000
0000
0100
0000
0000
0001
0000
0000
0010
0000
0000
1000
0000
0000
0001
0000
0000
1000
0000
0000
,  // measure 63
2002
0000
0000
0000
0000
0000
0000
0000
0000
0000
0000
0000
0000
0000
0000
0000
0000
0000
0000
0000
0000
0000
0000
0000
0000
0000
0000
0000
0000
0000
0000
0000
0000
0000
3003
0000
0100
0000
0000
1000
0000
0000
0100
0000
0000
0010
0000
0000
,  // measure 64
0001
0000
0000
0000
0000
0000
0010
0000
0001
0000
0010
0000
0100
0000
0000
0001
0000
0000
0010
0000
0000
0100
0000
0000
1000
0000
0000
0100
0000
0000
0001
0000
0000
0000
0000
0000
0010
0000
0000
0000
0000
0000
0010
0000
0000
0100
0000
0000
,  // measure 65
1000
0000
0000
0000
0000
0000
0000
0000
0000
0000
0000
0000
0000
0000
0000
0000
0100
0000
0000
0000
0010
0000
0000
0000
0000
0000
0000
0000
0000
0000
0000
0000
0100
0000
0000
0000
0010
0000
0000
0000
0000
0000
0000
0000
0000
0000
0000
0000
0000
0000
0000
0000
0000
0000
0000
0000
0000
0000
0000
0000
0100
0000
0000
0000
0000
0000
0000
0000
0000
0000
0000
0000
0001
0000
0000
0000
0000
0000
0000
0000
0000
0000
0000
0000
0000
0000
0000
0000
0000
0000
0000
0000
0000
0000
0000
0000
1000
0000
0000
0000
0000
0000
0000
0000
0000
0000
0000
0000
0100
0000
0000
0000
0010
0000
0000
0000
0000
0000
0000
0000
0000
0000
0000
0000
0000
0000
0001
0000
0000
0000
0000
0000
0000
0000
0000
0000
0000
0000
0001
0000
0000
0000
0000
0000
0010
0000
0000
0000
0000
0000
0000
0000
0000
0000
0000
0000
0000
0000
0000
0000
0000
0000
0000
0000
0000
0000
0000
0000
1000
0000
0000
0000
0000
0000
0000
0000
0000
0000
0000
0000
0010
0000
0000
0000
0000
0000
0000
0000
0000
0000
0000
0000
,  // measure 66
0001
0000
0000
0000
0000
0000
0000
0000
0000
0000
0000
0000
0000
0000
0000
0000
0000
0000
0000
0000
0000
0000
0000
0000
0100
0000
0000
0000
0000
0000
0000
0000
0000
0000
0000
0000
0010
0000
0000
0000
0000
0000
0000
0000
0000
0000
0000
0000
0100
0000
0000
0000
0000
0000
0000
0000
0000
0000
0000
0000
1000
0000
0000
0000
0000
0000
0000
0000
0000
0000
0000
0000
0010
0000
0000
0000
0000
0000
0000
0000
0000
0000
0000
0000
1000
0000
0000
0000
0000
0000
0010
0000
0000
0000
0000
0000
0100
0000
0000
0000
0000
0000
0010
0000
0000
0000
0000
0000
0001
0000
0000
0000
0000
0000
0010
0000
0000
0000
0000
0000
0100
0000
0000
0000
0000
0000
0000
0000
0000
0000
0000
0000
0010
0000
0000
0000
0000
0000
0000
0000
0000
0000
0000
0000
0100
0000
0000
0000
0000
0000
0000
0000
0000
0000
0000
0000
1000
0000
0000
0000
0000
0000
0000
0000
0000
0000
0000
0000
0100
0000
0000
0000
0000
0000
0000
0000
0000
0000
0000
0000
0000
0000
0000
0000
0010
0000
0000
0000
0000
0000
0000
0000
,  // measure 67
1000
0000
0000
0000
0000
0000
0000
0000
0100
0000
0000
0000
0000
0000
0000
0000
0010
0000
0000
0000
0000
0000
0000
0000
0001
0000
0000
0000
0000
0000
0000
0000
0000
0000
0000
0000
0100
0000
0000
0000
0000
0000
0001
0000
0000
0000
0000
0000
1000
0000
0000
0000
0000
0000
0001
0000
0000
0000
0000
0000
0100
0000
0000
0000
0000
0000
0000
0000
0000
0000
0000
0000
0010
0000
0000
0000
0000
0000
0000
0000
0100
0000
0000
0000
0000
0000
0000
0000
1000
0000
0000
0000
0000
0000
0000
0000
0001
0000
0000
0000
0000
0000
0000
0000
0000
0000
0000
0000
0000
0000
0000
0000
0100
0000
0000
0000
0000
0000
0000
0000
0010
0000
0000
0000
0000
0000
0000
0000
0100
0000
0000
0000
0000
0000
0000
0000
0000
0000
0000
0000
0000
0000
0000
0000
1000
0000
0000
0000
0000
0000
0000
0000
0000
0000
0000
0000
0100
0000
0000
0000
0000
0000
0010
0000
0000
0000
0000
0000
1000
0000
0000
0000
0000
0000
0000
0000
0010
0000
0000
0000
0000
0000
0000
0000
0100
0000
0000
0000
0000
0000
0000
0000
,  // measure 68
0001
0000
0000
0000
0000
0000
0000
0000
0000
0000
0000
0000
0010
0000
0000
0000
0000
0000
0000
0000
0000
0000
0000
0000
1000
0000
0000
0000
0000
0000
0000
0000
0000
0000
0000
0000
0010
0000
0000
0000
0000
0000
0100
0000
0000
0000
0000
0000
0001
0000
0000
0000
0000
0000
0000
0000
0000
0000
0000
0000
0000
0000
0000
0000
0010
0000
0000
0000
0000
0000
0000
0000
1000
0000
0000
0000
0000
0000
0000
0000
0010
0000
0000
0000
0100
0000
0000
0000
0000
0000
0000
0000
0000
0000
0000
0000
1000
0000
0000
0000
0000
0000
0000
0000
0000
0000
0000
0000
0000
0000
0000
0000
0000
0000
0010
0000
0000
0000
0000
0000
0100
0000
0000
0000
0000
0000
0000
0000
0000
0000
0000
0000
0000
0000
0000
0000
0000
0000
0000
0000
0000
0000
0000
0000
1000
0000
0000
0000
0000
0000
0000
0000
0000
0000
0000
0000
0100
0000
0000
0000
0000
0000
0000
0000
0000
0000
0000
0000
0010
0000
0000
0000
0000
0000
0100
0000
0000
0000
0000
0000
0000
0000
0000
0000
0000
0000
0000
0000
0000
0000
0000
0000
,  // measure 69
1000
0000
0100
0000
0001
0000
0010
0000
1000
0000
0010
0100
0001
0100
0010
0000
1000
0000
0010
0000
0001
0000
0100
0000
0001
0000
0000
0010
0100
0010
1000
0010
,  // measure 70
0001
0000
0000
0000
0000
0000
0000
0000
0000
0000
0000
0000
1000
0000
0000
0000
0010
0000
0000
0000
0000
0000
0000
0000
0100
0000
0000
0000
0000
0000
0000
0000
0010
0000
0000
0000
0000
0000
0000
0000
0000
0000
0000
0000
0000
0000
0000
0000
0001
0000
0000
0000
0000
0000
0010
0000
0000
0000
0000
0000
0100
0000
0000
0000
0000
0000
1000
0000
0000
0000
0000
0000
0001
0000
0000
0000
0000
0000
0000
0000
0000
0000
0000
0000
0000
0000
0000
0000
0100
0000
0000
0000
0000
0000
0000
0000
0010
0000
0000
0000
0000
0000
0000
0000
0100
0000
0000
0000
0000
0000
0000
0000
0000
0000
0000
0000
0000
0000
0000
0000
0001
0000
0000
0000
0000
0000
0000
0000
0000
0000
0000
0000
1000
0000
0000
0000
0100
0000
0000
0000
0000
0000
0000
0000
0001
0000
0000
0000
0000
0000
0000
0000
0000
0000
0000
0000
1000
0000
0000
0000
0000
0000
0100
0000
0000
0000
0000
0000
0010
0000
0000
0000
0000
0000
0000
0000
0000
0000
0000
0000
0001
0000
0000
0000
0000
0000
0000
0000
0000
0000
0000
0000
,  // measure 71
0100
0000
0001
0000
0000
0000
0010
0000
0000
0000
1000
0000
0000
0000
0010
0001
0000
0000
0100
0000
0000
0000
0001
0000
1000
0000
0000
0000
0000
0000
0100
0000
0000
0010
0000
0000
1000
0000
0100
0000
0000
0000
1000
0000
0000
0010
0000
0000
,  // measure 72
0100
0000
0000
0000
0000
0000
0000
0000
0000
0000
0000
0000
0010
0000
0000
0000
0000
0000
0000
0000
0000
0000
0000
0000
1000
0000
0000
0000
0000
0000
0000
0000
0000
0000
0000
0000
0010
0000
0000
0000
0000
0000
0100
0000
0000
0000
0000
0000
0001
0000
0000
0000
0000
0000
0010
0000
0000
0000
0000
0000
0100
0000
0000
0000
0000
0000
0000
0000
0000
0000
0000
0000
1000
0000
0000
0000
0000
0000
0000
0000
0000
0000
0000
0000
0001
0000
0000
0000
0000
0000
0000
0000
0000
0000
0000
0000
0010
0000
0000
0000
0000
0000
0000
0000
0000
0000
0000
0000
0100
0000
0000
0000
0000
0000
0000
0000
0000
0000
0000
0000
1000
0000
0000
0000
0000
0000
0000
0000
0000
0000
0000
0000
0000
0000
0000
0000
0000
0000
0001
0000
0000
0000
0000
0000
0100
0000
0000
0000
0000
0000
0010
0000
0000
0000
0000
0000
1000
0000
0000
0000
0000
0000
0100
0000
0000
0000
0000
0000
0010
0000
0000
0000
0000
0000
0000
0000
0000
0000
0000
0000
0000
0000
0000
0000
0001
0000
0000
0000
0000
0000
0000
0000
,  // measure 73
0010
0000
0000
0000
0000
0000
0000
0000
0100
0000
0000
0000
1000
0000
0000
0000
0000
0000
0000
0000
0000
0000
0000
0000
0001
0000
0000
0000
0000
0000
0000
0000
0100
0000
0000
0000
0000
0000
0000
0000
0010
0000
0000
0000
0000
0000
0000
0000
0001
0000
0000
0000
0000
0000
0000
0000
0000
0000
0000
0000
0000
0000
0000
0000
1000
0000
0000
0000
0000
0000
0000
0000
0100
0000
0000
0000
0000
0000
0000
0000
0010
0000
0000
0000
0000
0000
0000
0000
0000
0000
0000
0000
0000
0000
0000
0000
0001
0000
0000
0000
0000
0000
0000
0000
0000
0000
0000
0000
0000
0000
0000
0000
0010
0000
0000
0000
0000
0000
0000
0000
0100
0000
0000
0000
0000
0000
0000
0000
0001
0000
0000
0000
0000
0000
0000
0000
0010
0000
0000
0000
0000
0000
0000
0000
1000
0000
0000
0000
0000
0000
0000
0000
0000
0000
0000
0000
0001
0000
0000
0000
0000
0000
0000
0000
0000
0000
0000
0000
1000
0000
0000
0000
0000
0000
0010
0000
0000
0000
0000
0000
0100
0000
0000
0000
0000
0000
0010
0000
0000
0000
0000
0000
,  // measure 74
0001
0000
0000
0000
0000
0000
0000
0000
0000
0000
0000
0000
0000
0000
0000
0000
0000
0000
0000
0000
0000
0000
0000
0000
0000
0000
0000
0000
0000
0000
0000
0000
0000
0000
0000
0000
0000
0000
0000
0000
0000
0000
0000
0000
0000
0000
0000
0000
0000
0000
0000
0000
0000
0000
0000
0000
0000
0000
0000
0000
0000
0000
0000
0000
0000
0000
0000
0000
0000
0000
0000
0000
0000
0000
0000
0000
0000
0000
0000
0000
0000
0000
0000
0000
1000
0000
0100
0000
0010
0000
0001
0000
0010
0000
0000
0000
0000
0000
0000
0000
0000
0000
0000
0000
0000
0000
0000
0000
0000
0000
0000
0000
0000
0000
0000
0000
0000
0000
0000
0000
0000
0000
0000
0000
0000
0000
0000
0000
0000
0000
0000
0000
0000
0000
0000
0000
0000
0000
0000
0000
0000
0000
0000
0000
0000
0000
0000
0000
0000
0000
0000
0000
0000
0000
0000
0000
0000
0000
0000
0000
0000
0000
0000
0000
0000
0000
0000
0000
0000
0000
0000
0000
0000
0000
0000
0000
0000
0000
0000
0000
0000
0000
0000
0000
0000
0000
0000
0000
0000
0000
0000
0000
,  // measure 75
0101
0001
0100
0001
1000
0010
0001
1000
0100
0010
1000
0001
0100
0010
1000
0001
,  // measure 76
1000
0010
0001
1000
0100
0010
1000
0001
0100
0001
1000
0001
1000
0010
1000
0001
,  // measure 77
0011
0010
0100
1000
0010
0100
0001
0010
0100
1000
0001
0010
0001
1000
0100
0010
,  // measure 78
0100
1000
0001
0100
0010
1000
0100
0010
0001
0100
0010
1000
0001
0010
0100
0010
,  // measure 79
0110
0100
0010
0001
0100
0010
1000
0001
0100
0010
1000
0001
0010
0100
0010
0100
,  // measure 80
0110
0010
0100
1000
0100
0010
0001
0100
0010
0100
0001
0010
0100
1000
0010
0100
,  // measure 81
1100
1000
0001
0010
0100
1000
0001
1000
1001
0001
1000
0100
0010
0001
1000
0010
,  // measure 82
1001
0000
0000
0000
1001
0000
0000
0000
1001
0000
0000
0000
1001
0000
0000
1001
0000
0000
1001
0000
1001
0000
1001
0000
,  // measure 83
1001
0001
0010
0100
1000
0100
0010
0001
0100
0010
0001
0010
0100
1000
0100
0010
,  // measure 84
0100
0000
0010
0000
0001
0000
0010
0000
0100
0000
1000
0000
0100
0000
0010
0000
0001
0010
0100
1000
0001
0010
0100
1000
0001
0010
0100
1000
0001
0010
0100
1000
,  // measure 85
0001
1000
0100
0010
0001
1000
0100
1000
0010
0001
0100
0010
0100
1000
0010
0001
,  // measure 86
0100
0001
0010
1000
0100
0010
0001
0100
0010
0100
0010
0001
1000
0100
0010
0001
,  // measure 87
0010
0000
0000
0100
0000
0000
1000
0000
0000
0001
0000
0000
0100
0000
0000
0000
1000
0000
0000
0000
0001
0000
0000
0000
0010
0000
0000
0000
1000
0000
0000
0000
0010
0000
0000
0000
0001
0000
0000
0000
1000
0000
0000
0000
0010
0000
0000
0000
,  // measure 88
0100
0001
1000
0010
0001
0100
1000
0100
0001
0010
1000
0001
0100
0010
1000
0010
,  // measure 89
0001
1000
0001
0100
0010
0100
0001
1000
0010
1000
0001
0100
0010
0001
0010
1000
,  // measure 90
0001
0100
0010
1000
0010
0100
0010
0100
1000
0010
0100
0010
1000
0100
0010
0100
,  // measure 91
1000
0010
0100
0001
0010
0100
1000
0100
0001
0010
1000
0010
0100
0001
0010
0100
,  // measure 92
1001
1001
1001
0011
0011
0011
0110
0110
0110
1010
1010
1010
,  // measure 93
0001
0100
1000
0100
0001
0001
0100
0001
0010
0001
1000
0001
0100
0010
0100
0001
,  // measure 94
0010
0100
0001
1000
0010
0001
0100
0010
1000
0001
0100
0001
1000
0010
0100
0010
,  // measure 95
1000
0000
0000
0010
0000
0000
0100
0000
0000
0001
0000
0000
0010
0000
0000
0000
0100
0000
0000
0000
1000
0000
0000
0000
0100
0000
0000
0000
0010
0000
0000
0000
0001
0000
0000
0000
0010
0000
0000
0000
0100
0000
0000
0000
1000
0000
0000
0000
,  // measure 96
0001
0000
0000
0000
0010
0000
0000
0000
0100
0000
0000
0000
1000
0000
0000
0000
0100
0000
0000
0000
0010
0000
0000
0000
0001
0000
0000
0010
0000
0000
0100
0000
0000
0010
0000
0000
0001
0000
0000
1000
0000
0000
0100
0000
0000
0010
0000
0000
,  // measure 97
0001
0100
0010
0001
0010
1000
0100
0001
0010
0100
0010
1000
0001
0100
0010
0100
,  // measure 98
0001
1000
0100
1000
0010
0100
0010
0001
0100
0010
1000
0010
0100
0001
0010
0100
,  // measure 99
0001
0010
0001
0010
0001
0010
0001
0100
0010
0001
0100
0001
0100
0001
0100
0001
,  // measure 100
1000
0100
0010
0100
1000
0100
0010
0100
1000
0000
0001
0000
1000
0000
0001
0000
,  // measure 101
1000
0001
1000
0001
1000
0001
1000
0001
1000
0001
1000
0001
1000
0001
1000
0001
1000
0001
1000
0001
1000
0001
1000
0001
1000
0001
1000
0001
1000
0001
1000
0001
,  // measure 102
1000
0001
1000
0001
1000
0001
1000
0001
1000
0001
1000
0001
1000
0001
1000
0001
1000
0001
1000
0001
1000
0001
1000
0001
1000
0001
1000
0001
1000
0001
1000
0001
,  // measure 103
1000
1111
0000
0000
0000
0000
0000
0000
0000
1111
0000
0000
0000
0000
0000
0000
;

//---------------dance-single - W. D. Lesmono----------------
#NOTES:
     dance-single:
     W. D. Lesmono:
     Beginner:
     3:
     0.171,0.297,0.145,0.168,0.000:
0000
0000
0000
0000
,
1001
0000
0000
0000
,
1000
0000
0000
0000
,
0001
0000
0001
0000
,
0001
0000
0001
0000
,
1000
0000
1000
0000
,
0001
0000
0001
0000
,
1000
0001
1000
0001
,
1000
0001
1000
0001
,
2000
0000
0000
0000
,
0000
0000
0000
0000
0000
0000
0000
3000
,
2000
0000
3002
0000
,
2003
0000
3002
0000
,
0000
0000
0000
0000
,
0000
0000
0000
0000
,
0023
0000
0230
0000
,
0320
0000
0230
0000
,
0000
0000
0000
0000
,
0000
0000
0000
0000
,
0302
0000
2003
0000
,
3002
0000
2003
0000
,
3020
0000
0230
0000
,
0320
0000
0230
0000
,
1300
1000
1000
0000
,
0001
0001
0001
0000
,
1000
0001
1000
0001
,
1000
0001
1000
0001
,
2002
0000
0000
0000
,
0000
0000
0000
0000
0000
0000
0000
3003
,
1001
0000
0000
0000
,
0001
0000
0000
0000
,
1000
0000
0000
0000
,
0001
0000
0000
0000
,
0100
0000
0000
0000
,
0010
0000
0000
0000
,
1000
0000
0000
0000
,
0001
0000
0000
0000
,
1000
0000
0000
0000
,
0001
0000
0000
0000
,
1000
0000
0000
0000
,
0010
0000
0000
0000
,
0100
0000
0000
0000
,
0001
0000
0000
0000
,
1000
0000
0000
0000
,
0001
0000
0000
0000
,
1000
0000
0001
0000
,
1000
0000
0000
0000
,
0100
0000
0000
0000
,
0010
0000
0000
0000
,
0001
0000
0000
0000
,
0010
0000
0000
0000
,
0100
0000
0000
0000
,
1000
0000
0100
0000
,
0010
0000
0001
1000
,
0001
0000
1000
1000
,
0001
0000
0100
0100
,
0010
0000
0100
0100
,
0010
0000
0001
0001
,
1000
0000
1000
1000
,
0001
0000
0100
0100
,
0010
0000
0001
1000
,
1001
0000
0001
1000
,
1001
0000
0000
0000
,
0001
0000
0000
0000
,
1000
0000
0000
0000
,
0001
0000
0000
0000
,
1000
0000
0000
0000
,
0001
0000
0000
0000
,
1000
0000
0000
0000
,
0001
0000
0000
0000
,
1000
0000
0000
0000
,
0001
0000
0000
0000
,
0000
1000
0000
0000
,
1001
0000
0000
0000
,
2001
0000
0000
0000
,
0000
0000
0000
0000
0000
0000
0000
3000
,
1002
0000
0000
0000
,
0000
0000
0000
0000
0000
0000
0000
0003
,
2001
0000
0000
0000
0000
0000
0000
3000
,
1002
0000
0000
0000
0000
0000
0000
0003
,
2001
0000
0000
3000
1002
0000
0000
0003
,
2002
0000
0000
0000
,
0000
0000
0000
0000
,
0000
0000
0000
0000
0000
0000
0000
3003
,
0001
0000
1000
1000
,
0001
0000
0001
0001
,
1000
0000
1000
0000
,
0010
0100
0000
0000
,
0001
1000
0000
0000
,
1000
0100
0010
0001
,
1000
0000
0001
0000
,
1000
0000
0000
0000
,
1001
0000
0000
0000
,
1001
0000
0000
0000
,
1001
0000
0000
0000
,
0000
0000
0000
0000
,
1001
0000
0000
0000
,
1001
0000
0000
0000
,
1001
0000
1001
0000
,
1001
0000
1001
0000
,
2002
0000
0000
0000
,
0000
0000
0000
0000
0000
0000
0000
3003
,
1001
0000
1001
0000
;

//---------------dance-single - W. D. Lesmono----------------
#NOTES:
     dance-single:
     W. D. Lesmono:
     Easy:
     5:
     0.354,0.416,0.290,0.296,0.017:
0000
0000
0000
0000
,
1001
0000
0000
0000
,
1001
0000
1000
1000
,
0002
0003
2000
3000
,
0001
1000
0100
1000
,
0020
0000
1000
1030
,
0002
0000
0100
0103
,
0010
0100
0010
0100
,
0010
0100
0010
0100
,
0220
0000
0000
0000
,
0000
0000
0000
0000
0000
0000
0000
0330
,
1000
1000
0100
0100
,
0010
0010
0001
0001
,
0002
1000
1000
1000
,
1000
1000
1000
1003
,
0010
0010
0100
0100
,
1000
1000
0001
0001
,
0002
1000
1000
1000
,
1000
1000
1000
1003
,
0100
0100
0001
0001
,
0100
0100
0010
0010
,
1000
1000
0001
0001
,
0100
0100
0010
0010
,
1000
0001
1000
0001
,
0010
0100
0010
0100
,
1000
0010
0001
0100
,
1000
0010
0001
0100
,
1000
0000
0000
0000
0001
0000
0000
0000
0100
0000
0000
0000
,
0010
0000
0000
0000
0100
0000
0000
0000
0001
0000
0000
0000
,
1001
0002
0003
0000
,
0001
0001
1000
1000
,
0010
0010
1000
0001
,
0100
0010
0100
1000
,
0001
1000
0001
0001
,
0100
0010
1000
0001
,
0100
0100
0010
0010
,
2000
0000
3002
0000
,
1003
0100
0010
0001
,
2001
0000
3101
0000
,
0020
0000
1130
0000
,
0002
0000
1103
0000
,
0002
0000
1103
0000
,
0020
0000
0131
0000
,
2000
0000
3101
0000
,
0002
0000
1013
0000
,
0020
0131
0010
0002
,
2003
0000
3101
0000
,
0002
0000
1103
0000
,
0020
0000
1130
0000
,
0002
0000
1013
0000
,
2000
0000
3101
0000
,
0020
0000
0131
0000
,
2000
0000
3101
0000
,
0001
0000
0101
1010
,
1001
0100
1000
0100
,
0011
1100
0001
1000
,
1100
0011
0100
0010
,
1010
0101
0010
1000
,
1001
0101
0010
0100
,
0101
1010
0001
1000
,
1100
0011
0100
0010
,
0011
1100
0001
1000
,
2002
0000
0000
0000
0000
0000
0000
0000
0000
0000
0000
0000
0000
0000
0000
0000
0000
3003
0001
0000
0000
0000
0000
0000
,
1000
0000
0100
1000
0100
0010
0000
1000
,
0000
0001
0000
0100
0000
0010
0000
0001
,
0000
1000
0100
0010
0001
0010
0100
1000
,
0000
0001
0000
1000
0000
0001
0000
0100
,
0000
0010
0100
0000
1000
0000
0100
0000
,
1000
0001
1000
0100
1000
0010
0100
0000
,
0001
0000
1000
0001
0000
0100
0000
0010
,
0000
1000
0000
0100
0000
0010
0000
1000
,
0100
0010
0001
0010
0100
1000
0000
0001
,
0000
1000
0000
0010
0000
0100
0000
0010
,
2002
0000
0000
0000
0000
0000
0000
0000
0000
0000
0000
0000
3003
0000
2000
3002
0003
0000
0000
0000
0000
0000
0000
0000
0000
0000
0000
0000
0000
0000
0000
0000
,
2002
0000
0000
0000
,
0000
0000
0000
3003
,
2002
0000
0000
0000
,
0000
0000
0000
3003
,
2002
0000
0000
3003
,
0202
0000
0000
0303
,
2020
3030
0202
0303
,
2200
0000
0000
3300
,
2002
0000
0000
0000
,
0000
0000
0000
3003
,
1000
0001
0100
0100
,
0010
1000
1000
0001
,
0100
0010
0100
0010
,
1000
1000
0001
0100
,
0010
0100
0010
1000
,
0001
0010
0100
1000
,
0100
0010
0001
1000
,
0001
0001
0001
0001
,
0001
1000
0100
1000
,
0010
0100
0001
0100
,
0010
1000
1000
1000
,
1000
1000
1000
1000
,
1000
0001
0100
0010
,
0100
0010
1000
0001
,
1000
0100
1000
0010
,
0100
0010
0001
1000
,
2002
0000
0000
0000
,
0000
0000
0000
0000
0000
0000
0000
3003
,
1001
0000
1001
0000
;

//---------------dance-single - W. D. Lesmono----------------
#NOTES:
     dance-single:
     W. D. Lesmono:
     Medium:
     9:
     0.630,0.981,0.261,0.273,0.400:
0000
0000
0000
0000
,
1001
0000
0000
0000
1000
0100
0010
0001
,
1000
0000
0000
0000
1000
0100
1000
0010
,
0100
0001
0010
0000
0001
1000
0010
0000
,
0100
1000
0010
0100
,
0002
0000
0000
0000
1003
0010
0100
0010
,
2000
0000
0000
0000
3001
1000
0100
1000
,
0001
0001
0010
0010
,
0100
0100
1000
1000
,
0001
0010
0100
1000
0001
0010
0100
1000
,
0001
0010
0100
1000
0001
0010
0100
1000
,
0002
0000
2003
0000
,
3200
0000
0320
0000
,
1030
0100
0010
0001
1000
0100
0010
0001
,
1000
0100
0010
0001
1000
0100
0010
0001
,
2000
0000
3002
0000
,
0203
0000
0320
0000
,
0031
0010
0100
1000
0001
0010
0100
1000
,
0001
0010
0100
1000
0001
0010
0100
1000
,
0002
0000
2003
0000
,
3200
0000
2300
0000
,
3020
0000
0230
0000
,
0302
0000
2003
0000
,
3010
0000
0001
0100
0010
0000
1000
0100
,
1000
0000
0010
0100
0010
0000
0001
1000
,
0100
1000
0010
0100
0001
0010
0100
1000
,
0001
1000
0100
1000
0010
0100
0001
0010
,
0101
0000
0000
0000
1100
0000
0000
0000
1010
0000
0000
0000
,
0110
0000
0000
0000
0101
0000
0000
0000
0110
0000
0000
0000
,
1001
0000
2000
3002
0003
0000
0000
0000
,
0010
1001
0100
1000
,
0010
0000
1001
0000
0100
1000
0010
0100
,
0001
0000
1000
0000
0100
1000
0010
0000
,
0100
0001
1100
0011
,
1010
0000
0100
0000
0010
1000
0001
0100
,
0020
2030
3002
0203
,
0320
0000
1030
0100
0010
0000
0001
0010
,
0100
1000
0010
1000
,
0020
0000
0131
0000
,
0200
0000
1310
0000
,
0020
0000
1130
0000
,
2000
0000
3101
0000
,
0200
0000
0311
0000
,
0020
0000
1130
0000
,
0002
0000
1103
0000
,
2000
3101
0020
1130
,
0001
0010
0001
0010
0001
0010
0002
0013
0001
0010
0001
0010
,
0001
0100
0001
0100
0001
0100
0002
0103
0001
0100
0001
0100
,
0010
1000
0010
1000
0010
1000
0020
1030
0010
1000
0010
1000
,
0010
0100
0001
0100
0001
0100
0002
0103
0001
0100
0001
0100
,
0001
0010
0001
0010
0001
0010
0002
0013
0001
0010
0001
0010
,
0100
1000
0100
1000
0100
1000
0200
1300
0100
1000
0100
1000
,
0100
0010
0100
0010
0100
0010
0200
0310
0100
0010
0100
0010
,
1000
0100
1000
0100
1000
0100
2000
3100
1000
0100
1000
0100
,
1001
0000
1010
0000
1000
0100
0010
0001
,
0011
0000
0110
0000
1000
0100
0010
1000
,
1001
0000
0101
0000
0001
0100
0010
1000
,
1001
0000
1100
0000
0001
0010
0100
1000
,
1010
0000
1100
0000
0010
1000
0001
0010
,
0110
0000
0101
0000
0010
0100
1000
0010
,
0110
0000
0101
0000
1000
0001
1000
0100
,
0110
0000
1001
0000
0001
0010
0100
1000
,
1010
0000
0000
0000
0000
0000
0000
0000
0000
0000
0000
0000
0000
0001
0010
0100
,
1000
0000
0001
1000
0100
1000
0010
1000
0001
1000
0100
0000
1000
0000
0010
0100
,
1000
0001
0100
0010
1000
0100
0001
0100
,
0010
0000
1000
0100
0010
0001
0010
0100
1000
0001
1000
0100
1000
0010
0100
0000
,
0001
0000
1000
0100
1000
0010
1000
0001
0100
0000
0010
0000
0001
0010
0100
0000
,
1000
0000
0001
0100
0010
0000
1000
0000
0100
0000
1000
0000
0010
0000
0100
0000
,
0001
0010
0100
1000
0010
1000
0001
0100
0010
1000
0100
0010
0001
0000
0100
0000
,
0010
1000
0100
1000
0001
0100
0010
0000
1000
0000
0001
0000
0100
0000
0010
0000
,
1000
0001
1000
0000
0100
0000
1000
0000
0010
0000
1000
0000
0001
0000
0100
0010
,
1000
0001
0100
0001
0010
0100
1000
0010
1000
0001
0100
0000
0010
0000
1000
0001
,
1000
0100
1000
0010
1000
0000
0001
0000
0100
0000
0010
0000
1000
0100
0010
0001
,
0200
0000
0000
0000
0000
0000
0000
0000
0000
0000
0000
0000
0000
0000
0000
0000
0000
0000
0000
0000
0000
0000
0000
0000
0000
0000
0000
0000
0000
0000
0000
0000
0000
0000
0000
0000
0000
0000
0000
0000
0000
0000
0000
0000
0000
0000
0000
0000
0000
0000
0000
0000
0000
0000
0000
0000
0000
0000
0000
0000
0000
0000
0000
0000
0000
0000
0000
0000
0000
0000
0000
0000
0000
0000
0000
0000
0000
0000
0000
0000
0300
0000
0000
0000
2000
0000
0000
0000
0000
0000
3002
0000
0000
0000
0000
0000
0003
0000
0000
0000
0000
0000
0000
0000
0000
0000
0000
0000
0000
0000
0000
0000
0000
0000
0000
0000
0000
0000
0000
0000
0000
0000
0000
0000
0000
0000
0000
0000
0000
0000
0000
0000
0000
0000
0000
0000
0000
0000
0000
0000
0000
0000
0000
0000
0000
0000
0000
0000
0000
0000
0000
0000
0000
0000
0000
0000
0000
0000
0000
0000
0000
0000
0000
0000
0000
0000
0000
0000
0000
0000
0000
0000
0000
0000
0000
0000
0000
0000
0000
0000
0000
0000
0000
0000
0000
0000
0000
0000
0000
0000
0000
0000
,
0001
0010
0100
0010
0100
1000
0100
0010
,
0100
0001
0100
0010
0100
1000
0100
0001
,
1000
0100
0010
0100
0001
0010
0100
1000
,
0001
1000
0100
1000
0100
0010
0100
0001
,
1000
0100
1000
0010
0100
0001
1000
0100
,
0010
1000
0001
0010
0100
1000
0010
1000
,
0001
1000
0100
1000
0010
0100
0001
0100
,
1000
0000
0000
0000
1000
0000
0000
0000
1000
0000
0000
0000
1000
0000
0000
1000
0000
0000
1000
0000
0000
1000
0000
0000
,
2002
0000
0000
0000
0000
0000
0000
3003
,
0001
0000
0010
0000
1000
0100
0010
0001
,
1001
0000
0010
0000
1000
0001
0100
0001
,
0010
0000
1000
0000
0100
0001
0010
0001
,
1000
0100
0001
0010
,
1010
0101
0001
0010
,
0001
0000
1000
0000
0001
1000
0100
0010
,
0100
0001
0010
1000
,
0100
0000
0001
0010
1000
0000
0100
0001
,
0100
0010
1000
0100
0010
0100
0001
0100
0010
1000
0001
0100
,
0001
0000
1000
0001
0100
1000
0001
0010
,
1000
0000
0100
0001
0010
1000
0100
1000
,
0010
0000
0001
1000
0100
0010
0100
1000
,
0001
0010
0001
1000
0001
0100
0001
0010
,
0001
0000
1000
0001
0100
0001
0010
1000
,
0100
0000
0001
0100
0010
1000
0100
1000
,
0001
0001
1000
0100
,
1000
0000
0000
0000
0001
0000
0000
0000
1000
0000
0000
0001
0000
0000
1000
0000
,
0001
1000
0001
1000
0001
1000
0001
1000
0001
1000
0001
1000
0001
1000
0001
1000
,
0001
1000
0001
1000
0001
1000
0001
1000
0001
1000
0001
1000
0001
1000
0001
1000
,
0001
1001
0000
0000
0000
0000
0000
0000
0000
1001
0000
0000
0000
0000
0000
0000
;
