#TITLE:Couple Breaking;
#SUBTITLE:;
#ARTIST:SHK;
#TITLETRANSLIT:;
#SUBTITLETRANSLIT:;
#ARTISTTRANSLIT:;
#CREDIT:;
#BANNER:;
#BACKGROUND:;
#LYRICSPATH:;
#CDTITLE:;
#MUSIC:SHK - Couple Breaking.mp3;
#OFFSET:-4.261;
#SAMPLESTART:16.911;
#SAMPLELENGTH:20.000;
#SELECTABLE:YES;
#DISPLAYBPM:170.000;
#BPMS:0.000=170.000;
#STOPS:;
#BGCHANGES:;

//---------------dance-single - Wahyu D. L----------------
#NOTES:
     dance-single:
     Wahyu D. L:
     Beginner:
     1:
     0.080,0.135,0.030,0.015,0.000:
1000
0000
0000
0000
,
0001
0000
0000
0000
,
1000
0000
0000
0000
,
0001
0000
0000
0000
,
1000
0000
0000
0000
,
0001
0000
0000
0000
,
1000
0000
0000
0000
,
0001
0000
0000
0000
,
1001
0000
0000
0000
,
1000
0000
0000
0000
,
0001
0000
0000
0000
,
1000
0000
0000
0000
,
0001
0000
0000
0000
,
0100
0000
0000
0000
,
0010
0000
0000
0000
,
0100
0000
0000
0000
,
0010
0000
0000
0000
,
0100
0000
0000
0000
,
0010
0000
0000
0000
,
0100
0000
0000
0000
,
0010
0000
0000
0000
,
1000
0000
0000
0000
,
0001
0000
0000
0000
,
1000
0000
0000
0000
,
0001
0000
0000
0000
,
1000
0000
0000
0000
,
0001
0000
0000
0000
,
1001
0000
0000
0000
,
1000
0000
0000
0000
,
0000
0000
0000
0000
,
0001
0000
0000
0000
,
0000
0000
0000
0000
,
1000
0000
0000
0000
,
0000
0000
0000
0000
,
0001
0000
0000
0000
,
0000
0000
0000
0000
,
0100
0000
0000
0000
,
0000
0000
0000
0000
,
0010
0000
0000
0000
,
0000
0000
0000
0000
,
0100
0000
0000
0000
,
0000
0000
0000
0000
,
0010
0000
0000
0000
,
0000
0000
0000
0000
,
1000
0000
0000
0000
,
0001
0000
0000
0000
,
1000
0000
0000
0000
,
0001
0000
0000
0000
,
1000
0000
0000
0000
,
0001
0000
0000
0000
,
0100
0000
0000
0000
,
0010
0000
0000
0000
,
0100
0000
0000
0000
,
0010
0000
0000
0000
,
0100
0000
0000
0000
,
0010
0000
0000
0000
,
1000
0000
0000
0000
,
0001
0000
0000
0000
,
1000
0000
0000
0000
,
0001
0000
0000
0000
,
1001
0000
0000
0000
,
0000
0000
0000
0000
,
1000
0000
0000
0000
,
0000
0000
0000
0000
,
0001
0000
0000
0000
,
0000
0000
0000
0000
,
0100
0000
0000
0000
,
0000
0000
0000
0000
,
0010
0000
0000
0000
,
0000
0000
0000
0000
,
1000
0000
0000
0000
,
0000
0000
0000
0000
,
0001
0000
0000
0000
,
0000
0000
0000
0000
,
0100
0000
0000
0000
,
0000
0000
0000
0000
,
0010
0000
0000
0000
,
0000
0000
0000
0000
,
1000
0000
0000
0000
,
0000
0000
0000
0000
,
0001
0000
0000
0000
,
0000
0000
0000
0000
,
1000
0000
0000
0000
,
0000
0000
0000
0000
,
0001
0000
0000
0000
,
1000
0000
0000
0000
,
0010
0000
0000
0000
,
0100
0000
0000
0000
,
2002
0000
0000
0000
,
0000
0000
0000
0000
,
0000
0000
3003
0000
;

//---------------dance-single - Wahyu D. L----------------
#NOTES:
     dance-single:
     Wahyu D. L:
     Easy:
     4:
     0.384,0.506,0.499,0.060,0.000:
1000
0000
0000
0000
,
0001
0000
0000
0000
,
1000
0000
0000
0000
,
0001
0000
0000
0000
,
0100
0000
0000
0000
,
0010
0000
0100
0000
,
0010
0100
0010
0100
,
0010
0010
0010
0010
,
0220
0000
0000
0000
0000
0000
0000
0330
,
1000
1001
0001
1001
,
1000
1001
0001
1001
,
1000
1001
0001
1001
,
1000
1001
0001
1001
,
0100
0110
0010
0110
,
0100
0110
0010
0110
,
0100
0110
0010
0110
,
0100
0110
0100
1000
,
1001
0100
1000
0010
,
0100
0001
0010
0100
,
1000
0000
0001
1000
,
0001
0100
0010
1000
,
1001
0000
1001
0000
,
1000
1000
1000
0001
,
0000
1000
0100
0010
,
1000
0001
0100
0010
,
1000
1000
1000
1000
,
0001
0001
0001
0001
,
2002
0000
0000
3000
,
1003
1001
0000
1001
,
0000
1001
0000
1000
,
1001
0001
0000
0001
,
0000
0001
0000
0001
,
0100
0110
0000
0110
,
0000
0110
0000
0110
,
1000
1100
0000
1100
,
0001
0000
1000
0000
0100
1000
0010
0100
,
0001
0000
0100
0000
,
0010
0000
1000
0001
,
1001
0000
1000
0000
,
0001
0000
1000
0100
,
0110
0000
0001
0000
,
1000
0000
0100
0010
,
0011
0000
0100
0000
,
1000
1000
1000
1000
,
1001
0001
1000
0001
,
1000
0001
1000
0001
,
0010
0100
0010
0100
,
0010
0100
0010
0100
,
1000
0010
1000
0010
,
1000
0001
0100
0010
,
1000
0001
1000
0100
,
1000
0001
1000
0001
,
0100
0010
0100
0010
,
0100
0010
0100
0010
,
1000
0001
1000
0001
,
1000
0001
1000
0001
,
1000
0100
0010
0001
,
0100
0010
1000
0100
,
1000
0001
0100
0010
,
1000
0001
1000
0001
,
2002
0000
0000
0000
,
0000
0000
0000
0000
0000
0000
0000
3003
,
1000
0000
1000
0000
,
1000
0000
1000
0000
,
0001
0000
0001
0000
,
0001
0000
0001
0000
,
1001
0000
1000
0000
,
0001
0000
1000
0000
,
0001
0000
1000
0000
,
0100
0010
0100
0010
,
0110
1000
1100
0001
,
0101
0010
0110
1000
,
1010
0001
0011
0100
,
0110
1000
1100
1000
,
1001
0100
0101
0001
,
0011
0100
0110
1000
,
1100
0001
1001
0100
,
0110
1000
1100
1001
,
0101
0011
0100
1010
,
1000
1001
0100
0101
,
0001
0011
0010
0110
,
1000
1100
1000
1001
,
0001
0101
0010
0110
,
1000
1100
1000
1001
,
0100
0100
0100
0100
,
0010
0010
0010
0010
,
1000
1000
1000
1000
,
0001
0001
0001
0001
,
2002
0000
0000
0000
,
0000
0000
0000
0000
,
0000
0000
3003
0000
;

//---------------dance-single - Wahyu D. L----------------
#NOTES:
     dance-single:
     Wahyu D. L:
     Challenge:
     11:
     0.922,1.000,0.268,0.186,0.831: // measure 1
0110
0000
0010
0000
0100
0000
1000
0100
,  // measure 2
1000
0020
0000
0032
0000
2003
0000
3000
,  // measure 3
0110
0000
1000
0000
0001
0000
0010
1000
,  // measure 4
0100
2000
0000
3020
0000
2030
0000
3000
,  // measure 5
0110
0000
0100
0000
0001
0000
0100
0001
,  // measure 6
0010
0001
0000
0010
1000
0010
0000
1000
,  // measure 7
1010
0000
0110
0000
0101
0001
0010
0100
,  // measure 8
0001
1000
0100
0010
0001
1000
0100
0010
0110
0000
0000
0110
0000
0000
0110
0000
,  // measure 9
0220
0000
0000
0000
0000
0000
0000
0330
,  // measure 10
1000
0000
0001
0000
0100
0000
1000
0001
1000
0000
0100
0000
1000
0000
0001
1000
,  // measure 11
0100
0000
0001
0000
1000
0000
0010
0001
0100
0000
0001
0000
1000
0000
0001
1000
,  // measure 12
0100
0000
1000
0000
0001
0000
0001
1000
0100
0000
1000
0000
0001
0000
0010
1000
,  // measure 13
0100
0000
0010
0000
0100
0000
0010
0001
1000
0000
0001
0000
0100
0000
1000
0001
,  // measure 14
0100
0000
0001
0000
0100
0000
0010
1000
0001
0000
1000
0000
0001
0000
0010
1000
,  // measure 15
0100
0000
0010
0000
1000
0000
0100
0001
1000
0000
0100
0000
0001
0000
1000
0100
,  // measure 16
0001
0000
0010
0000
0100
0000
0001
1000
0100
0000
0001
0000
0100
0000
0010
1000
,  // measure 17
0100
0000
0001
0000
1000
0001
1000
0001
0200
0000
0000
0000
0320
0000
0000
0000
,  // measure 18
0031
0000
0010
0000
0100
0000
0001
1000
0100
0000
0001
0000
1000
0000
0100
1000
,  // measure 19
0010
0000
1000
0000
0010
0000
0001
1000
0010
0000
0100
0000
1000
0000
0010
1000
,  // measure 20
0100
0000
1000
0000
0010
0000
0001
0010
0100
0000
0001
0000
0010
0000
1000
0100
,  // measure 21
1000
0000
0010
0000
0100
0000
1000
0100
0010
0000
0100
0000
0010
0000
0100
1000
,  // measure 22
0010
0000
1000
0000
0100
0000
0100
1000
0010
0000
0001
0000
0100
0000
0010
0100
,  // measure 23
1000
0000
1000
0000
0010
0000
1000
0010
0001
0000
0100
0000
0010
0000
0001
1000
,  // measure 24
0010
0000
0010
0000
0001
0000
1000
0100
0001
0000
1000
0000
0001
0000
0001
0010
,  // measure 25
0100
0000
1000
0000
0010
0000
1000
0010
0001
0000
0100
0000
0010
0000
0001
1000
,  // measure 26
0010
0100
0001
0100
0010
0100
1000
0001
,  // measure 27
0010
0100
0001
1000
0010
0100
0001
1000
1010
0000
0000
0110
0000
0000
0101
0000
,  // measure 28
0022
0000
0000
0000
0000
0000
0000
0033
,  // measure 29
0001
0M00
0010
000M
1000
00M0
0001
M000
,  // measure 30
0010
000M
0100
0M00
0010
M000
0001
0M00
,  // measure 31
1000
000M
0010
M000
0001
00M0
0001
M000
,  // measure 32
0100
0M00
0001
00M0
0001
0M00
0100
00M0
,  // measure 33
1101
0000
0001
000M
0100
00M0
0001
0M00
,  // measure 34
0001
000M
0010
0M00
0010
000M
0100
M000
,  // measure 35
0111
0000
0100
000M
0010
0M00
0001
00M0
,  // measure 36
1100
0000
0000
0000
0110
0000
0000
0000
0101
0000
0001
0000
0100
0001
0100
0001
,  // measure 37
0100
0000
0000
0000
0001
0000
1000
0001
0010
0000
0000
0000
0001
0000
0010
0100
,  // measure 38
0001
0000
0000
0000
0010
0000
0100
0010
1000
0000
0000
0000
0010
0000
0100
1000
,  // measure 39
0001
0000
0000
0000
0010
0000
1000
0010
0001
0000
0000
0000
1000
0000
0001
0100
,  // measure 40
0010
0000
0000
0000
0001
0000
1000
0100
0001
0000
0000
0000
0010
0000
1000
0010
,  // measure 41
0001
0000
0100
0000
0001
0000
0010
0100
1000
0000
0100
0000
0001
0000
1000
0001
,  // measure 42
0010
0000
1000
0000
0001
0000
0010
0100
1000
0000
0001
0000
0010
0000
0100
0010
,  // measure 43
0001
0000
0010
0000
0100
0000
1000
0010
0001
0000
0010
0000
0100
0000
0010
0100
,  // measure 44
0101
0000
0000
0000
1100
0000
0000
0000
0101
0000
0100
0000
0001
0010
0001
0010
,  // measure 45
0001
0010
0100
1000
0001
0010
0001
1000
0001
0010
0100
1000
0001
0010
0100
0010
,  // measure 46
0001
1000
0100
0010
0001
1000
0100
0010
0001
0010
0100
0010
0001
1000
0100
0010
,  // measure 47
0001
0010
0100
1000
0001
0010
0001
0010
0100
0010
0001
0010
0001
1000
0100
0010
,  // measure 48
0001
0010
0100
0010
0001
1000
0100
0010
0100
1000
0100
0010
0001
0010
0100
0010
,  // measure 49
0100
0010
0100
1000
0001
0010
0100
1000
0001
0010
0001
0010
0001
1000
0001
0010
,  // measure 50
0001
0010
0100
0010
0100
0010
0100
0010
0100
0001
0010
0001
0010
0001
0010
0001
,  // measure 51
0010
1000
0001
1000
0001
0010
0001
0010
0100
0010
0001
0010
0001
1000
0001
0010
,  // measure 52
0001
0010
0100
0010
0001
0010
0100
1000
0010
1000
0001
0010
0001
1000
0001
0010
,  // measure 53
0001
1000
0100
0010
0100
0010
0001
0010
0001
1000
0100
0010
0001
1000
0100
0010
,  // measure 54
0100
1000
0100
0010
1000
0010
0100
1000
0001
0010
0100
1000
0001
0010
0001
1000
,  // measure 55
0010
1000
0100
0010
0001
1000
0001
0010
0100
0010
0001
1000
0001
0010
0100
0010
,  // measure 56
0001
1000
0100
0001
0010
0100
0001
1000
0100
0001
0010
1000
0001
1000
0010
0100
,  // measure 57
0001
0100
0010
0001
0010
0001
0100
0001
0010
0100
0010
0001
0010
0100
0010
0100
,  // measure 58
0001
0010
0001
0010
0001
0010
0001
0010
0100
0010
0100
0010
0100
0010
0100
0010
,  // measure 59
0100
0001
0010
0100
0010
0100
0010
0001
0010
0100
1000
0100
0001
0100
0010
0001
,  // measure 60
0100
0001
0010
0100
1000
0100
0010
0001
0011
0000
0000
0101
0000
0000
1010
0000
,  // measure 61
2002
0000
0000
0000
,  // measure 62
0000
0000
0000
0000
0000
0000
0000
0000
0000
0000
0000
0000
3003
MMMM
0000
0000
,  // measure 63
1111
0000
0100
0000
0010
0000
0010
0100
,  // measure 64
0000
2000
0000
3020
0000
0032
0000
0023
,  // measure 65
0130
0000
0010
0000
1000
0000
0010
2000
,  // measure 66
0000
3002
0000
0023
0000
0230
0000
0320
,  // measure 67
0031
0000
0001
0000
0010
0000
1000
0001
,  // measure 68
0000
0010
0001
1000
0000
0001
1000
0100
,  // measure 69
0000
0000
0001
0000
1000
0100
0001
1000
,  // measure 70
0011
0000
1010
0000
1001
1000
0001
1000
,  // measure 71
0001
0000
1000
0000
0001
0000
0010
0001
0100
0000
0010
0000
1000
0000
0001
0010
,  // measure 72
0001
0000
1000
0000
0100
0000
0010
0001
1000
0000
0100
0000
1000
0000
0001
0010
,  // measure 73
0001
0000
0010
0000
1000
0000
0001
0100
0001
0000
1000
0000
0100
0000
0001
0010
,  // measure 74
1000
0000
0010
0000
0100
0000
0010
0001
1000
0000
0001
0000
0100
0000
0001
0010
,  // measure 75
1000
0000
0010
0000
0100
0000
0001
0010
1000
0000
0001
0000
0010
0000
0100
0010
,  // measure 76
1000
0000
0001
0000
0100
0000
0001
0010
0001
0000
0010
0000
1000
0000
0001
0010
,  // measure 77
0001
0000
0010
0000
1000
0000
0100
0010
1000
0000
0001
0000
0100
0000
0001
0010
,  // measure 78
0100
0000
0010
0000
0001
0100
0001
0010
1000
0000
0000
0000
0110
0000
0000
0000
,  // measure 79
1100
0000
0100
0000
1000
0000
0001
0010
1000
0000
0001
0000
0010
0000
0001
0010
,  // measure 80
1000
0000
0100
0000
0001
0000
0010
0001
1000
0000
0010
0000
0001
0000
0100
0001
,  // measure 81
0010
0000
1000
0000
0010
0000
0100
0010
0001
0000
0001
0000
1000
0000
0001
0010
,  // measure 82
1000
0000
0010
0000
0100
0000
0001
0010
0001
0000
1000
0000
0100
0000
0001
0010
,  // measure 83
1000
0000
0100
0000
1000
0000
0001
0010
0100
0000
0010
0000
1000
0000
0010
0001
,  // measure 84
0010
0000
0100
0000
0010
0000
0100
0001
1000
0000
0001
0000
0100
0000
0010
1000
,  // measure 85
0001
0000
1000
0000
0100
0000
0010
1000
0001
0000
1000
0000
0100
0000
0001
1000
,  // measure 86
0010
0000
0001
0000
1000
0000
0100
0010
0001
0000
0010
0000
0100
0000
0001
0010
,  // measure 87
1000
0001
0100
0010
1000
0001
0010
1000
,  // measure 88
0001
0100
0010
0001
1000
0100
0010
0001
0011
0000
0000
0110
0000
0000
1100
0000
,  // measure 89
2002
0000
0000
0000
,  // measure 90
0000
0000
0000
0000
,  // measure 91
0000
0000
3003
0000
;

//---------------dance-single - Wahyu D. L----------------
#NOTES:
     dance-single:
     Wahyu D. L:
     Hard:
     8:
     0.536,0.573,0.030,0.067,0.127:
1000
0000
0000
1000
0000
0000
1000
0000
0000
1000
0000
0000
1000
0000
0100
0000
,
0010
0000
0100
0000
0000
0100
0000
0000
0100
0000
0000
0100
0000
0000
0100
0000
,
1000
0000
0001
0000
0000
0001
0000
0000
0001
0000
0000
0001
0000
0000
0001
0000
,
0100
0000
0010
0000
0000
0010
0000
0000
0010
0000
0000
0010
0000
0000
0010
0000
,
1000
0000
0001
0000
0000
0001
0000
0000
0001
0000
0000
0001
0000
0000
0001
0000
,
1000
0000
0100
0000
0000
0100
0000
0000
0100
0000
0000
0100
0000
0000
0100
0000
,
1000
0000
0010
0000
0000
0010
0000
0000
0010
0000
0000
0010
0000
0000
0010
0000
,
1000
0100
0010
0001
0010
0100
1000
0100
,
2002
0000
0000
0000
0000
0000
0000
3003
,
1000
0000
0001
0000
0100
0000
0010
0100
,
0000
1000
0000
0001
0000
0100
0010
0000
,
1000
0000
0001
0000
0100
0000
0010
0100
,
0000
0001
0000
1000
0000
0100
1000
0100
,
0010
0000
0001
0000
1000
0000
0001
1000
,
0000
0100
0000
1000
0000
0010
0000
0200
,
0000
0000
0000
0000
0300
0001
0010
0100
,
2000
0000
3001
1000
,
0100
0000
0010
0000
0000
1000
0000
0001
,
1000
0100
1000
0010
,
0100
0000
0000
0000
0000
0000
0000
0000
0001
0000
0000
1000
0000
0000
0100
0000
,
1000
0010
0100
0001
,
1100
0000
0100
0000
1000
0100
0000
1000
,
0100
0010
0100
0001
,
1000
0000
0100
0000
0000
0100
0000
0000
0100
0000
0000
0100
0000
0000
1000
0000
,
0010
0000
0100
0000
0000
0100
0000
0000
0100
0000
0000
0100
0000
0000
0100
0000
,
0001
0000
0100
0000
0000
0100
0000
0000
0100
0000
0000
0100
0000
0000
0100
0000
,
0001
0000
0010
0000
0000
0010
0000
0000
0010
0000
0000
0010
0000
0000
0010
0000
,
0220
0000
0000
0000
0000
0000
0000
0330
,
1000
0000
0001
1000
0000
1000
0100
1000
,
0010
0000
0100
0001
0000
1000
0100
0010
,
0001
0000
1000
0001
0000
1000
0001
0100
,
0010
0000
1000
0001
0000
1000
0100
0010
,
0001
0000
1000
0001
0000
1000
0000
0001
,
0100
0000
0010
0100
0000
0001
0010
0100
,
1000
0000
0001
1000
0000
0100
0000
1000
,
0010
0000
0000
0000
0000
0000
0100
0000
0000
0001
0000
0000
0000
0000
0000
MMMM
0000
0000
0000
0000
MMMM
0000
0000
0000
,
1000
0000
0100
1000
0000
0100
0000
0010
,
0100
0000
0001
0010
0000
0001
0010
0100
,
1000
0000
0001
1000
0000
0100
0000
1000
,
0010
0000
1000
0001
0000
1000
0001
0100
,
0010
0000
1000
0001
0000
1000
0000
0100
,
1000
0000
0001
1000
0000
0010
1000
0001
,
1000
0000
0001
0100
0000
0010
0000
1000
,
0001
0000
1000
0000
0001
1000
0100
1000
,
0010
1000
0100
0010
0001
0010
0100
1000
,
0001
1000
0100
1000
0010
1000
0001
1000
,
0100
0010
0001
0010
0100
1000
0001
1000
,
0100
1000
0010
1000
0001
1000
0100
0010
,
0001
0010
0100
1000
0001
1000
0100
1000
,
0100
0010
0001
0010
0100
1000
0100
0010
,
0001
0100
0001
1000
0100
1000
0010
1000
,
0001
0010
0100
0001
0010
0100
1000
0100
,
0010
0001
0010
0100
1000
0001
1000
0100
,
1000
0010
1000
0001
0010
0001
0100
0010
,
1000
0001
1000
0100
1000
0010
1000
0001
,
0100
0001
0010
0001
0100
0010
1000
0001
,
1000
0100
1000
0010
1000
0001
0010
0001
,
0100
1000
0100
0001
0010
1000
0010
0001
,
0010
1000
0010
1000
0010
1000
0001
0100
,
0010
1000
0001
0010
0001
0100
0010
1000
,
0200
0000
0000
0000
,
0000
0000
0000
0000
0000
0000
0000
0300
,
1000
0000
0100
0000
1000
0000
0001
0010
,
0000
0100
0000
1000
0000
0001
0000
0100
,
0010
0000
1000
0000
0001
0000
0100
0001
,
0000
0010
0000
0001
0000
0100
0000
0010
,
1000
0000
0001
0000
1000
0000
0100
1000
,
0000
0001
0000
0100
0000
0010
0000
1000
,
0000
0000
0000
0000
0000
1000
0100
0010
,
0001
0000
1000
0000
0001
1000
0001
1000
,
0001
0010
0001
0000
0100
0010
0100
0000
,
1000
0100
0010
0000
0001
0010
0100
0000
,
1000
0001
1000
0000
0010
1000
0001
0000
,
0100
0001
0010
0000
0001
0010
0100
0000
,
1000
0100
1000
0000
0001
1000
0001
0000
,
1000
0010
1000
0000
1000
0001
0010
0000
,
0001
0100
0010
0000
1000
0001
0100
0000
,
0010
1000
0001
0000
1000
0100
1000
0001
,
1000
0000
0010
0000
1000
0001
0100
0010
,
1000
0000
0001
0000
1000
0000
0100
1000
,
0010
0000
0000
0000
1000
0000
0000
0000
0001
0000
0000
1000
0000
0000
0001
0000
,
0100
0000
0010
0000
1000
0000
0001
1000
,
0100
0000
1000
0000
0010
1000
0000
1000
,
0001
0000
0000
0000
0100
0000
0000
0000
0010
0000
0000
1000
0000
0000
0001
0000
,
0000
0000
1000
0000
0000
1000
0000
0000
1000
0000
0000
1000
0000
0000
1000
0000
,
0100
0000
0010
0000
0000
0010
0000
0000
0010
0000
0000
0010
0000
0000
0010
0000
,
0001
0000
1000
0000
0000
1000
0000
0000
1000
0000
0000
1000
0000
0000
1000
0000
,
0100
0000
0010
0000
0000
0010
0000
0000
0010
0000
0000
0010
0000
0000
0001
0000
,
2002
0000
0000
0000
,
0000
0000
0000
0000
,
0000
0000
3003
0000
;

//---------------dance-single - Wahyu D. L----------------
#NOTES:
     dance-single:
     Wahyu D. L:
     Medium:
     6:
     0.542,0.539,0.112,0.857,0.011:
1001
0000
1000
0000
0100
0000
1000
0020
,
0000
2030
0000
3002
0000
0203
0000
0300
,
0010
0000
1000
0000
0001
0000
0100
0020
,
0000
2030
0000
3002
0000
2003
0000
3000
,
1001
0000
0100
0000
0010
0000
1000
0002
,
0000
2003
0000
3200
0000
2300
0000
3020
,
0000
0030
0000
0000
0000
2000
3200
0302
,
0000
0000
0000
0000
0003
0000
0000
0000
1000
0000
0000
0001
0000
0000
0100
0000
,
0020
0000
0000
0000
0000
0000
0000
0030
,
1001
0000
0001
0000
1000
0000
0100
2000
,
0000
3020
0000
2030
0000
3002
0000
0003
,
0100
0000
0010
0000
0100
0000
1000
0002
,
0000
2003
0000
3020
0000
2030
0000
3000
,
1000
0000
0001
0000
0100
0000
0010
0200
,
0000
2300
0000
3002
0000
2003
0000
3020
,
0000
0030
0000
0000
0000
0002
0023
0230
,
0000
0300
0002
0203
,
0322
0000
0033
0000
0000
1000
0000
0001
,
2000
3200
2300
3020
,
0230
0000
0000
0000
0300
0000
0000
0000
0001
0000
0000
0010
0000
0000
0100
0000
,
2000
0000
3020
0000
2030
0000
3002
0003
,
1001
0000
1000
0000
0100
1000
0000
0010
,
2000
3002
0023
0230
,
1000
1000
1000
2300
,
0001
0001
0001
3002
,
0010
0010
0010
0023
,
0100
0100
0100
0130
,
0220
0000
0000
0000
0000
0000
0000
0330
,
1000
0001
1000
0100
,
1000
0000
0010
1000
0000
0000
0000
0000
,
1000
0000
1000
0001
0000
0100
0000
0100
,
0010
0000
1000
0001
0000
0000
0000
0000
,
1001
0000
1000
0001
0000
0100
0000
0010
,
1000
0000
0001
1000
0000
0000
0000
0000
,
0110
0000
1000
0010
0000
1000
0000
1000
,
0001
0000
0100
0010
0000
0000
0000
0000
,
1001
0000
0001
1000
0000
0100
0000
1000
,
0010
0000
0100
0010
0000
0001
0010
0100
,
1000
0000
1000
0001
0000
0100
0000
0010
,
0100
0000
0010
1000
0000
1000
0100
0010
,
0001
0000
1000
0001
0000
0100
0000
0010
,
0100
0000
0010
1000
0000
0001
1000
0100
,
0010
0000
0001
0100
0000
0010
0000
1000
,
0001
0000
1000
0100
0000
0001
0100
0010
,
1000
0010
0001
0000
0100
0010
1000
0000
,
0001
1000
0100
0000
1000
0010
1000
0000
,
0001
1000
0001
0000
1000
0001
0100
0000
,
0010
1000
0100
0000
1000
0010
1000
0000
,
0001
0100
0010
0000
1000
0001
1000
0000
,
0100
0010
1000
0000
0001
0100
0010
0000
,
0100
0010
0100
0000
1000
0001
1000
0000
,
0100
0010
1000
0000
0001
0010
1000
0000
,
1000
0100
1000
0000
0010
1000
0001
0000
,
1000
0100
0010
0000
0100
1000
0010
0000
,
1000
0001
1000
0000
0100
0001
0100
0000
,
0010
0100
0010
0000
1000
0100
1000
0000
,
0001
1000
0001
0000
0100
0010
0100
0000
,
1000
0010
1000
0000
1000
0001
1000
0000
,
0100
1000
0010
0000
1000
0001
1000
0000
,
0001
0100
0010
0000
1000
0001
0010
0100
,
2002
0000
0000
0000
,
0000
0000
0000
0000
0000
0000
0000
3003
,
1001
0000
0001
0000
0100
0000
0010
2000
,
0000
3002
0000
0203
0000
2300
0000
3020
,
0031
0000
0100
0000
0010
0000
1000
0002
,
0000
2003
0000
3200
0000
2300
0000
3200
,
0310
0000
1000
0000
0001
0000
1000
0200
,
0000
2300
0000
3020
0000
2030
0000
3002
,
0000
0003
0000
0000
0000
2000
3200
0320
,
0000
0030
0000
0000
,
0001
0000
1000
0000
0100
0000
1000
0002
,
0000
2003
0000
3200
0000
0320
0000
2030
,
3001
0000
1000
0000
0100
0000
0010
2000
,
0000
3002
0000
2003
0000
3200
0000
2300
,
3010
0000
1000
0000
0001
0000
1000
0002
,
0000
0203
0000
0320
0000
2030
3000
2002
,
0000
0000
0000
0000
3003
2000
3200
0320
,
0000
0000
0000
0030
0002
0000
2003
0000
,
3220
0000
0330
0000
0000
1000
0000
1000
,
0002
0203
0320
2030
,
3002
0000
0000
0000
0003
0000
0000
0000
0001
0000
0000
0010
0000
0000
0100
0000
,
1000
0000
0020
0000
2030
0000
3002
0003
,
1001
0000
1000
0000
0100
1000
0000
1000
,
0002
0023
0230
0320
,
1000
1000
1000
2030
,
0001
0001
0001
3002
,
0100
0100
0100
0203
,
0010
0010
0010
0310
,
2002
0000
0000
0000
,
0000
0000
0000
0000
,
0000
0000
0000
0000
0000
0000
0000
0000
0000
0000
0000
0000
0000
0000
0000
0000
0000
0000
0000
0000
0000
0000
0000
0000
0000
0000
0000
0000
0000
0000
0000
0000
0000
0000
0000
0000
0000
0000
0000
0000
0000
0000
0000
0000
0000
0000
0000
0000
0000
0000
0000
0000
0000
0000
0000
0000
0000
0000
0000
0000
0000
0000
0000
0000
0000
0000
0000
0000
0000
0000
0000
0000
0000
0000
0000
0000
0000
0000
0000
0000
0000
0000
0000
0000
0000
0000
0000
0000
0000
0000
0000
0000
0000
0000
0000
0000
0000
3003
0000
0000
0000
0000
0000
0000
0000
0000
0000
0000
0000
0000
0000
0000
0000
0000
0000
0000
0000
0000
0000
0000
0000
0000
0000
0000
0000
0000
0000
0000
0000
0000
0000
0000
0000
0000
0000
0000
0000
0000
0000
0000
0000
0000
0000
0000
0000
0000
0000
0000
0000
0000
0000
0000
0000
0000
0000
0000
0000
0000
0000
0000
0000
0000
0000
0000
0000
0000
0000
0000
0000
0000
0000
0000
0000
0000
0000
0000
0000
0000
0000
0000
0000
0000
0000
0000
0000
0000
0000
0000
0000
0000
0000
0000
;
