#TITLE:Big Blue;
#SUBTITLE:;
#ARTIST:RushJet1;
#TITLETRANSLIT:;
#SUBTITLETRANSLIT:;
#ARTISTTRANSLIT:;
#CREDIT:;
#BANNER:;
#BACKGROUND:;
#LYRICSPATH:;
#CDTITLE:;
#MUSIC:Big Blue.mp3;
#OFFSET:-0.469;
#SAMPLESTART:27.034;
#SAMPLELENGTH:12.000;
#SELECTABLE:YES;
#BPMS:0.000=225.865;
#STOPS:;
#BGCHANGES:;

//---------------dance-single - Wahyu D. L----------------
#NOTES:
     dance-single:
     Wahyu D. L:
     Beginner:
     1:
     0.055,0.127,0.023,0.000,0.000: // measure 1
0000
0000
0000
0000
,  // measure 2
0000
0000
0000
0000
,  // measure 3
0000
0000
0000
0000
,  // measure 4
0000
0000
0000
0000
,  // measure 5
0000
0000
0000
0000
,  // measure 6
0000
0000
0000
0000
,  // measure 7
0000
0000
0000
0000
,  // measure 8
0000
0000
0000
0000
,  // measure 9
1000
0000
0000
0000
,  // measure 10
0000
0000
0000
0000
,  // measure 11
0001
0000
0000
0000
,  // measure 12
0000
0000
0000
0000
,  // measure 13
0100
0000
0000
0000
,  // measure 14
0000
0000
0000
0000
,  // measure 15
0010
0000
0000
0000
,  // measure 16
0000
0000
0000
0000
,  // measure 17
1000
0000
0000
0000
,  // measure 18
0000
0000
0000
0000
,  // measure 19
0000
0000
0000
0000
,  // measure 20
0000
0000
0000
0000
,  // measure 21
0100
0000
0000
0000
,  // measure 22
0000
0000
0000
0000
,  // measure 23
0000
0000
0000
0000
,  // measure 24
0000
0000
0000
0000
,  // measure 25
0010
0000
0000
0000
,  // measure 26
0000
0000
0000
0000
,  // measure 27
0001
0000
0000
0000
,  // measure 28
0000
0000
0000
0000
,  // measure 29
1000
0000
0000
0000
,  // measure 30
0001
0000
0000
0000
,  // measure 31
0100
0000
0000
0000
,  // measure 32
0000
0000
0000
0000
,  // measure 33
1000
0000
0000
0000
,  // measure 34
0000
0000
0000
0000
,  // measure 35
0001
0000
0000
0000
,  // measure 36
0000
0000
0000
0000
,  // measure 37
0100
0000
0000
0000
,  // measure 38
0000
0000
0000
0000
,  // measure 39
0010
0000
0000
0000
,  // measure 40
0000
0000
0000
0000
,  // measure 41
0001
0000
0000
0000
,  // measure 42
0000
0000
0000
0000
,  // measure 43
1000
0000
0000
0000
,  // measure 44
0000
0000
0000
0000
,  // measure 45
0001
0000
0000
0000
,  // measure 46
0000
0000
0000
0000
,  // measure 47
1000
0000
0000
0000
,  // measure 48
0000
0000
0000
0000
,  // measure 49
0100
0000
0000
0000
,  // measure 50
0000
0000
0000
0000
,  // measure 51
1000
0000
0000
0000
,  // measure 52
0000
0000
0000
0000
,  // measure 53
0000
0000
0000
0000
,  // measure 54
0000
0000
0000
0000
,  // measure 55
0001
0000
0000
0000
,  // measure 56
0000
0000
0000
0000
,  // measure 57
1001
0000
0000
0000
,  // measure 58
0000
0000
0000
0000
,  // measure 59
0100
0000
0000
0000
,  // measure 60
0000
0000
0000
0000
,  // measure 61
1000
0000
0000
0000
,  // measure 62
0000
0000
0000
0000
,  // measure 63
0001
0000
0000
0000
,  // measure 64
0000
0000
0000
0000
,  // measure 65
0010
0000
0000
0000
,  // measure 66
0000
0000
0000
0000
,  // measure 67
0100
0000
0000
0000
,  // measure 68
0000
0000
0000
0000
,  // measure 69
0001
0000
0000
0000
,  // measure 70
0000
0000
0000
0000
,  // measure 71
1000
0000
0000
0000
,  // measure 72
0000
0000
0000
0000
,  // measure 73
0001
0000
0000
0000
,  // measure 74
0000
0000
0000
0000
,  // measure 75
0000
0000
0000
0000
,  // measure 76
0000
0000
0000
0000
,  // measure 77
1000
0000
0000
0000
,  // measure 78
0000
0000
0000
0000
,  // measure 79
0000
0000
0000
0000
,  // measure 80
0000
0000
0000
0000
,  // measure 81
0100
0000
0000
0000
,  // measure 82
0000
0000
0000
0000
,  // measure 83
1000
0000
0000
0000
,  // measure 84
0000
0000
0000
0000
,  // measure 85
0000
0000
0000
0000
,  // measure 86
0001
0000
0000
0000
,  // measure 87
1001
0000
0000
0000
,  // measure 88
0000
0000
0000
0000
,  // measure 89
1000
0000
0000
0000
,  // measure 90
0000
0000
0000
0000
,  // measure 91
0001
0000
0000
0000
,  // measure 92
0000
0000
0000
0000
,  // measure 93
0010
0000
0000
0000
,  // measure 94
0000
0000
0000
0000
,  // measure 95
0100
0000
0000
0000
,  // measure 96
0000
0000
0000
0000
,  // measure 97
0001
0000
0000
0000
,  // measure 98
0000
0000
0000
0000
,  // measure 99
1000
0000
0000
0000
,  // measure 100
0000
0000
0000
0000
,  // measure 101
0001
0000
0000
0000
,  // measure 102
0000
0000
0000
0000
,  // measure 103
1000
0000
0000
0000
,  // measure 104
0000
0000
0000
0000
,  // measure 105
0100
0000
0000
0000
,  // measure 106
0000
0000
0000
0000
,  // measure 107
0000
0000
0000
0000
,  // measure 108
0000
0000
0000
0000
,  // measure 109
1000
0000
0000
0000
,  // measure 110
0000
0000
0000
0000
,  // measure 111
0001
0000
0000
0000
,  // measure 112
0000
0000
0000
0000
,  // measure 113
1001
0000
0000
0000
;

//---------------dance-single - Wahyu D. L----------------
#NOTES:
     dance-single:
     Wahyu D. L:
     Challenge:
     11:
     0.789,1.000,0.241,0.136,0.249: // measure 1
0000
0000
0000
0000
,  // measure 2
0000
0000
0000
0000
,  // measure 3
0000
0000
0000
0000
,  // measure 4
0000
0000
0000
0000
,  // measure 5
1101
0000
0000
0000
0000
0000
1000
0001
,  // measure 6
0000
0000
0000
0000
,  // measure 7
1110
0000
0000
0000
0000
0000
0100
0010
,  // measure 8
0000
1000
0100
0010
0001
0010
0100
1000
,  // measure 9
1001
0000
0000
0000
0000
0000
0001
0100
,  // measure 10
0000
0000
0000
0000
,  // measure 11
1011
0000
0000
0000
0000
0000
1000
0010
,  // measure 12
0000
1000
0100
0100
0000
0010
0010
1000
,  // measure 13
1001
0000
0000
0000
0000
0000
0100
1000
,  // measure 14
0000
0000
0000
0000
0000
0000
0000
0000
0001
0000
0000
1000
0000
0000
0100
0000
,  // measure 15
1100
0000
0000
0000
0000
0000
1000
1200
,  // measure 16
0000
0000
0000
0000
0000
0000
0000
0300
,  // measure 17
1000
0100
0010
0001
0100
0010
1000
0001
,  // measure 18
0010
0001
0100
0010
1000
0001
1000
0001
,  // measure 19
0100
0010
1000
0001
0010
0001
0100
0010
,  // measure 20
1000
0100
1000
0010
1000
0001
0010
0001
,  // measure 21
0010
0001
0100
0010
1000
0001
0010
0100
,  // measure 22
1000
0010
0001
0100
0010
1000
0100
0010
,  // measure 23
0001
0010
0100
0010
1000
0001
1000
0001
,  // measure 24
0100
0010
1000
0001
1000
0100
1000
0000
,  // measure 25
0001
0000
0100
0000
1000
0000
0001
0000
0100
0000
1000
0000
0001
0000
0000
0010
0000
0000
0100
0000
0000
2000
0000
0000
,  // measure 26
0000
0000
3000
0002
0000
1000
0100
0003
,  // measure 27
1000
0000
0010
0000
0001
0000
1000
0000
0010
0000
0001
0000
1000
0000
0000
0100
0000
0000
0010
0000
0000
0002
0000
0000
,  // measure 28
0000
0000
0000
0203
0000
1300
0100
1000
,  // measure 29
0010
0000
0100
0001
0000
0010
0100
1000
,  // measure 30
0001
0000
0010
0001
0000
0100
0010
1000
,  // measure 31
0001
0000
0001
0010
0000
0010
0100
0001
,  // measure 32
0010
0000
0000
0000
0001
0000
0010
0000
1100
0000
0000
1100
0000
0000
1100
0000
,  // measure 33
1100
0100
0010
1000
0001
0000
1000
0000
,  // measure 34
0100
0000
1000
0010
0000
0000
1000
0000
,  // measure 35
1000
0100
0010
0001
0000
0001
0100
0000
,  // measure 36
0010
0000
1000
0100
0010
0001
0000
0000
,  // measure 37
0001
0010
0001
1000
0000
0100
0000
0000
,  // measure 38
0010
0000
1000
0100
0000
0100
1000
0000
,  // measure 39
0001
0010
0100
1000
0100
0010
0001
0010
,  // measure 40
1000
0001
0010
0001
0000
0100
0010
0000
,  // measure 41
1000
0100
0000
0000
0000
0000
1000
0010
0000
0000
0000
0000
1000
0001
0000
0000
0000
0000
0010
0000
0000
0001
0000
0000
,  // measure 42
0000
0100
0001
0010
0100
1000
0010
1000
,  // measure 43
0001
0010
0000
0000
0000
0000
0001
0100
0000
0000
0000
0000
0001
1000
0000
0000
0000
0000
1000
0000
0000
0001
0000
0000
,  // measure 44
0000
1000
0100
0010
1000
0001
0010
0001
,  // measure 45
0100
0001
0010
0100
1000
0001
0010
0100
,  // measure 46
1000
0001
0010
0100
1000
0000
MMM1
0000
,  // measure 47
1000
0100
0010
0001
1000
0100
0010
0001
,  // measure 48
1000
0100
0010
0001
1000
0000
MMM1
0000
,  // measure 49
1000
0100
1000
0010
0100
0001
0010
0001
0100
0010
1000
0100
,  // measure 50
1000
0100
0010
0001
0010
0100
1000
0001
1000
0100
0010
0001
,  // measure 51
1000
0000
1000
0100
0000
1000
0001
0100
,  // measure 52
0010
1000
0001
1000
0001
0100
0010
0001
,  // measure 53
0000
0000
0000
0000
0100
0000
0000
0000
0001
0000
0000
1000
0000
0000
0001
0000
,  // measure 54
1000
0000
0100
1000
0000
0010
1000
0001
,  // measure 55
1000
0000
1000
0001
0000
1000
0010
0000
,  // measure 56
0110
0000
2200
0011
3300
0022
1100
0033
,  // measure 57
1001
0000
0001
0000
1000
1000
0100
1000
,  // measure 58
0010
0000
0001
0100
0000
0010
1000
0000
,  // measure 59
1001
0000
0100
0000
0010
0010
1000
0001
,  // measure 60
0100
0000
0100
0010
0000
1000
0100
0000
,  // measure 61
1100
0000
0001
0000
0100
0100
0010
1000
,  // measure 62
0010
0000
0001
0100
0000
0010
1000
0000
,  // measure 63
1001
0000
0100
0000
0010
0010
0001
1000
,  // measure 64
0000
1000
0100
0010
0001
0010
0100
1000
,  // measure 65
1001
0000
0100
0000
1000
1000
0001
0100
,  // measure 66
0010
0000
0010
1000
0000
1000
0001
0000
,  // measure 67
0101
0000
0010
0000
1000
1000
0001
0100
,  // measure 68
0000
0010
1000
0100
0010
0001
0010
0100
,  // measure 69
1000
0000
1000
0000
0001
0001
0100
0010
,  // measure 70
1000
0000
0000
0000
1000
0000
0000
0000
0001
0000
0000
0010
0000
0000
0100
0000
,  // measure 71
1000
0000
0001
0000
0100
0100
0010
1000
,  // measure 72
0100
0000
0001
1000
0000
1000
0100
0000
,  // measure 73
0010
1000
0001
0100
1000
0001
0010
0100
,  // measure 74
0001
0100
1000
0001
0010
0100
0010
0100
,  // measure 75
1000
0001
0010
0100
0001
0100
1000
0001
,  // measure 76
0010
1000
0010
0001
0010
0100
0001
0100
,  // measure 77
0001
0100
1000
0001
0010
0100
0001
1000
,  // measure 78
0010
0001
0100
1000
0001
0010
1000
0001
,  // measure 79
0100
0001
1000
0001
0010
0100
0010
0100
,  // measure 80
1000
0001
0010
0100
0010
1000
0010
0000
,  // measure 81
0100
0000
1000
0000
0010
0000
0100
0000
1000
0000
0010
0000
0100
0000
0000
0001
0000
0000
1000
0000
0000
0020
0000
0000
,  // measure 82
0000
0000
0030
0020
0000
0100
1000
0030
,  // measure 83
0010
0000
0001
0000
0100
0000
0010
0000
0001
0000
0100
0000
0010
0000
0000
1000
0000
0000
0001
0000
0000
0200
0000
0000
,  // measure 84
0000
0000
0000
0302
0000
0013
1000
0010
,  // measure 85
0001
0000
1000
0100
0000
0001
1000
0010
,  // measure 86
0100
0000
0001
0100
0000
1000
0001
0010
,  // measure 87
0100
0000
0100
0001
0000
0001
1000
0100
,  // measure 88
0001
0000
0000
0000
0100
0000
0001
0000
1010
0000
0000
1010
0000
0000
1010
0000
,  // measure 89
1010
1000
0001
0010
0100
0000
0010
0000
,  // measure 90
1000
0000
0010
0001
M000
0000
0M10
0000
,  // measure 91
0010
1000
0001
0100
0000
0100
1000
0000
,  // measure 92
0001
0000
0010
1000
0001
0100
0000
0000
,  // measure 93
0100
0001
0100
0010
0000
1000
0000
0000
,  // measure 94
0001
0000
0010
1000
0000
1000
0010
0000
,  // measure 95
0100
0001
1000
0010
1000
0001
0100
0001
,  // measure 96
0010
0100
0001
0100
0000
1000
0001
0000
,  // measure 97
0010
1000
0000
0000
0000
0000
0010
0001
0000
0000
0000
0000
0010
0100
0000
0000
0000
0000
0001
0000
0000
0100
0000
0000
,  // measure 98
0000
1000
0100
0001
1000
0010
0001
0010
,  // measure 99
0100
0001
0000
0000
0000
0000
0100
1000
0000
0000
0000
0000
0100
0010
0000
0000
0000
0000
0010
0000
0000
0100
0000
0000
,  // measure 100
0000
0010
1000
0001
0010
0100
0001
0100
,  // measure 101
1000
0100
0001
1000
0010
0100
0001
1000
,  // measure 102
0010
0100
0001
1000
0010
0000
M1MM
0000
,  // measure 103
0010
1000
0001
0100
0010
1000
0001
0100
,  // measure 104
0010
1000
0001
0100
0010
0000
M1MM
0000
,  // measure 105
0010
1000
0010
0001
1000
0100
0001
0100
1000
0001
0010
1000
,  // measure 106
0010
1000
0001
0100
0001
1000
0010
0100
0010
1000
0001
0100
,  // measure 107
0010
0000
0010
1000
0000
0010
0100
1000
,  // measure 108
0001
0010
0100
0010
0100
1000
0001
0200
,  // measure 109
0000
0000
0300
0000
1000
0000
0000
0000
0100
0000
0000
0010
0000
0000
0100
0000
,  // measure 110
0010
0000
1000
0010
0000
0001
0010
0100
,  // measure 111
0010
0000
0010
0100
0000
0010
0001
0000
,  // measure 112
1001
0000
2020
0101
3030
0202
1010
0303
,  // measure 113
1111
0000
0000
0000
;

//---------------dance-single - Wahyu D. L----------------
#NOTES:
     dance-single:
     Wahyu D. L:
     Easy:
     5:
     0.356,0.507,0.174,0.151,0.000: // measure 1
0000
0000
0000
0000
,  // measure 2
0000
0000
0000
0000
,  // measure 3
0000
0000
0000
0000
,  // measure 4
0000
0000
0000
0000
,  // measure 5
0000
0000
0000
0000
,  // measure 6
0000
0000
0000
0000
,  // measure 7
0000
0000
0000
0000
,  // measure 8
0000
0000
0000
0000
,  // measure 9
1000
0000
0000
0000
0000
0000
0000
0001
,  // measure 10
0000
0000
0000
0000
,  // measure 11
1000
0000
0000
0000
0000
0000
0000
0010
,  // measure 12
0000
0000
0000
0000
,  // measure 13
0100
0000
0000
0000
0000
0000
0000
0001
,  // measure 14
0000
0000
0000
0000
,  // measure 15
0010
0000
0000
0000
0000
0000
0000
0100
,  // measure 16
0000
0000
0000
0000
,  // measure 17
1000
0001
0100
1000
,  // measure 18
0100
0001
0010
1000
,  // measure 19
0010
0001
1000
0100
,  // measure 20
1000
0001
0100
1000
,  // measure 21
0001
0100
0010
1000
,  // measure 22
0001
1000
0100
0001
,  // measure 23
0100
1000
0001
1000
,  // measure 24
0100
1000
0010
0100
,  // measure 25
0002
0000
1003
0100
,  // measure 26
0010
0000
0000
1000
0000
0000
0000
0000
,  // measure 27
0020
0000
0031
0010
,  // measure 28
0100
0000
0000
1000
0000
0000
0100
0000
,  // measure 29
1000
0000
0000
0100
0000
0000
0010
0000
,  // measure 30
0100
0000
0000
0001
0000
0000
1000
0000
,  // measure 31
0200
0000
0000
0000
,  // measure 32
0000
0000
0320
0000
,  // measure 33
1030
0100
1000
0100
,  // measure 34
0002
0000
0000
1000
0000
0000
0000
0000
,  // measure 35
1003
0100
1000
0010
,  // measure 36
0100
0001
1000
0001
,  // measure 37
1000
0000
0100
0000
,  // measure 38
0010
0000
0001
0000
,  // measure 39
1000
0001
0100
0010
,  // measure 40
1000
0001
0100
0010
,  // measure 41
1010
1010
1010
1000
,  // measure 42
0000
0001
0100
0010
,  // measure 43
0110
0110
0110
0001
,  // measure 44
0000
1000
0100
1000
,  // measure 45
0001
0100
1000
0100
,  // measure 46
0001
0100
1000
0001
,  // measure 47
1000
0010
0001
0010
,  // measure 48
1000
0010
0001
1001
,  // measure 49
2000
0000
0000
0000
,  // measure 50
0200
0000
0000
0000
0000
0000
0000
3300
,  // measure 51
0002
0003
2000
3000
,  // measure 52
1000
0100
1000
0020
,  // measure 53
0030
1000
0001
0100
,  // measure 54
0010
0001
1000
0100
,  // measure 55
1000
0001
0100
0010
,  // measure 56
0100
0000
0001
1000
0000
1000
0001
0000
,  // measure 57
1001
0000
0000
0000
0000
0000
0000
0100
,  // measure 58
0000
0000
0000
0000
,  // measure 59
1100
0000
0000
0000
0000
0000
0000
0100
,  // measure 60
0000
0000
0000
0000
,  // measure 61
0011
0000
0000
0000
0000
0000
0000
0010
,  // measure 62
0000
0000
0000
0000
,  // measure 63
0001
0000
0000
0000
0000
0000
0000
1100
,  // measure 64
0000
0000
0000
0000
,  // measure 65
1000
0000
0000
0000
0000
0000
0000
1010
,  // measure 66
0000
0000
0000
0000
,  // measure 67
0011
0000
0000
0000
0000
0000
0000
0100
,  // measure 68
0000
0000
0000
0000
,  // measure 69
1001
0000
0000
0000
0000
0000
0000
0100
,  // measure 70
0000
0000
0000
0000
,  // measure 71
1100
0000
0000
0000
0000
0000
0000
0001
,  // measure 72
0000
0000
0000
0000
,  // measure 73
0001
1000
0010
0001
,  // measure 74
0010
1000
0100
0001
,  // measure 75
0100
1000
0001
0010
,  // measure 76
0001
1000
0010
0001
,  // measure 77
1000
0010
0100
0001
,  // measure 78
1000
0001
0010
1000
,  // measure 79
0010
0001
1000
0001
,  // measure 80
0010
0001
0100
0010
,  // measure 81
2000
0000
3001
0010
,  // measure 82
0100
0000
0000
0001
0000
0000
0000
0000
,  // measure 83
0200
0000
1300
0100
,  // measure 84
0010
0000
0000
0001
0000
0000
0010
0000
,  // measure 85
0001
0000
0000
0010
0000
0000
0100
0000
,  // measure 86
0010
0000
0000
1000
0000
0000
0001
0000
,  // measure 87
0020
0000
0000
0000
,  // measure 88
0000
0000
0230
0000
,  // measure 89
0301
0010
0001
0010
,  // measure 90
2000
0000
0000
0001
0000
0000
0000
0000
,  // measure 91
3001
0010
0001
0100
,  // measure 92
0010
1000
0001
1000
,  // measure 93
0001
0000
0010
0000
,  // measure 94
0100
0000
1000
0000
,  // measure 95
0001
1000
0010
0100
,  // measure 96
0001
1000
0010
0100
,  // measure 97
0101
0101
0101
0001
,  // measure 98
0000
1000
0010
0100
,  // measure 99
0110
0110
0110
1000
,  // measure 100
0000
0001
0010
0001
,  // measure 101
1000
0010
0001
0010
,  // measure 102
1000
0010
0001
1000
,  // measure 103
0001
0100
1000
0100
,  // measure 104
0001
0100
1000
1001
,  // measure 105
0002
0000
0000
0000
,  // measure 106
0020
0000
0000
0000
0000
0000
0000
0033
,  // measure 107
2000
3000
0002
0003
,  // measure 108
0001
0010
0001
0200
,  // measure 109
0300
0001
1000
0010
,  // measure 110
0100
1000
0001
0010
,  // measure 111
0001
1000
0010
0100
,  // measure 112
0010
0000
1000
0001
0000
0001
1000
0000
,  // measure 113
1001
0000
0000
0000
;

//---------------dance-single - Wahyu D. L----------------
#NOTES:
     dance-single:
     Wahyu D. L:
     Medium:
     7:
     0.524,0.718,0.098,0.679,0.000: // measure 1
0000
0000
0000
0000
,  // measure 2
0000
0000
0000
0000
,  // measure 3
0000
0000
0000
0000
,  // measure 4
0000
0000
0000
0000
,  // measure 5
0000
0000
0000
0000
,  // measure 6
0000
0000
0000
0000
,  // measure 7
0000
0000
0000
0000
,  // measure 8
0000
0000
0000
0000
,  // measure 9
1001
0000
0000
0000
0000
0000
0100
1000
,  // measure 10
0000
0000
0000
0000
,  // measure 11
0110
0000
0000
0000
0000
0000
1000
0001
,  // measure 12
0000
0000
0000
0000
,  // measure 13
1001
0000
0000
0000
0000
0000
0010
0100
,  // measure 14
0000
0000
0000
0000
,  // measure 15
0110
0000
0000
0000
0000
0000
0001
1000
,  // measure 16
0000
0000
0000
0000
,  // measure 17
1000
0000
0001
0100
0000
0010
1000
0002
,  // measure 18
0000
0000
0000
0003
1000
0001
0100
0020
,  // measure 19
0000
0000
0000
0000
0000
1030
0100
0020
,  // measure 20
0000
0000
0000
0000
0000
0031
1000
0100
,  // measure 21
2000
0000
0000
0000
3000
1000
0010
0100
,  // measure 22
0002
0000
0000
0000
0003
0001
0010
0100
,  // measure 23
2000
0000
0000
0000
,  // measure 24
0000
0000
0000
3000
,  // measure 25
1000
0001
1000
0001
0100
0010
0001
0020
,  // measure 26
0000
0000
0000
0230
0000
1300
0100
0000
,  // measure 27
1000
0010
1000
0010
1000
0100
0010
0002
,  // measure 28
0000
0000
0003
0020
0000
0130
0001
0010
,  // measure 29
0100
0000
1000
0010
0000
1000
0001
0100
,  // measure 30
0010
0000
1000
0001
0000
0100
0010
1000
,  // measure 31
0002
0000
0000
0000
,  // measure 32
0000
0000
0000
0000
2003
0000
0000
3000
,  // measure 33
1000
0100
1000
0010
1000
0000
0001
0000
,  // measure 34
0100
0000
0010
1000
0000
0000
0001
0000
,  // measure 35
0100
0010
1000
0001
0000
0100
0010
0000
,  // measure 36
0100
0000
1000
0001
1000
0100
0000
0000
,  // measure 37
1000
0000
1000
0100
0000
1000
0000
0000
,  // measure 38
0001
0000
0000
0100
0000
0000
0010
0000
,  // measure 39
1000
0100
1000
0001
0100
0010
0001
0010
,  // measure 40
0000
0000
1000
0100
0000
0100
1000
0000
,  // measure 41
0002
0000
0023
0000
0230
0000
1300
0010
,  // measure 42
0000
1000
0001
0100
0010
0001
0010
0100
,  // measure 43
2000
0000
3200
0000
0320
0000
0130
0001
,  // measure 44
0000
1000
0100
0010
0001
0010
0100
0000
,  // measure 45
2000
3002
2003
3002
,  // measure 46
2003
0000
3002
0000
0203
0000
0020
0330
,  // measure 47
2000
3002
2003
3002
,  // measure 48
2003
0000
3002
0000
0203
0000
0020
0330
,  // measure 49
2000
3200
0320
0032
,  // measure 50
0023
0230
2300
3002
,  // measure 51
2003
0000
3010
0100
0000
0000
1000
0000
,  // measure 52
0010
0000
0001
0000
0010
0001
0010
0002
,  // measure 53
0000
0003
1000
0000
0100
0000
1000
0000
,  // measure 54
0010
0000
0100
0010
0000
1000
0100
1000
,  // measure 55
0002
0000
0000
0000
,  // measure 56
0000
0003
1000
0001
0000
0001
1000
0000
,  // measure 57
1001
0000
0000
0000
0000
0000
1000
0100
,  // measure 58
0000
0000
0000
0000
,  // measure 59
0011
0000
0000
0000
0000
0000
1000
0010
,  // measure 60
0000
0000
0000
0000
,  // measure 61
1100
0000
0000
0000
0000
0000
0001
0100
,  // measure 62
0000
0000
0000
0000
,  // measure 63
1010
0000
0000
0000
0000
0000
0010
0001
,  // measure 64
0000
0000
0000
0000
,  // measure 65
0101
0000
0000
0000
0000
0000
0100
1000
,  // measure 66
0000
0000
0000
0000
,  // measure 67
1100
0000
0000
0000
0000
0000
0100
0001
,  // measure 68
0000
0000
MMMM
0000
,  // measure 69
0011
0000
0000
0000
0000
0000
1000
0010
,  // measure 70
0000
0000
0000
0000
,  // measure 71
1001
0000
0000
0000
0000
0000
0100
0010
,  // measure 72
0000
0000
0000
0000
,  // measure 73
0010
0000
0100
1000
0000
0001
0010
0200
,  // measure 74
0000
0000
0000
0300
0010
0100
1000
0002
,  // measure 75
0000
0000
0000
0000
0000
0013
1000
0002
,  // measure 76
0000
0000
0000
0000
0000
0103
0010
1000
,  // measure 77
0020
0000
0000
0000
0030
0010
0001
1000
,  // measure 78
0200
0000
0000
0000
0300
0100
0001
1000
,  // measure 79
0020
0000
0000
0000
,  // measure 80
0000
0000
0000
0030
,  // measure 81
0010
0100
0010
0100
1000
0001
0100
0002
,  // measure 82
0000
0000
0000
2003
0000
3010
1000
0000
,  // measure 83
0010
0001
0010
0001
0010
1000
0001
0200
,  // measure 84
0000
0000
0300
0002
0000
1003
0100
0001
,  // measure 85
1000
0000
0010
0001
0000
0010
0100
1000
,  // measure 86
0001
0000
0010
0100
0000
1000
0001
0010
,  // measure 87
0200
0000
0000
M0MM
,  // measure 88
0000
0000
0000
0000
0320
0000
0000
0030
,  // measure 89
0010
1000
0010
0001
0010
0000
0100
0000
,  // measure 90
1000
0000
0001
0010
0000
0000
0100
0000
,  // measure 91
1000
0001
0010
0100
0000
1000
0001
0000
,  // measure 92
1000
0000
0010
0100
0010
1000
0000
0000
,  // measure 93
0010
0000
0010
1000
0000
0010
0000
0000
,  // measure 94
0100
0000
0000
1000
0000
0000
0001
0000
,  // measure 95
0010
1000
0010
0100
1000
0001
0100
0001
,  // measure 96
0000
0000
0010
1000
0000
1000
0010
0000
,  // measure 97
0200
0000
0302
0000
2003
0000
3010
0001
,  // measure 98
0000
0010
0100
1000
0001
0100
0001
1000
,  // measure 99
0020
0000
2030
0000
3002
0000
1003
0100
,  // measure 100
0000
0010
1000
0001
0100
0001
1000
0000
,  // measure 101
0020
0230
0320
0230
,  // measure 102
0320
0000
0230
0000
2300
0000
0002
3003
,  // measure 103
0020
0230
0320
0230
,  // measure 104
0320
0000
0230
0000
2300
0000
0002
3003
,  // measure 105
0020
2030
3002
0203
,  // measure 106
0302
2003
3020
0230
,  // measure 107
0320
0000
0031
1000
0000
0000
0010
0000
,  // measure 108
0001
0000
0100
0000
0001
0100
0001
0200
,  // measure 109
0000
0300
0010
0000
1000
0000
0010
0000
,  // measure 110
0001
0000
1000
0001
0000
0010
1000
0010
,  // measure 111
0200
0000
0000
0000
,  // measure 112
0000
0300
0010
0100
0000
0100
0010
0000
,  // measure 113
0110
0000
0000
0000
;

//---------------dance-single - Wahyu D. L----------------
#NOTES:
     dance-single:
     Wahyu D. L:
     Hard:
     8:
     0.665,0.718,0.204,0.030,0.042: // measure 1
0000
0000
0000
0000
,  // measure 2
0000
0000
0000
0000
,  // measure 3
0000
0000
0000
0000
,  // measure 4
0000
0000
0000
0000
,  // measure 5
1001
0000
0000
0000
0000
0000
1000
0100
,  // measure 6
0000
0000
0000
0000
,  // measure 7
1001
0000
0000
0000
0000
0000
0010
0001
,  // measure 8
0000
1000
0100
1000
0010
0100
0001
0010
,  // measure 9
0001
0000
0000
0000
0000
0000
0001
1000
,  // measure 10
0000
0000
0000
0000
,  // measure 11
1001
0000
0000
0000
0000
0000
1000
0010
,  // measure 12
0000
1000
0100
0001
0000
0001
0100
1000
,  // measure 13
0010
0000
0000
0000
0000
0000
1000
0001
,  // measure 14
0000
0000
0000
0000
0000
0000
0000
0000
1000
0000
0000
0001
0000
0000
0100
0000
,  // measure 15
0010
0000
0000
0000
0000
0000
1000
0001
,  // measure 16
0000
0000
0000
0M00
0000
0000
0000
0000
00M0
0000
0000
0000
0000
0000
0000
0000
,  // measure 17
1000
0000
0001
1000
0000
1000
0100
0010
,  // measure 18
0100
0000
0001
1000
0000
0100
1000
0010
,  // measure 19
0100
0000
0000
0000
0001
M000
0100
0000
0000
0000
0010
0000
1000
0000
0001
0000
,  // measure 20
0100
0000
0010
M100
0000
0010
0001
0010
,  // measure 21
1000
0000
0100
1000
0000
1000
0010
1000
,  // measure 22
0100
0000
0010
1000
0000
1000
0001
0100
,  // measure 23
0010
0000
0010
1000
0000
1000
0001
0000
,  // measure 24
0101
0000
0010
1000
0000
1000
0001
0000
,  // measure 25
1000
000M
0100
0000
1000
0000
0100
0000
0010
0000
M001
0000
0010
0000
0200
0000
,  // measure 26
0000
0000
0000
1300
0000
1000
0001
0000
,  // measure 27
0001
0100
0010
0100
0010
1000
0010
0002
,  // measure 28
0000
0000
1000
0103
0000
0100
0010
1000
,  // measure 29
0001
0000
1000
0001
0000
0001
0100
0010
,  // measure 30
0100
0000
0001
1000
0000
1000
0010
1000
,  // measure 31
0100
0000
1000
0001
0000
0001
0100
0000
,  // measure 32
0010
0000
0000
0000
1000
0000
0001
0000
1000
0000
0000
1000
0000
0000
1000
0000
,  // measure 33
1000
0100
0010
0100
0001
0000
0100
0000
,  // measure 34
0010
0000
1000
0001
0000
0001
1000
0000
,  // measure 35
1000
0100
0010
0001
0000
0001
1000
0000
,  // measure 36
0100
0000
1000
0010
0100
0001
0000
0000
,  // measure 37
1000
0100
0010
0001
0000
1000
0000
0000
,  // measure 38
0100
0000
1000
0100
0000
0100
1000
0000
,  // measure 39
0010
0100
0010
0001
0010
0100
1000
0001
,  // measure 40
0000
1000
0100
0010
0000
0001
0010
0000
,  // measure 41
1100
0000
1010
0000
1001
0000
1000
0100
,  // measure 42
0000
1000
0100
0010
0001
0010
0100
1000
,  // measure 43
0011
0000
0101
0000
1001
0000
1000
0100
,  // measure 44
0000
1000
0100
0010
0001
0010
0100
1000
,  // measure 45
0001
0100
1000
0100
0001
0100
1000
0100
,  // measure 46
0001
0100
1000
0100
0001
0000
1000
0000
,  // measure 47
0001
0010
1000
0010
0001
0010
1000
0010
,  // measure 48
0001
0010
1000
0010
0001
0000
0010
0000
,  // measure 49
1000
0000
1000
0001
0000
0001
0010
0000
,  // measure 50
0110
0000
1000
0100
0000
0100
1000
0000
,  // measure 51
11MM
0000
1000
0001
0000
0100
0010
0100
,  // measure 52
1000
0001
1000
0000
1000
0100
1000
0010
,  // measure 53
0000
M000
0001
0000
1000
0100
0000
1000
,  // measure 54
0010
0000
0100
0001
0000
1000
0100
1000
,  // measure 55
0001
0000
0100
0010
0000
0010
0100
0000
,  // measure 56
1000
0000
0001
1000
0000
1000
0001
0000
,  // measure 57
1001
0000
1000
0000
0100
0100
0010
1000
,  // measure 58
0000
0000
0001
1000
0000
1000
0001
0000
,  // measure 59
1001
0000
0100
0000
0010
0010
1000
0001
,  // measure 60
0000
0000
0100
0010
0000
0010
1000
0000
,  // measure 61
1001
0000
0100
0000
0010
0010
1000
0001
,  // measure 62
0000
0000
0100
0010
0000
1000
0001
0000
,  // measure 63
1001
0000
1000
0000
0100
0100
1000
0001
,  // measure 64
0000
1000
0100
0010
0001
0010
0100
1000
,  // measure 65
0001
0000
1000
0000
0100
0100
1000
0001
,  // measure 66
0000
0000
0100
0010
0000
0010
1000
0000
,  // measure 67
1001
0000
1000
0000
0100
0100
1000
0001
,  // measure 68
0000
1000
0100
0010
0000
0010
0100
1000
,  // measure 69
0001
0000
0100
0000
0010
0010
1000
0001
,  // measure 70
0000
0000
0000
0000
0100
0000
0000
0000
0010
0000
0000
0100
0000
000M
1000
0000
,  // measure 71
0100
0000
0000
M000
0010
0000
0000
0000
1000
0000
1000
0000
0001
0000
0100
0000
,  // measure 72
0000
0000
0010
1000
0000
1000
0001
0000
,  // measure 73
0100
0000
1000
0100
0000
0100
0010
0001
,  // measure 74
0010
0000
1000
0100
0000
0010
0100
0001
,  // measure 75
0010
0000
1000
0010
0000
0001
0100
1000
,  // measure 76
0010
0000
0001
0010
0000
0001
1000
0001
,  // measure 77
0100
0000
0010
0100
0000
0100
0001
0100
,  // measure 78
0010
0000
0001
0100
0000
0100
1000
0010
,  // measure 79
0001
0000
0001
0100
0000
0100
1000
0000
,  // measure 80
1010
0000
0001
0100
0000
0100
1000
0000
,  // measure 81
0100
0010
0100
0010
0001
1000
0001
0020
,  // measure 82
0000
0000
0000
0130
0000
0100
1000
0000
,  // measure 83
1000
0010
0001
0010
0001
0100
0001
2000
,  // measure 84
0000
0000
0100
3010
0000
0010
0001
0100
,  // measure 85
1000
0000
0100
1000
0000
1000
0010
0001
,  // measure 86
0010
0000
1000
0100
0000
0100
0001
0100
,  // measure 87
0010
0000
0100
1000
0000
1000
0010
0000
,  // measure 88
0001
0000
0000
0000
0100
0000
1000
0000
0100
0000
0000
0100
0000
0000
0100
0000
,  // measure 89
0100
0010
0001
0010
1000
0000
0010
0000
,  // measure 90
0001
0000
0100
1000
0000
1000
0100
0000
,  // measure 91
0100
0010
0001
1000
0000
1000
0100
0000
,  // measure 92
0010
0000
0100
0001
0010
1000
0000
0000
,  // measure 93
0100
0010
0001
1000
0000
0100
0000
0000
,  // measure 94
0010
0000
0100
0010
0000
0010
0100
0000
,  // measure 95
0001
0010
0001
1000
0001
0010
0100
1000
,  // measure 96
0000
0100
0010
0001
0000
1000
0001
0000
,  // measure 97
0110
0000
0101
0000
1100
0000
0100
0010
,  // measure 98
0000
0100
0010
0001
1000
0001
0010
0100
,  // measure 99
1001
0000
0000
0000
1010
0000
0000
0000
1100
000M
0000
0000
0100
0000
0010
M000
,  // measure 100
0000
0100
0010
0001
1000
0001
0010
0100
,  // measure 101
1000
0010
0100
0010
1000
0010
0100
0010
,  // measure 102
1000
0010
0100
0010
1000
0000
0100
0000
,  // measure 103
1000
0001
0100
0001
1000
0001
0100
0001
,  // measure 104
1000
0001
0100
0001
1000
0000
0001
0000
,  // measure 105
0100
0000
0100
1000
0000
1000
0001
0000
,  // measure 106
0011
0000
0100
0010
0000
0010
0100
0000
,  // measure 107
0110
0000
0100
1000
0000
0010
0001
0010
,  // measure 108
0100
1000
0100
0000
0100
0010
0100
0001
,  // measure 109
0000
0000
1000
0000
0100
0010
0000
0100
,  // measure 110
0001
0000
0010
1000
0000
0100
0010
0100
,  // measure 111
1000
0000
0010
0001
0000
0001
0010
0000
,  // measure 112
0100
0000
1000
0100
0000
0100
1000
0000
,  // measure 113
1100
0000
0000
0000
;
