#TITLE:Allegro con Fuoco;
#SUBTITLE:Full Version;
#ARTIST:DM Ashura;
#TITLETRANSLIT:;
#SUBTITLETRANSLIT:;
#ARTISTTRANSLIT:;
#CREDIT:;
#BANNER:Allegro-con-Fuoco-bn.png;
#BACKGROUND:Allegro con Fuoco-bg.png;
#LYRICSPATH:;
#CDTITLE:;
#MUSIC:Allegro con Fuoco.ogg;
#OFFSET:-0.100;
#SAMPLESTART:54.000;
#SAMPLELENGTH:26.000;
#SELECTABLE:YES;
#BPMS:0.000=150.000;
#STOPS:64.000=1.200
,129.000=0.800
,483.000=1.200
;
#BGCHANGES:;

//---------------dance-single - Wahyu D. L----------------
#NOTES:
     dance-single:
     Wahyu D. L:
     Beginner:
     1:
     0.064,0.269,0.038,0.007,0.000:
0000
0000
0000
0000
,
0000
0000
0000
0000
,
0000
0000
0000
0000
,
0000
0000
0000
0000
,
0000
0000
0000
0000
,
0000
0000
0000
0000
,
0000
0000
0000
0000
,
0000
0000
0000
0000
,
0000
0000
0000
0000
,
0000
0000
0000
0000
,
0000
0000
0000
0000
,
0000
0000
0000
0000
,
0000
0000
0000
0000
,
0000
0000
0000
0000
,
0000
0000
0000
0000
,
0000
0000
0000
0000
,
0000
0000
0000
0000
,
0000
1000
0000
0000
,
0000
0001
0000
0000
,
0000
0010
0000
0000
,
0000
0100
0000
0000
,
0000
0001
0000
0000
,
0000
1000
0000
0000
,
0000
0010
0000
0000
,
0000
0001
0000
0000
,
0000
0100
0000
0000
,
0000
0010
0000
0000
,
0000
1000
0000
0000
,
0000
0001
0000
0000
,
0000
0010
0000
0000
,
0000
1000
0000
0000
,
0000
0100
0000
0000
,
0000
1000
0000
0001
,
0000
0000
0000
1000
,
0000
0000
0000
1000
,
0000
0000
0000
0001
,
0000
0000
0000
0010
,
0000
0000
0000
0100
,
0000
0000
0000
1000
,
0000
0000
0000
0001
,
0000
0000
0000
1000
,
0000
0000
0000
0100
,
0000
0000
0000
0001
,
0000
0000
0000
1000
,
0000
0000
0000
0001
,
0000
0000
0000
0100
,
0000
0000
0000
0010
,
0000
0000
0000
0010
,
0000
0000
0000
1000
,
0000
0000
0000
0000
,
0000
0000
0000
0001
,
0000
0000
0000
0000
,
0000
0000
0000
1000
,
0000
0000
0000
0000
,
0000
0000
0000
0100
,
0000
0000
0000
0000
,
0000
0000
0000
0010
,
0000
0000
0000
0000
,
0000
0000
0000
0001
,
0000
0000
0000
0000
,
0000
0000
0000
1000
,
0000
0000
0000
0000
,
0000
0000
0000
0100
,
0000
0000
0000
0000
,
0000
0000
0000
0010
,
0000
0000
0000
0000
,
0000
0000
0000
0001
,
0000
0000
0000
0000
,
0000
0000
0000
1000
,
0000
0000
0000
0100
,
0000
0000
0000
0010
,
0000
0000
0000
0001
,
0000
0000
0000
1000
,
0000
0000
0000
1000
,
0000
0000
0000
0001
,
0000
0000
0000
0100
,
0000
0000
0000
0010
,
0000
0000
0000
0001
,
0000
0000
0000
0100
,
0000
0000
0000
0001
,
0000
0000
0000
0010
,
0000
0000
0000
0001
,
0000
0000
0000
1000
,
0000
0000
0000
0001
,
0000
0000
0000
0010
,
0000
0000
0000
0001
,
0000
0000
0000
1000
,
0000
0000
0000
0001
,
0000
0000
0000
0100
,
0000
0000
0000
0000
,
0000
0000
0000
1000
,
0000
0000
0000
0000
,
0000
0000
0000
0001
,
0000
0000
0000
0000
,
0000
0000
0000
0010
,
0000
0000
0000
0000
,
0000
0000
0000
0100
,
0000
0000
0000
0000
,
0000
0000
0000
1000
,
0000
0000
0000
0000
,
0000
0000
0000
0001
,
0000
0000
0000
0000
,
0000
0000
0000
0010
,
0000
0000
0000
0000
,
0000
0000
0000
0100
,
0000
0000
0000
0000
,
0000
0000
0000
0000
,
0000
0000
0000
0000
,
0000
0000
0000
0000
,
0000
0000
0000
0000
,
0000
0000
0000
0000
,
0000
0000
0000
0000
,
0000
0000
0000
1000
,
0000
0000
0000
0010
,
0000
0000
0000
0001
,
0000
0000
0000
0100
,
0000
0000
0000
1000
,
0000
0000
0000
0010
,
0000
0000
0000
0001
,
0000
0000
0000
0100
,
0000
0000
0000
1000
,
0000
0000
0000
0000
,
0001
0000
0000
0000
,
1000
0000
0000
0000
,
0010
0000
0000
0000
,
0001
0000
0000
0000
,
1000
0000
0000
0000
,
0100
0000
0000
0000
,
0001
0000
0000
0000
,
0001
0000
0000
0000
,
0010
0000
0000
0000
,
1000
0000
0000
0000
,
0001
0000
0000
0000
,
1000
0000
0000
0000
,
0010
0000
0000
0000
,
0001
0000
0000
0000
,
1000
0000
0000
0000
,
0001
0000
0000
0000
,
1000
0000
0000
0000
,
0000
0000
0000
0000
,
0001
0000
0000
0000
,
0000
0000
0000
0000
,
0100
0000
0000
0000
,
0000
0000
0000
0000
,
0010
0000
0000
0000
,
0000
0000
0000
0000
,
1001
0000
0000
0000
,
0000
0000
0000
0000
,
0110
0000
0000
0000
,
0000
0000
0000
0000
,
1001
0000
0000
0000
,
0000
0000
0000
0000
,
0110
0000
0000
0000
,
0000
0000
0000
0000
,
1000
0000
0000
0000
,
0000
0000
0000
0000
,
0000
0000
0000
0000
,
0000
0000
0000
0000
,
1000
0000
0000
0000
,
0100
0000
0000
0000
,
0001
0000
0000
0000
,
0010
0000
0000
0000
,
1001
0000
0000
0000
,
0000
0000
0000
0000
,
1001
0000
0000
0000
,
0000
0000
0000
0000
,
1001
0000
0000
0000
,
0000
0000
0000
0000
,
0000
0000
0000
0000
,
0000
0000
0000
0000
,
1001
0000
1001
0000
,
1001
0000
0010
0000
,
2002
0000
0000
0000
,
0000
0000
0000
0000
,
3003
0000
0000
0000
;

//---------------dance-single - Wahyu D. L----------------
#NOTES:
     dance-single:
     Wahyu D. L:
     Easy:
     4:
     0.196,0.419,0.299,0.007,0.000:
0000
0000
0000
0000
,
0000
0000
0000
0000
,
0000
0000
0000
0000
,
0000
0000
0000
0000
,
0000
0000
0000
0000
,
0000
0000
0000
0000
,
0000
0000
0000
0000
,
0000
0000
0000
0000
,
1000
0000
0001
0000
,
1000
0000
0001
0000
,
1000
0000
0001
0000
,
1000
0000
0001
0000
,
1000
0000
0001
0000
,
1000
0000
0001
0000
,
1000
0000
0001
0000
,
1000
0000
0001
0000
,
1001
0000
0000
0000
,
0000
1000
0000
0100
,
0000
0010
0000
0100
,
0000
1000
0000
0001
,
0000
0100
0000
0010
,
0000
0100
0000
0001
,
0000
1000
0000
0010
,
0000
0100
0000
1000
,
0000
0001
0000
0010
,
0000
0100
0000
0001
,
0000
1000
0000
0100
,
0000
1000
0000
0010
,
0000
0100
0000
1000
,
0000
0001
0000
0010
,
0000
0100
0000
0001
,
0000
1000
0000
0100
,
0000
1001
0000
1000
,
0000
0100
0000
1000
,
0000
0010
0000
0100
,
0000
1000
0000
0100
,
0000
0001
0000
0010
,
0000
0100
0000
0001
,
0000
1000
0000
0100
,
0000
1000
0000
0100
,
0000
1000
0000
0010
,
0000
0100
0000
0001
,
0000
0010
0000
0100
,
0000
1000
0000
0100
,
0000
1000
0000
0100
,
0000
0001
0000
0010
,
0000
0100
0000
0001
,
0000
1000
0000
0010
,
0000
0100
0000
0010
,
0000
0010
0000
0010
,
0000
0010
0000
0100
,
0000
0100
0000
0100
,
0000
0100
0000
1000
,
0000
1000
0000
1000
,
0000
1000
0000
0001
,
0000
0001
0000
0001
,
0000
0001
0000
0001
,
0000
1000
0000
0100
,
0000
0010
0000
0100
,
0000
1000
0000
0100
,
0000
1000
0000
0100
,
0000
0001
0000
0010
,
0000
1000
0000
0100
,
0000
1000
0000
0100
,
0000
0001
0000
1000
,
0000
0000
0000
0000
,
0000
0000
0000
0001
,
0000
0000
0000
0000
,
0000
0000
0000
1000
,
0000
0000
0000
0100
,
0000
0000
0000
0010
,
0000
0100
0000
0001
,
0000
1001
0000
1000
,
0000
0100
0000
1000
,
0000
0010
0000
0100
,
0000
0001
0000
0010
,
0000
0100
0000
0001
,
0000
1000
0000
0010
,
0000
0100
0000
0001
,
0000
1000
0000
0001
,
0000
0100
0000
0010
,
0000
0100
0000
0001
,
0000
0010
0000
1000
,
0000
0100
0000
1000
,
0000
0001
0000
0010
,
0000
0001
0000
1000
,
0000
0100
0000
1000
,
0000
0010
0000
0100
,
0100
0100
0010
0001
,
1001
0000
1001
0000
,
1001
0000
1001
0000
,
0110
0000
0110
0000
,
0110
0000
0110
0000
,
0101
0000
0101
0000
,
0101
0000
0101
0000
,
1010
0000
1010
0000
,
1010
0000
1010
0000
,
1100
0000
1100
0000
,
1100
0000
1100
0000
,
0011
0000
0011
0000
,
0011
0000
0011
0000
,
1001
0000
1001
0000
,
1001
0000
1001
0000
,
0110
0000
0110
0000
,
0110
0000
0110
1001
,
0000
0000
0000
0000
,
0000
0000
0000
1000
,
0000
0000
0000
0000
,
0000
0000
0000
0001
,
0000
0000
0000
0000
,
0000
0000
0000
0010
,
0000
0000
0000
0000
,
0000
0000
0000
1000
,
0000
0000
0010
1000
,
0000
0000
0001
0100
,
0000
0000
0010
0001
,
0000
0000
0100
1000
,
0000
0000
1000
0001
,
0000
0000
0100
0001
,
0000
0000
0010
0100
,
0000
0000
1000
1001
,
0000
0000
0000
0000
,
1000
0000
0100
0000
,
1000
0000
0010
0000
,
0100
0000
0001
0000
,
0010
0000
0100
0000
,
1000
0000
0001
0000
,
0010
0000
0001
0000
,
1000
0000
0100
0000
,
1000
0000
0100
0000
,
0001
0000
1000
0000
,
0001
0000
0010
0000
,
0100
0000
0001
0000
,
1000
0000
0100
0000
,
1000
0000
0001
0000
,
0100
0000
1000
0000
,
0001
0000
0010
0000
,
0100
0000
0001
0000
,
1000
1001
0000
1001
,
0000
1001
0000
0101
,
0000
0101
0000
0101
,
0000
0011
0000
0011
,
0000
0011
0000
1100
,
0000
1100
0000
1100
,
0000
0101
0000
0101
,
0000
0101
0000
1010
,
1001
0101
0000
0011
,
0000
1100
0000
0110
,
0000
1010
0000
1100
,
0000
1001
0000
0101
,
0011
1010
0000
1100
,
0000
0011
0000
1100
,
0000
1010
0000
0101
,
0000
0011
1010
0100
,
1001
0000
0000
0000
,
0000
0000
0000
0000
,
0000
0000
0000
0000
,
0000
0000
0000
0000
,
1000
0000
0000
0100
,
0001
0000
0000
0010
,
0100
0000
0000
1000
,
0001
0000
0000
0010
,
0110
0000
0000
0000
,
0000
0000
0000
1000
,
1001
0000
0000
0000
,
0000
0000
0000
0001
,
1001
0000
0000
1000
,
1001
0000
0000
0001
,
1001
1000
1001
0001
,
1001
1000
1001
0001
,
1001
1001
1001
1001
,
1001
0000
0110
0000
,
1002
0000
0000
0000
,
0000
0000
0000
2000
,
3000
0003
0000
0000
0000
0000
0000
0000
0000
0000
0000
0000
0000
0000
0000
0000
0000
0000
0000
0000
0000
0000
0000
0000
0000
0000
0000
0000
0000
0000
0000
0000
0000
0000
0000
0000
0000
0000
0000
0000
0000
0000
0000
0000
0000
0000
0000
0000
0000
0000
0000
0000
0000
0000
0000
0000
0000
0000
0000
0000
0000
0000
0000
0000
0000
0000
0000
0000
0000
0000
0000
0000
0000
0000
0000
0000
0000
0000
0000
0000
0000
0000
0000
0000
0000
0000
0000
0000
0000
0000
0000
0000
0000
0000
0000
0000
0000
0000
0000
0000
0000
0000
0000
0000
0000
0000
0000
0000
0000
0000
0000
0000
0000
0000
0000
0000
0000
0000
0000
0000
0000
0000
0000
0000
0000
0000
0000
0000
0000
0000
0000
0000
0000
0000
0000
0000
0000
0000
0000
0000
0000
0000
0000
0000
0000
0000
0000
0000
0000
0000
0000
0000
0000
0000
0000
0000
0000
0000
0000
0000
0000
0000
0000
0000
0000
0000
0000
0000
0000
0000
0000
0000
0000
0000
0000
0000
0000
0000
0000
0000
0000
0000
0000
0000
0000
0000
0000
0000
0000
0000
0000
0000
;

//---------------dance-single - Wahyu D. L----------------
#NOTES:
     dance-single:
     Wahyu D. L:
     Medium:
     6:
     0.320,0.539,0.447,0.120,0.000:
0000
0000
0000
0000
,
0000
0000
0000
0000
,
0000
0000
0000
0000
,
0000
0000
0000
0000
,
0000
0000
0000
0000
,
0000
0000
0000
0000
,
0000
0000
0000
0000
,
0000
0000
0000
0000
,
1000
0100
1000
0100
,
1000
0100
1000
0100
,
1000
0100
1000
0100
,
1000
0100
1000
0100
,
1000
0001
0010
0001
,
0010
0001
0010
0001
,
0010
0001
0010
0001
,
0010
0001
0010
0001
,
1001
0000
0000
0000
,
0000
1000
0100
1000
,
0010
0001
0010
0100
,
1000
0001
1000
0100
,
1000
0010
0100
0001
,
0010
0100
1000
0001
,
1000
0010
0100
0001
,
0010
0100
1000
0010
,
0100
0001
0010
0100
,
1000
0010
0100
0001
,
0010
1000
0001
0100
,
1000
0010
0100
0001
,
0010
1000
0001
0100
,
1000
0001
1000
0100
,
0010
1000
0001
0100
,
0010
0100
1000
0010
,
0100
1001
0000
1001
,
0100
0010
0100
1000
,
0010
0002
0103
1000
,
0010
0100
1000
0010
,
0100
2000
3001
0100
,
0000
0010
1000
0002
,
0003
0100
1000
0010
,
1000
0100
0010
0002
,
0000
2003
3000
0010
,
1000
0100
0010
0100
,
1000
0002
0000
0103
,
1000
0010
0100
1000
,
0010
2000
0000
3100
,
0000
1000
0001
0200
,
0300
1000
0010
2000
,
3000
0002
0003
0100
,
1000
0010
0100
0001
,
1001
0000
1010
0000
,
1100
0000
1010
0000
,
1001
0000
0101
0000
,
0011
0000
0101
0000
,
1001
0000
1010
0000
,
1100
0000
1010
0000
,
1001
0000
0101
0000
,
0011
0000
0101
1001
,
1010
0000
1010
0000
,
0101
0000
0011
0100
,
1010
0000
0101
0000
,
0011
0000
1010
0100
,
0011
0000
1100
0000
,
1010
0000
0110
0001
,
1100
0000
1001
0000
,
0101
0000
0011
1100
,
0000
0000
0000
0000
,
0000
0000
0000
1000
,
0000
0000
0000
0000
,
0000
0000
0000
0001
,
0000
0000
0000
0100
,
0000
0000
0000
1000
,
0100
0010
0100
0001
,
0010
0110
0000
1000
,
0100
0001
0100
1000
,
0010
0100
0001
0010
,
0001
1000
0010
1000
,
0100
0010
0001
0100
,
1000
0010
1000
0001
,
0100
0010
1000
0001
,
1000
0100
0010
2000
,
3000
0002
0003
0100
,
1000
0010
1000
0001
,
0100
0020
0030
1000
,
0001
0100
1000
0010
,
1000
0002
0003
0200
,
0300
1000
0010
2000
,
3000
0100
0001
0200
,
0300
0002
0003
1000
,
0010
2000
3000
0000
,
0101
0000
0011
0000
,
1010
0000
1100
0001
,
1010
0000
0110
0000
,
1001
0000
1010
0100
,
0011
0000
1100
0000
,
0101
0000
0011
0100
,
1001
0000
0101
0000
,
0011
0000
1001
0010
,
0110
0000
0011
0000
,
1100
0000
0101
0010
,
1010
0000
0101
0000
,
0011
0000
1010
0001
,
0110
0000
0101
0000
,
1001
0000
0110
0001
,
1010
0000
0110
0000
,
1001
0000
1010
0101
,
0000
0000
0000
1000
,
0000
0000
0000
0001
,
0000
0000
0000
0010
,
0000
0000
0000
1001
,
0000
0000
0000
0100
,
0000
0000
0000
0110
,
0000
0000
0000
1000
,
0000
0000
0000
0001
,
0000
0000
0010
0100
,
0000
0000
0001
1000
,
0000
0000
0010
0100
,
0000
0000
1000
0010
,
0000
0000
0100
0001
,
0000
0000
0010
0001
,
0000
0000
1000
0100
,
0000
0000
0010
0110
,
0000
0000
0000
0000
,
2000
3000
0001
0100
,
0010
1000
0002
0003
,
0200
0300
1000
0010
,
1000
0001
0200
0300
,
2000
3000
0010
1000
,
0002
0003
0100
0010
,
1000
0001
0100
0010
,
0200
0300
2000
3000
,
0001
0100
1000
0010
,
1000
0001
0200
0300
,
2000
3000
0010
1000
,
0001
0100
2000
3000
,
0020
0030
0001
0100
,
0002
0003
0100
0010
,
0100
0001
0010
1000
,
0001
1000
0200
0300
,
1000
0101
0100
1010
,
0010
1001
0010
1010
,
0001
1001
1000
0011
,
0100
1001
0001
1100
,
0010
1001
0010
0101
,
0001
0011
0100
1010
,
1000
0011
0100
0110
,
0001
0110
0001
0011
,
0110
1101
1000
0111
,
0010
1110
1000
0111
,
0010
1101
0001
0111
,
0001
1101
0100
1011
,
0010
1101
0001
0111
,
1000
1110
1000
1011
,
0100
1011
0010
1101
,
1000
1011
0100
1110
,
0101
1000
0000
0100
,
0000
0001
0000
0010
,
0000
1000
0000
0100
,
0000
0001
0000
0010
,
1000
0000
0000
0001
,
0010
0000
0000
1000
,
0001
0000
0000
0100
,
1000
0000
0000
0010
,
0100
0000
0000
0000
,
0000
0000
0000
1001
,
0110
0000
0000
0000
,
0000
0000
0000
0110
,
1001
0000
0000
1001
,
0110
0000
0000
0110
,
1001
0110
1001
0110
,
1001
0110
1001
0110
,
1001
1001
1001
1001
,
1001
0000
0110
0000
,
1002
0000
0000
0000
,
0000
0000
0000
2000
,
3003
0000
0000
0000
;

//---------------dance-single - Wahyu D. L----------------
#NOTES:
     dance-single:
     Wahyu D. L:
     Hard:
     9:
     0.536,0.928,0.454,0.609,0.151:
0000
0000
0000
0000
,
0000
0000
0000
0000
,
0000
0000
0000
0000
,
0000
0000
0000
0000
,
0000
0000
0000
0000
,
0000
0000
0000
0000
,
0000
0000
0000
0000
,
0000
0000
0000
0000
,
1000
0100
0001
0010
,
0100
1000
0001
0100
,
0010
0100
1000
0001
,
0100
0000
0010
0000
0100
0000
1000
0010
,
0100
0001
0010
0100
,
1000
0001
1000
0100
,
1000
0010
0100
0001
,
1000
0100
0010
0100
0001
1000
0100
0010
,
2002
3000
0000
0000
0000
0000
0000
0000
0000
0000
0000
0000
0000
0000
0000
0000
1000
0000
0000
0000
0000
0000
0000
0000
0000
0000
0000
0000
0000
0000
0000
0000
1000
0000
0000
0000
0000
0000
0000
0000
0000
0000
0000
0000
0000
0000
0000
0000
1000
0000
0000
0000
0000
0000
0000
0000
0000
0000
0000
0000
0000
0000
0000
0000
,
1000
0000
0000
0000
0000
0003
1001
0000
0000
0000
0000
0000
0100
0000
0000
1000
0000
0000
0000
0000
0000
0010
0000
0000
,
0100
0000
1000
0000
0001
0010
0000
0100
,
1000
0000
1010
0000
0100
0001
0000
0010
,
0001
0000
1001
0000
0100
1000
0000
0010
,
1000
0000
1001
0000
0100
0010
0000
0001
,
0100
0000
1010
0000
0100
0001
0000
1000
,
0010
0000
1010
0000
0100
1000
0000
1000
,
0001
0000
0101
0000
0010
0100
0000
1000
,
0010
0000
1010
0000
1000
0100
0000
0001
,
1000
0000
1010
0000
0100
0010
0000
0001
,
0010
0000
0110
0000
1000
0010
0000
0001
,
0010
0000
0110
0000
1000
0010
0000
0001
,
0100
0000
1010
0000
0100
0001
0000
0100
,
1000
0000
1010
0000
0010
1000
0000
0001
,
0100
0000
1010
0000
0100
0010
0000
1000
,
0001
0000
0000
0000
0000
0000
0000
0000
0000
0000
0000
0000
0000
0000
0000
0000
2002
3003
0000
0000
0000
0000
0000
0000
0000
0000
0000
0000
0000
0000
0000
0000
1010
0000
0000
0000
0000
0000
0000
0000
0000
0000
0000
0000
0000
0000
0000
0000
1001
0000
0000
0000
0000
0000
0000
0000
0000
0000
0000
0000
0000
0000
0000
0000
,
0000
0000
0001
0000
1000
0000
0000
0001
0000
0000
0010
0000
0001
0000
0000
0010
,
0000
0100
0002
0000
0010
0000
1003
0000
,
0000
0000
0100
0000
0010
0000
0000
0001
0000
0000
1000
0000
0001
0000
0000
0100
,
0000
1000
0002
0000
1000
0000
1003
0000
,
0000
0000
1000
0000
0001
0000
0000
0010
0000
0000
1000
0000
0020
0000
0000
0000
,
0030
0000
0010
0000
1000
0000
0000
0001
0000
0000
0010
0000
1000
0000
0000
1000
,
0000
0001
2000
0000
3020
0000
2030
0000
,
3000
0100
0010
0000
0100
0000
0020
0000
,
0000
0000
0031
0000
0100
0000
0000
1000
0000
0000
0010
0000
0100
0000
0000
1000
,
0000
0001
0020
0000
2030
0000
3200
0000
,
0000
0000
0301
0000
0100
0000
0000
1000
0000
0000
0001
0000
0100
0000
0000
0001
,
0000
0100
2000
0000
3020
0000
0230
0000
,
0300
0000
0010
0000
0001
0000
0000
0010
0000
0000
1000
0000
0001
0000
0000
0000
,
0000
0000
0010
0000
0100
0000
0000
0010
0000
0000
0100
0000
1000
0000
0000
0100
,
0000
0000
0001
0000
1000
0000
0000
0010
0000
0000
0100
0000
0010
0000
0000
1000
,
0000
0001
0200
0000
0000
0000
0302
0000
,
0003
0000
0000
0000
2000
0000
0000
3200
0000
0000
0320
0000
0032
0000
0000
0000
,
0003
0000
0000
0020
,
0030
0000
0000
0002
0000
2003
3020
0000
,
0230
0302
0000
0003
0000
0000
2000
0000
,
3000
0000
0000
0000
0020
0000
0000
0230
0000
0000
0302
0000
0023
0000
0000
0000
,
0030
2000
0000
3000
0000
0200
2300
3000
,
0020
0230
0300
0002
0000
0023
0000
0230
,
2300
3020
0000
0030
0000
0000
0002
0000
,
0003
0000
0000
0000
2000
0000
0000
3200
0000
0000
0320
0000
0230
0000
0000
0000
,
0300
0002
0003
0020
,
0230
0302
0000
2003
0000
3020
0000
0230
,
0302
0023
0000
0030
0000
0000
2000
0000
,
3200
0320
0000
0230
0000
0302
0023
0000
,
0230
2300
0000
3000
0000
0020
0230
0000
,
0302
0000
0023
0000
0000
0000
0230
0000
0000
0000
2300
0000
3002
0000
0000
0203
,
0000
0320
2030
0000
3001
0010
0100
0000
,
1000
0000
0010
0000
0100
0000
0001
0010
,
0100
1000
0001
0000
0100
0000
0010
0000
,
0100
0000
1000
0000
0010
0000
1000
0001
,
0100
0010
0100
0000
0001
0000
0010
0100
,
1000
0001
0100
0000
0010
0000
1000
0100
,
0001
0010
0100
0000
0001
0000
1000
0000
,
0010
0000
0100
0000
0001
0010
0100
1000
,
0001
1000
0001
0000
1000
0000
1001
0000
,
000M
0000
0100
0000
0100
0000
0000
0001
0000
0000
0100
0000
01M0
0000
0000
1000
,
0000
0010
M010
0000
0020
0000
2030
0000
,
0000
0000
3010
0000
0001
0000
0000
1000
0000
0000
0100
0000
0010
0000
0000
0001
,
0000
1000
2000
0000
3200
0000
0320
0000
,
0030
0000
0100
0000
0010
0000
0000
0010
0000
0000
1000
0000
0020
0000
0000
0000
,
0030
0000
0010
0000
0010
0000
0000
0010
0000
0000
0001
0000
0010
0000
0000
1000
,
0000
0001
0001
0000
0002
0000
0023
0000
,
0030
0010
0100
0000
0200
0000
0302
0000
,
0003
0000
0001
0000
1000
0000
0000
0010
0000
0000
1000
0000
1000
0000
0000
0001
,
0000
1000
2000
0000
3020
0000
0032
0000
,
0003
0000
0001
0000
0001
0000
0000
0100
0000
0000
0100
0000
0100
0000
0000
0100
,
0000
1000
0M10
0000
001M
0000
M002
0000
,
0003
0000
0010
0000
0100
0000
0000
0010
0000
0000
0100
0000
0200
0000
0000
0000
,
0300
0000
1000
0000
2000
0000
0000
0001
3000
0000
0100
0000
0100
0000
0000
0100
,
0000
0000
0100
0000
0010
0000
0000
1000
0000
0000
1000
0000
0100
0000
0000
0100
,
0000
0001
0001
0000
1000
0000
1001
0000
,
0101
0010
1001
0100
,
1010
0000
1000
0000
0001
1000
0100
0000
,
1001
0010
0101
0010
,
0011
0000
0100
0000
1000
0001
0100
0000
,
0011
0001
1100
0010
,
1100
0000
0100
0000
0001
1000
0001
0000
,
1010
0100
1001
0010
,
0110
0000
0001
0000
0010
1000
0100
0000
,
1011
0100
1110
0100
,
0111
0000
0010
0000
1000
0010
0100
0000
,
1MM1
0100
1011
0010
,
1110
0000
0100
0000
0001
1000
0010
0000
,
0101
0001
1110
0010
,
0111
0000
0010
0000
1000
0001
0100
0000
,
1001
0001
0111
1000
,
1110
0001
1100
1111
,
1000
0100
0010
0100
,
0001
0000
0100
0000
1000
0010
1000
0000
,
0001
0100
0010
0001
,
0100
0010
0100
1001
,
0100
0000
0010
0000
1000
0001
0100
0000
,
0010
1000
0010
0101
,
0010
0000
0100
0000
1000
0010
1000
0000
,
0100
0000
0000
0000
0001
0000
0000
0000
0010
0000
0100
0000
1000
0000
0000
1000
,
0000
0000
1000
0000
0000
1000
0000
0000
1000
0000
0100
0000
0001
0000
0000
0001
,
0000
0000
0001
0000
0000
0001
0000
0000
0001
0000
0010
0000
0100
0000
0000
0100
,
0000
0000
0100
0000
0000
0100
0000
0000
0100
0000
1000
0000
0010
0000
0000
0010
,
0000
0000
0010
0000
0000
0010
0000
0000
0010
0000
0001
0000
1000
0000
0000
1000
,
0000
0000
1000
0000
0000
1000
0000
0000
1000
0000
0100
0000
0010
0000
0000
0010
,
0000
0000
0010
0000
0000
0010
0000
0000
0010
0000
0100
0000
0001
0000
0000
0001
,
0000
0000
0001
0000
0000
0001
0000
0000
0001
0000
0010
0000
0100
0000
0000
0100
,
0000
0000
0000
0000
0000
0000
0000
0000
0100
0000
0000
0000
0000
0000
0000
0000
0000
0000
0000
0000
0100
0000
0000
0000
0000
0000
0000
0000
0000
0000
0000
0000
0100
0000
0000
0000
0000
0000
0000
0000
1000
0000
0000
0000
0000
0000
0000
0000
2200
3000
0000
0000
0000
0000
0000
0000
0000
0000
0000
0000
0000
0000
0000
0000
,
1000
0000
0000
0000
0000
0000
1000
0000
0000
0000
0000
0000
1000
0000
0000
0000
0000
0000
1000
0000
0000
0000
0000
0300
,
2001
0000
0000
0000
3000
0000
0010
0000
0100
0000
0000
1000
0000
0000
0010
0000
,
0100
0000
0000
0100
0000
0000
0001
0000
0020
0000
0000
0000
0230
0000
0000
0000
,
0320
0000
0000
0000
0030
0000
0010
0000
0010
0000
0000
1000
0000
0000
0001
0000
,
1000
0000
0000
1000
0000
0000
0010
0000
0002
0000
0000
0000
1003
0000
0000
0000
,
2000
0000
0000
0000
3000
0000
0010
0000
1000
0000
0000
0001
0000
0000
0001
0000
,
M020
0000
0000
0000
0030
0000
1000
0000
10M0
0000
0000
1000
0000
0000
0100
0000
,
100M
0000
0000
0100
0000
0000
0100
0000
0200
0000
0000
0000
0302
0000
0000
0000
,
0023
0000
0030
1000
0010
0000
0100
0000
,
0200
0000
0000
0000
0300
0000
0001
0000
0010
0000
0000
0010
0000
0000
0001
0000
,
1000
0000
0000
0001
0000
0000
0010
0000
2000
0000
0000
0000
3020
0000
0000
0000
,
0032
0000
0000
0000
0003
0000
0100
0000
0100
0000
0000
0010
0000
0000
0010
0000
,
0001
0000
0000
0001
0000
0000
0010
0000
0020
0000
0000
0000
2030
0000
0000
0000
,
3020
0000
0000
0000
0030
0000
0001
0000
1000
0000
0000
0001
0000
0000
1000
0000
,
0002
0000
0000
0000
0003
0000
1000
0000
0010
0000
0000
0001
0000
0000
0010
0000
,
1000
0000
0000
0010
0000
0000
0001
0000
0100
0000
0000
1000
0000
0000
0001
0000
,
0100
0000
0000
0100
0000
0000
0001
0000
0100
0000
0000
0000
1000
0000
0000
0000
,
2000
0000
0000
0000
3200
0000
0000
0000
0320
0000
0000
2030
0000
0000
3002
0000
,
0203
0000
0300
0020
0000
0030
MM00
0000
,
2MM0
0000
30MM
0000
0000
0002
0000
0023
,
0230
0000
2300
3002
0000
0003
0000
0000
,
0020
0000
0000
0000
0030
0000
0000
0000
2000
0000
0000
3002
0000
0000
0203
0000
,
2300
0000
0000
0000
3020
0000
2030
0000
0000
3000
0000
0000
0000
0000
0200
0000
,
2300
0000
3020
0230
M000
0302
00M0
2003
,
0000
3020
0230
0302
0000
0003
0000
0000
,
1010
0000
0000
0000
M00M
0000
0000
0000
0210
0000
0000
2310
0000
0000
3120
0000
,
2130
0000
3000
0021
0000
0030
0000
0000
,
0012
0000
2103
3102
0000
0213
0000
0312
,
0000
2103
3210
0321
0000
0030
0000
0000
,
0012
0000
2103
3021
0000
0132
0000
0213
,
2301
0000
3102
0213
0000
0300
0000
0012
,
0123
0000
0231
2301
0000
3021
0000
1230
,
0312
0000
0000
0123
0000
0000
1230
0000
2301
0000
0000
0000
3101
0000
0000
0000
,
1001
0000
0000
1000
0000
0000
1000
0000
0000
1000
0000
0000
1000
0000
0100
0000
,
0010
0000
0000
0010
0000
0000
0010
0000
0000
0010
0000
0000
0010
0000
0001
0000
,
0100
0000
0000
0100
0000
0000
0100
0000
0000
0100
0000
0000
0100
0000
1000
0000
,
0001
0000
0000
0001
0000
0000
0001
0000
0000
0001
0000
0000
0001
0000
0010
0000
,
1001
0000
0000
0110
0000
0000
0011
0000
0000
1100
0000
0000
0011
0000
0110
0000
,
1100
0000
0000
0011
0000
0000
0110
0000
0000
0101
0000
0000
1010
0000
1001
0000
,
0101
0000
0000
0110
0000
0000
0011
0000
0000
0110
0000
0000
1100
0000
0101
0000
,
0110
0000
0000
1010
0000
0000
1001
0000
0000
1010
0000
0000
0101
0000
0011
0000
,
1001
0000
0000
0000
,
0000
0000
0000
0011
,
0111
0000
0000
0000
,
0000
0000
0000
1100
,
1110
0000
0000
1010
,
1011
0000
0000
0101
,
1101
1001
1101
0101
,
0111
0110
1110
1010
,
1011
1011
1011
1011
,
1011
0000
1001
0000
,
2222
0000
3000
0000
,
0300
0000
0030
2000
,
3113
0000
0000
0000
;

//---------------dance-single - Wahyu D. L----------------
#NOTES:
     dance-single:
     Wahyu D. L:
     Challenge:
     15:
     0.961,1.000,0.943,0.220,0.824: // measure 1
0000
0000
0000
0000
,  // measure 2
0000
0000
0000
0000
,  // measure 3
0000
0000
0000
0000
,  // measure 4
0000
0000
0000
0000
,  // measure 5
0000
0000
0000
0000
,  // measure 6
0000
0000
0000
0000
,  // measure 7
0000
0000
0000
0000
,  // measure 8
0000
0000
0000
0000
,  // measure 9
1000
0000
0100
0000
0001
0010
0100
1000
0001
0000
0100
0000
1000
0100
0010
0001
,  // measure 10
1000
0000
0010
0000
0001
0010
0100
1000
0001
0000
0100
0000
1000
0100
0010
0001
,  // measure 11
1000
0000
0010
0000
0001
0010
0100
1000
0001
0000
0100
0000
1000
0100
0010
0001
,  // measure 12
1000
0000
0010
0000
0001
0010
0100
1000
0001
0000
0100
0000
1000
0100
0010
0001
,  // measure 13
1000
0000
0010
0000
0001
0010
0100
1000
0001
0000
0100
0000
1000
0100
0010
0001
,  // measure 14
1000
0000
0010
0000
0001
0010
0100
1000
0001
0000
0100
0000
1000
0100
0010
0001
,  // measure 15
1000
0000
0010
0000
0001
0010
0100
1000
0001
0000
0100
0000
1000
0100
0010
0001
,  // measure 16
1000
0000
0000
0000
0010
0000
0001
0000
0000
0000
0100
0000
0010
0000
0000
0000
1000
0000
0100
0000
0010
0000
0001
0000
1000
0001
1000
0001
1000
0000
0001
0000
,  // measure 17
1001
0000
0000
0000
0001
0010
0100
1000
0001
0010
0100
1000
0001
0010
0100
1000
,  // measure 18
0001
0010
0100
1000
0001
0000
1000
0001
0000
0100
0001
0000
1000
0010
0000
0001
,  // measure 19
1000
0000
0001
0010
1000
0000
0010
1000
0000
0100
0001
0000
1000
0010
0000
0100
,  // measure 20
0001
0000
0010
1000
0001
0000
0100
0001
0000
0010
1000
0000
0001
0100
0000
0010
,  // measure 21
1000
0000
0001
1000
0010
0000
0001
1000
0000
0010
1000
0000
0100
1000
0000
0010
,  // measure 22
1000
0000
0001
1000
0010
0000
0100
1000
0000
0010
1000
0000
0001
1000
0000
0100
,  // measure 23
1000
0000
0010
1000
0001
0000
0100
1000
0000
0001
1000
0000
0001
0100
0000
0001
,  // measure 24
1000
0000
0100
0001
0010
0000
0001
0100
0000
0001
1000
0000
0001
0010
0000
1000
,  // measure 25
0100
0000
0001
0100
1000
0000
0010
0001
0000
0010
0100
0000
0010
1000
0000
0100
,  // measure 26
0001
1000
0001
1000
0001
0000
0010
0000
0100
0000
0000
0000
0001
0000
1000
0000
0000
0000
1000
0000
0100
0000
0000
0000
0001
0000
0010
0000
0000
0000
0100
0000
,  // measure 27
0001
0000
0100
0010
0001
0000
0010
0001
0000
1000
0100
0000
0001
0010
0000
1000
,  // measure 28
0100
0000
0010
0001
0100
0000
1000
0100
0000
0010
0001
0000
0010
0001
0000
0100
,  // measure 29
1000
0000
0010
1000
0100
0000
0010
1000
0000
0100
1000
0000
0001
1000
0000
0100
,  // measure 30
1000
0000
0010
1000
0100
0000
0001
1000
0000
0001
0010
0000
0001
0010
0000
0100
,  // measure 31
0010
0000
1000
0010
0001
0000
0100
0010
0000
0001
0010
0000
1000
0010
0000
1000
,  // measure 32
0010
0000
0000
0000
0001
0000
0100
0000
1000
0000
0000
0000
0100
0000
0000
0000
0001
0000
0000
0000
0010
0000
0000
0000
0100
0000
0000
0000
1000
0001
1000
0000
,  // measure 33
0001
0000
0000
0000
1000
0000
0000
0000
0001
0000
0000
0000
1000
0000
0000
0000
2002
3003
0000
0000
0000
0000
0000
0000
0000
0000
0000
0000
0000
0000
0000
0000
0101
0000
0000
0000
0000
0000
0000
0000
0000
0000
0000
0000
0000
0000
0000
0000
2111
0000
0000
0000
0000
0000
0000
0000
0000
0000
0000
0000
0000
0000
0000
0000
,  // measure 34
0100
0000
0001
0100
0010
0000
0000
0001
0000
0000
0010
0000
0001
0000
0000
0010
,  // measure 35
0000
0100
0002
0000
0010
0000
0103
0000
,  // measure 36
0001
0000
0100
0001
0010
0000
0000
0001
3000
0000
0010
0000
0001
0000
0000
0100
,  // measure 37
0000
0000
1000
0020
0002
0000
0000
0000
0100
0000
1000
0000
0133
0000
0000
0000
,  // measure 38
0010
0000
1000
0100
0001
0000
0000
0010
0000
0000
1000
0000
0020
0000
0000
0100
,  // measure 39
0030
0000
0010
0001
1000
0000
0000
0001
0000
0000
0010
0000
1000
0000
0000
1000
,  // measure 40
0000
0000
0001
0000
2000
0000
0000
0000
3020
0000
0000
0000
2030
0000
0000
0001
,  // measure 41
3000
0000
0100
0001
0010
0000
0000
0000
0100
0000
0000
0000
0020
0000
0000
1000
,  // measure 42
0000
0000
0031
0010
0100
0000
0000
1000
0000
0000
0010
0000
0100
0000
0000
1000
,  // measure 43
0000
0000
0001
0200
0020
0000
0000
0000
2330
0000
0000
0000
3200
0000
0000
0010
,  // measure 44
0000
0000
0301
1000
0100
0000
0000
1000
0000
0000
0001
0000
0100
0000
0000
0001
,  // measure 45
0000
0000
0100
0001
2000
0000
0000
0000
3020
0000
0001
1000
0230
0000
0000
0000
,  // measure 46
0300
0000
0010
1000
0001
0000
0000
0010
0000
0000
1000
0000
0002
0000
0000
0000
,  // measure 47
0003
0000
0010
1000
0100
0000
0000
0011
0000
0000
0110
0000
1010
0000
0000
0110
,  // measure 48
0000
0000
0001
0010
1000
0000
0000
0011
0000
0000
0101
0000
1001
0000
0001
1000
,  // measure 49
0000
0000
1000
0000
0001
0000
0000
0000
0010
0000
0001
0000
0100
0000
0001
0000
1000
0100
0010
0000
0001
0000
0010
0000
1100
0000
0000
0000
0001
0000
0000
0000
,  // measure 50
0110
0010
0001
0010
1100
1000
0001
0100
,  // measure 51
1010
0001
0100
0010
0110
1000
0001
0100
,  // measure 52
0011
1000
0100
0010
0101
0001
0010
0100
,  // measure 53
1010
0100
1000
0001
0101
1001
0101
0010
,  // measure 54
0110
0010
1000
0001
1100
0010
0001
0100
,  // measure 55
0110
0001
0100
0010
0101
1000
0010
0100
,  // measure 56
1001
0010
0100
0001
0110
0100
1000
0100
,  // measure 57
0011
0000
0000
0000
0010
0000
0000
0000
0001
0000
0000
0000
0100
0000
0000
0000
0001
1000
0001
0000
1000
0000
0000
0000
0001
0000
0000
0000
0100
0000
0000
0000
,  // measure 58
0111
0100
0001
0010
1110
1000
0001
1000
,  // measure 59
1101
0010
0100
0001
1011
0011
0001
0010
,  // measure 60
0111
0100
1000
0010
1110
0001
0010
1000
,  // measure 61
1101
0010
0100
1000
1011
1010
1000
0010
,  // measure 62
1101
0010
0100
1000
0111
0010
0100
0001
,  // measure 63
1110
0001
0100
0010
0111
0110
0100
0001
,  // measure 64
1011
0010
0100
0010
1101
0001
1000
0100
,  // measure 65
1011
0100
0010
0100
1110
1100
1000
0010
,  // measure 66
0001
0000
0000
0000
0100
0000
0000
0000
0010
0000
0000
0000
1000
0000
0000
0000
0001
0010
0100
1000
0001
0000
0000
0000
1000
0000
0000
0000
0001
0000
0000
0000
,  // measure 67
1000
0001
0100
0000
0011
0000
1000
0100
,  // measure 68
0010
0000
0000
0000
0100
0000
0000
0000
0001
0000
0000
0000
0010
0000
0000
0000
1000
0100
0010
0001
1000
0000
0000
0000
0010
0000
0000
0000
0001
0000
0000
0000
,  // measure 69
0010
0000
0100
0000
0110
0000
0000
0000
1010
0000
0001
0100
1000
0000
0100
0000
,  // measure 70
0001
0010
0100
1000
0001
0000
0000
0000
0010
0000
0000
0000
0100
0000
0000
0000
1000
0000
0000
0000
0001
0000
0010
0000
1000
0000
0000
0000
0001
0000
0000
0000
,  // measure 71
1000
0100
0010
0001
1000
0000
0000
0000
0100
0000
0000
0000
0001
0000
0010
0000
1000
0000
0000
0000
0010
0000
0100
0000
0001
0000
0000
0000
1000
0000
0010
0000
,  // measure 72
0000
0000
0100
0000
0001
0000
0000
0000
0010
0000
0100
0000
1000
0000
0001
0000
0100
1000
0100
0000
1000
0000
0100
0000
0010
0000
0000
0000
0100
0000
0000
0000
,  // measure 73
0001
0010
0100
1000
0001
0000
0000
0000
0100
0000
0000
0000
0000
0000
0000
0000
0011
0000
0000
0000
0000
0000
0000
0000
1211
0000
0000
0000
0000
0000
0000
0000
,  // measure 74
0010
0000
1000
0010
0001
0000
0000
1000
0000
0000
0001
0000
1000
0000
0000
0001
,  // measure 75
0000
0010
2000
0000
0001
0000
3010
0000
,  // measure 76
1000
0000
0010
1000
0001
0000
0000
1000
0300
0000
0001
0000
1000
0000
0000
0010
,  // measure 77
0000
0000
0100
0002
2000
0000
0000
0000
0010
0000
0100
0000
3013
0000
0000
0000
,  // measure 78
0001
0000
0100
0010
1000
0000
0000
0001
0000
0000
0100
0000
0002
0000
0000
0010
,  // measure 79
0003
0000
0001
1000
0100
0000
0000
1000
0000
0000
0001
0000
0100
0000
0000
0100
,  // measure 80
0000
0000
1000
0000
0200
0000
0000
0000
0302
0000
0000
0000
0203
0000
0000
1000
,  // measure 81
0300
0000
0010
1000
0001
0000
0000
0000
0010
0000
0000
0000
0002
0000
0000
0100
,  // measure 82
0000
0000
1003
0001
0010
0000
0000
0100
0000
0000
0001
0000
0010
0000
0000
0100
,  // measure 83
0000
0000
1000
0020
0002
0000
0000
0000
0233
0000
0000
0000
0320
0000
0000
0001
,  // measure 84
0000
0000
1030
0100
0010
0000
0000
0100
0000
0000
1000
0000
0010
0000
0000
1000
,  // measure 85
0000
0000
0010
1000
0200
0000
0000
0000
0302
0000
1000
0100
0023
0000
0000
0000
,  // measure 86
0030
0000
0001
0100
1000
0000
0000
0001
0000
0000
0100
0000
2000
0000
0000
0000
,  // measure 87
3000
0000
0001
0100
0010
0000
0000
1001
0000
0000
0011
0000
0101
0000
0000
0011
,  // measure 88
0000
0000
1000
0001
0100
0000
0000
1001
0000
0000
1010
0000
1100
0000
1000
0100
,  // measure 89
0000
0000
0100
0000
1000
0000
0000
0000
0001
0000
1000
0000
0010
0000
1000
0000
0100
0010
0001
0000
1000
0000
0001
0000
0110
0000
0000
0000
1000
0000
0000
0000
,  // measure 90
0011
0001
1000
0001
0110
0100
1000
0010
,  // measure 91
0101
1000
0010
0001
0011
0100
1000
0010
,  // measure 92
1001
0100
0010
0001
1010
1000
0001
0010
,  // measure 93
0101
0010
0100
1000
1010
1100
1010
0001
,  // measure 94
0011
0001
0100
1000
0110
0001
1000
0010
,  // measure 95
0011
1000
0010
0001
1010
0100
0001
0010
,  // measure 96
1100
0001
0010
1000
0011
0010
0100
0010
,  // measure 97
1001
0000
0000
0000
0001
0000
0000
0000
1000
0000
0000
0000
0010
0000
0000
0000
1000
0100
1000
0000
0100
0000
0000
0000
1000
0000
0000
0000
0010
0000
0000
0000
,  // measure 98
1011
0010
1000
0001
0111
0100
1000
0100
,  // measure 99
1110
0001
0010
1000
1101
1001
1000
0001
,  // measure 100
1011
0010
0100
0001
0111
1000
0001
0100
,  // measure 101
1110
0001
0010
0100
1101
0101
0100
0001
,  // measure 102
1110
0001
0010
0100
1011
0001
0010
1000
,  // measure 103
0111
1000
0010
0001
1011
0011
0010
1000
,  // measure 104
1101
0000
0001
0000
0010
0000
0001
0000
1110
0000
1000
0000
0100
0000
0010
0001
,  // measure 105
0000
0000
0100
0000
0010
0000
0000
0000
1000
0000
0010
0000
0100
0000
0001
0000
1000
0100
0010
0000
0001
0000
0100
0000
1001
0000
0000
0000
0000
0000
1001
0000
,  // measure 106
0000
0000
1001
0000
0000
1001
0000
0000
1001
0000
0101
0000
0011
0000
0000
0011
,  // measure 107
0000
0000
0011
0000
0000
0011
0000
0000
0011
0000
1001
0000
1101
0000
0000
0101
,  // measure 108
0000
0000
0101
0000
0000
0101
0000
0000
0101
0000
0011
0000
1010
0000
0000
1010
,  // measure 109
0000
0000
1010
0000
0000
1010
0000
0000
1010
0000
1001
0010
1100
0000
0000
1100
,  // measure 110
0000
0000
1100
0000
0000
1100
0000
0000
1100
0000
1010
0000
0110
0000
0000
0110
,  // measure 111
0000
0000
0110
0000
0000
0110
0000
0000
0110
0000
0101
0000
1010
0000
0000
0101
,  // measure 112
0000
0000
0011
0000
0000
1100
0000
0000
1001
0000
0011
0000
1100
0000
0000
0110
,  // measure 113
0000
0000
0011
0000
0000
0110
0000
0000
1100
0000
0110
0000
1111
0000
0000
1111
,  // measure 114
0000
0000
1111
0000
0000
1111
0000
0000
1111
0000
1111
0000
1111
0000
0000
1111
,  // measure 115
0000
0000
1111
0000
0000
1111
0000
0000
1111
0000
1111
0000
1110
0000
0000
1101
,  // measure 116
0000
0000
1011
0000
0000
0111
0000
0000
1011
0000
1101
0000
1110
0000
0000
1101
,  // measure 117
0000
0000
1011
0000
0000
0111
0000
0000
1011
0000
1101
0000
0011
0000
0000
0110
,  // measure 118
0000
0000
1100
0000
0000
0110
0000
0000
0011
0000
0110
0000
1100
0000
0000
0110
,  // measure 119
0000
0000
0011
0000
0000
0110
0000
0000
1100
0000
0110
0000
0011
0000
0000
0001
,  // measure 120
0000
0000
0010
0000
0000
0100
0000
0000
1000
0000
0100
0000
0010
0000
0000
0001
,  // measure 121
0000
0000
0000
0000
0000
0000
0000
0000
0010
0000
0000
0000
0000
0000
0000
0000
0000
0000
0000
0000
0100
0000
0000
0000
0000
0000
0000
0000
0000
0000
0000
0000
1000
0000
0000
0000
0000
0000
0000
0000
0100
0000
0000
0000
0000
0000
0000
0000
2222
3333
0000
0000
0000
0000
0000
0000
0000
0000
0000
0000
0000
0000
0000
0000
,  // measure 122
1000
0100
0010
0001
1000
0100
0010
0001
1000
0100
0010
0001
1000
0100
0010
0001
,  // measure 123
1121
0000
0000
0000
0001
0000
0100
0001
1000
0000
0000
0100
0000
0000
1000
0000
,  // measure 124
0100
0000
0000
1000
0000
0000
0001
0000
0200
0000
0000
0000
1000
0000
0000
0000
,  // measure 125
0301
0000
0000
0000
0100
0000
0001
0100
1000
0000
0000
0100
0030
0000
1000
0000
,  // measure 126
0100
0000
0000
0001
0000
0000
0010
2000
0200
0000
0000
0000
0001
0000
0010
0000
,  // measure 127
3301
0000
0000
0000
1000
0000
0010
0001
0100
0000
0000
1000
0000
0000
0010
0000
,  // measure 128
2000
0000
0000
0001
3000
0000
1000
0100
0010
0000
0000
0100
0000
0000
1000
0000
,  // measure 129
0010
0000
0000
0010
0000
0000
0100
0000
0020
0000
0000
0000
2030
0000
0000
0000
,  // measure 130
3020
0000
0000
0100
0030
0000
0001
0100
1000
0000
0000
0000
0001
0000
0000
0000
,  // measure 131
2000
0000
0000
0010
0000
0000
3100
1000
0001
0000
0000
0010
0000
0000
1000
0000
,  // measure 132
0001
0000
0000
0010
0000
0000
0100
0002
2000
0000
0000
0000
3023
0000
0000
0000
,  // measure 133
0032
0000
0000
1000
0000
0000
0103
0010
0001
0000
0000
0010
0000
0000
0100
0000
,  // measure 134
0001
0000
0000
0100
0000
0000
0001
0100
0020
0000
0000
0000
2030
0000
0100
0010
,  // measure 135
3002
0000
0000
0000
0003
0000
1000
0010
0100
0000
0000
1000
0000
0000
0010
0000
,  // measure 136
0200
0000
0000
0000
0300
0000
1000
0010
0001
0000
0000
1100
0000
0000
1001
0000
,  // measure 137
1010
0000
0000
1001
0000
0000
0100
1000
0010
0000
0000
1100
0000
0000
0101
0000
,  // measure 138
0110
0000
0000
0000
0100
0000
0010
0000
0000
0000
0010
0000
0100
0000
0000
0000
1000
0000
0100
0000
0001
0000
0100
0000
0010
0001
1000
0000
0100
0000
1000
0000
,  // measure 139
0001
0010
0100
1000
0001
0010
0100
0001
0010
0100
0001
0100
0010
1000
0100
0010
,  // measure 140
0100
0001
0010
0001
0100
1000
0010
0100
1000
0010
0100
0001
0010
0001
1000
0100
,  // measure 141
0010
0100
0001
0010
0100
0010
0100
1000
0001
1000
0100
0010
0100
0010
1000
0001
,  // measure 142
0100
0010
0001
0010
0100
0001
0100
1000
0010
0100
1000
0001
0100
0010
0100
0010
,  // measure 143
1000
0001
0010
0001
0100
1000
0010
0100
0010
0100
1000
0001
0010
0001
0010
0100
,  // measure 144
0010
0100
1000
0001
0100
0010
0001
0010
0100
1000
0001
1000
0100
0010
0001
1000
,  // measure 145
0100
0001
0010
0100
1000
0001
1000
0010
0100
1000
0100
0010
0001
0100
0010
1000
,  // measure 146
0001
0100
0010
0001
0100
1000
0010
0001
0100
0010
0100
1000
0010
0100
0001
0010
,  // measure 147
1001
0100
0010
0001
1101
0010
0100
0001
1000
0010
0100
1000
0111
1000
0001
0100
,  // measure 148
0010
0001
0010
0100
1110
0001
0010
0100
1000
0001
0010
1000
0111
0100
0010
0001
,  // measure 149
0010
0100
1000
0100
1101
0010
0100
0010
0001
0010
0100
1000
0111
0010
0001
0010
,  // measure 150
0001
0100
1000
0010
1101
0010
0100
0001
0100
0010
1000
0100
1011
0100
1010
0001
,  // measure 151
1110
0001
0010
0100
1101
0001
0100
0010
0001
0100
1000
0100
0111
0010
0100
0001
,  // measure 152
1000
0010
0100
0001
1110
0001
0010
0100
1000
0001
0100
0010
1011
0100
1000
0001
,  // measure 153
0100
0010
0100
1000
1011
0100
1000
0001
0010
0100
0010
0100
1101
0010
0001
0100
,  // measure 154
1000
0000
0000
0000
0100
0000
1000
0000
0000
0000
0100
0000
0010
0000
0000
0000
0001
0000
0010
0000
0100
0000
1000
0000
0100
0010
0100
0000
0001
0000
0010
0000
,  // measure 155
1001
0000
0000
1001
0000
0000
1001
0000
0000
1001
0000
0000
1001
0000
1010
0000
,  // measure 156
1100
0000
0000
1100
0000
0000
1100
0000
0000
1100
0000
0000
1100
0000
1001
0000
,  // measure 157
1011
0000
0000
1010
0000
0000
1010
0000
0000
1010
0000
0000
1010
0000
1100
0000
,  // measure 158
0101
0000
0000
0101
0000
0000
0101
0000
0000
0101
0000
0000
0101
0000
1001
0000
,  // measure 159
1111
0000
0000
1111
0000
0000
1111
0000
0000
1111
0000
0000
1111
0000
1111
0000
,  // measure 160
0111
0000
0000
1011
0000
0000
1101
0000
0000
1110
0000
0000
1101
0000
1011
0000
,  // measure 161
1100
0000
0000
0110
0000
0000
0011
0000
0000
0110
0000
0000
1100
0000
0110
0000
,  // measure 162
0001
0000
0000
0000
0010
0000
1000
0000
0000
0000
1000
0000
0100
0000
0000
0000
0001
0000
0010
0000
0100
0000
1000
0000
0100
0010
0001
0000
1000
0000
0100
0000
,  // measure 163
1001
0000
0000
0000
0000
0000
0000
0000
0100
0000
0000
0000
0010
0000
0000
0000
1000
0000
0000
0000
0100
0000
0000
0000
0001
0010
0100
1000
0001
0000
0000
0000
,  // measure 164
0010
0100
0001
0010
1000
0000
1110
0000
,  // measure 165
0111
0000
0000
0000
0010
0000
0000
0000
0100
0000
0000
0000
1000
0000
0000
0000
0100
0000
0000
0000
0001
0000
0000
0000
1000
0100
0010
0001
0100
0000
0000
0000
,  // measure 166
0010
0100
0001
0010
0100
0000
1011
0000
,  // measure 167
1101
0000
0000
0000
0100
0000
0000
0000
0010
0000
0000
0000
0001
0000
0000
0000
0010
0000
0000
0000
1000
0000
0000
0000
0111
0001
0010
0100
1000
0000
0000
0000
,  // measure 168
1011
0000
0000
0000
0100
0000
0000
0000
0010
0000
0000
0000
0001
0000
0000
0000
0010
0000
0000
0000
0100
0000
0000
0000
1110
0100
0010
0001
1000
0000
0000
0000
,  // measure 169
1101
0010
1110
0001
1101
0010
0111
1000
,  // measure 170
1011
0100
1101
0010
1110
0001
1101
0010
,  // measure 171
1111
1111
1111
1111
,  // measure 172
1111
MMMM
1111
MMMM
,  // measure 173
2222
0000
3000
M000
,  // measure 174
M300
0000
0000
0000
0000
0000
MM00
0000
0000
0000
0000
0000
MM30
0000
0000
0000
0000
0000
2220
0000
0000
0000
0000
3333
,  // measure 175
1111
0000
0000
0000
;
