#TITLE:00.01;
#SUBTITLE:;
#ARTIST:Nejino Hito;
#TITLETRANSLIT:;
#SUBTITLETRANSLIT:;
#ARTISTTRANSLIT:;
#CREDIT:;
#BANNER:;
#BACKGROUND:;
#LYRICSPATH:;
#CDTITLE:;
#MUSIC:00.01.mp3;
#OFFSET:-0.046;
#SAMPLESTART:26.999;
#SAMPLELENGTH:12.000;
#SELECTABLE:YES;
#BPMS:0.000=180.000;
#STOPS:;
#BGCHANGES:;

//---------------dance-single - Wahyu D. L----------------
#NOTES:
     dance-single:
     Wahyu D. L:
     Beginner:
     3:
     0.192,0.357,0.129,0.059,0.000:
0000
0000
0000
0000
,
0000
0000
0000
0000
,
1000
0000
0000
0000
,
0000
0000
0000
0000
,
0001
0000
0000
0000
,
0000
0000
0000
0000
,
1000
0000
0000
0000
,
0000
0000
0000
0000
,
0020
0000
0000
0000
,
0000
0100
0000
0100
,
0130
0000
0000
0000
,
0000
0000
0000
0000
,
1000
0000
0000
0000
,
0000
0000
0000
0000
,
0001
0000
0000
0000
,
0000
0000
0000
0000
,
0200
0000
0000
0000
,
0000
0010
0010
0010
,
0320
0000
0000
0030
,
0110
0000
0000
0000
,
1000
0000
0000
0000
,
0000
0000
0000
0000
,
0000
0000
0000
0000
,
0001
0001
0001
0001
,
1000
0000
0000
0000
,
0000
0000
0000
0000
,
0000
0000
0000
0000
,
0100
0100
0100
0100
,
0010
0000
0000
0000
,
0000
0000
0000
0000
,
0000
0000
0000
0000
,
0001
0001
0001
0001
,
1000
0000
0000
0000
,
0000
0000
0000
0000
,
0000
0000
0000
0000
,
1000
0001
1000
0001
,
1000
0000
1000
0000
,
1000
0000
1000
0000
,
0001
0000
0001
0000
,
0001
0000
0001
0000
,
1000
0001
1000
0001
,
1000
0000
0000
0000
,
1000
0001
1000
0001
,
0010
0000
0000
0000
,
0100
0000
0100
0000
,
0010
0000
0010
0000
,
0100
0000
0100
0000
,
0010
0000
0010
0000
,
1000
1000
1000
1000
,
0001
0001
0001
0001
,
1000
1000
1000
1000
,
0001
0001
0001
0001
,
1000
0000
1000
0000
,
0001
0000
0001
0000
,
1000
0001
1000
0001
,
1000
0001
1000
0001
,
1001
0000
1001
0000
,
1001
0000
1001
0000
,
0110
0000
0110
0000
,
0110
0000
0110
0000
,
2002
0000
0000
3003
,
1001
0000
0000
0000
;

//---------------dance-single - Wahyu D. L----------------
#NOTES:
     dance-single:
     Wahyu D. L:
     Easy:
     4:
     0.316,0.357,0.164,0.105,0.000:
0000
0000
0000
0000
,
0000
0000
0000
0000
,
1000
0000
1000
0000
,
1000
0000
0001
1000
,
0001
0000
0001
0000
,
0001
0000
1000
0001
,
1000
0000
1000
0000
,
1000
0000
1000
0001
,
2000
0000
0000
0000
,
0000
0010
0010
0010
,
3100
0000
0100
0000
,
0100
0000
0010
0100
,
0010
0000
0010
0000
,
0010
0000
0010
1000
,
0010
0000
0010
0000
,
0010
0000
1000
0001
,
2000
0000
0000
0000
,
0000
0100
0100
0100
,
3020
0000
0000
0030
,
2002
0000
0000
3000
,
1003
1000
0000
1000
,
0000
1000
0000
1000
,
0000
1000
0000
1000
,
0001
1000
0001
1000
,
0001
0001
0000
0001
,
0000
0001
0000
0001
,
0000
0001
0000
0001
,
1000
0001
1000
0001
,
1000
0100
0000
0100
,
0000
0100
0000
0100
,
0000
0100
0000
0100
,
0010
0100
0010
0100
,
0010
1000
0000
1000
,
0000
1000
0000
1000
,
0000
1000
0000
1000
,
0010
1000
0010
1000
,
0010
0100
0001
0100
,
0001
1000
0100
1000
,
0010
0100
0001
1000
,
0100
1000
0010
0100
,
0001
0001
0001
0001
,
2000
0000
0000
3000
,
1000
0001
0001
0001
,
0200
0000
0000
0300
,
0010
1000
0010
1000
,
0100
0010
0001
0010
,
0100
1000
0010
1000
,
0100
0010
0001
0010
,
0100
1000
1000
1000
,
1000
1000
1000
1000
,
1000
1000
1000
1000
,
1000
1000
1000
1000
,
1001
0001
1001
0000
,
1000
0001
1001
0000
,
1000
0001
1000
0001
,
1000
0001
1000
0001
,
1100
0000
1100
0000
,
1100
0000
1100
0000
,
0101
0000
0101
0000
,
0101
0000
0101
0000
,
0022
0000
0000
0033
,
1001
0000
0000
0000
;

//---------------dance-single - Wahyu D. L----------------
#NOTES:
     dance-single:
     Wahyu D. L:
     Medium:
     7:
     0.550,0.785,0.492,0.105,0.433: // measure 1
0000
0000
0000
0000
,  // measure 2
0000
0000
0000
0000
,  // measure 3
0001
0000
0001
1000
0000
0000
1000
0000
1000
0001
0000
0000
,  // measure 4
0001
0000
0001
1000
0000
0000
1000
0000
1000
0000
0000
0000
,  // measure 5
0100
0000
0100
0010
0000
0000
0010
0000
0010
0100
0000
0000
,  // measure 6
0100
0000
0100
0010
0000
0000
0010
0000
0010
0000
0000
0000
,  // measure 7
0100
0000
0100
1000
0000
0000
1000
0000
1000
0100
0000
0000
,  // measure 8
0100
0000
0100
1000
0000
0000
1000
0000
1000
0100
0000
0000
,  // measure 9
2000
0000
0000
3000
,  // measure 10
1000
0000
1000
0001
0000
0001
1000
0000
1000
0001
0000
0001
,  // measure 11
0100
0000
0100
0010
0000
0000
0010
0000
0010
0100
0000
0000
,  // measure 12
0100
0000
0100
0010
0000
0000
0010
0000
0010
0000
0000
0000
,  // measure 13
1000
0000
1000
0001
0000
0000
0001
0000
0001
1000
0000
0000
,  // measure 14
1000
0000
1000
0001
0000
0000
0001
0000
0001
0000
0000
0000
,  // measure 15
1000
0000
1000
0010
0000
0000
0010
0000
0010
1000
0000
0000
,  // measure 16
1000
0000
1000
0010
0000
0000
0010
0000
0010
1000
0000
0000
,  // measure 17
0020
0000
0000
0000
,  // measure 18
1030
0000
1000
0001
0000
0001
0100
0000
0100
0010
0000
0010
,  // measure 19
2000
0000
0000
3000
,  // measure 20
2002
0000
0000
3003
,  // measure 21
1000
0001
0100
0001
,  // measure 22
0010
1000
0010
0001
,  // measure 23
1000
0100
1000
0001
,  // measure 24
0100
0001
0100
0001
0100
0001
0100
0001
0100
0001
0100
0001
,  // measure 25
0100
1000
0001
0100
,  // measure 26
0001
0010
0100
1000
,  // measure 27
0010
1000
0001
0100
,  // measure 28
1000
0010
1000
0010
1000
0010
1000
0010
1000
0010
1000
0010
,  // measure 29
1000
0001
0100
0010
,  // measure 30
1000
0001
0010
0100
,  // measure 31
0010
0001
0100
0010
,  // measure 32
1000
0001
1000
0001
1000
0001
1000
0001
1000
0001
1000
0001
,  // measure 33
1000
0001
1000
0001
,  // measure 34
0100
0010
1000
0001
,  // measure 35
0100
0010
1000
0001
,  // measure 36
1000
0010
1000
0010
0100
0001
0100
0001
0010
0001
0010
0001
,  // measure 37
1000
0000
0101
0000
,  // measure 38
0010
0000
1100
0000
,  // measure 39
0001
0000
1100
0000
,  // measure 40
0010
0000
1100
0000
,  // measure 41
0001
0001
0001
0001
,  // measure 42
2000
0000
0000
0000
,  // measure 43
3100
0100
0100
0100
,  // measure 44
0020
0000
0000
0000
,  // measure 45
1030
0100
0010
1000
,  // measure 46
0001
0100
1000
0001
,  // measure 47
0100
1000
1000
0001
,  // measure 48
1000
0010
0001
1000
,  // measure 49
0011
1100
0011
1100
,  // measure 50
0101
0011
1100
0101
,  // measure 51
0110
1010
1100
0101
,  // measure 52
0011
1001
1010
0110
,  // measure 53
1001
0100
1010
0101
,  // measure 54
1010
0001
0110
0001
,  // measure 55
0011
0110
1010
1001
,  // measure 56
0101
1010
1001
0101
,  // measure 57
1010
0001
1100
0001
,  // measure 58
0101
0010
1001
0100
,  // measure 59
1100
0000
0000
0001
0000
0000
0011
0000
0000
0100
1000
0100
,  // measure 60
1000
0001
1000
0001
0100
0001
0100
0001
0010
0001
0010
0001
,  // measure 61
0022
0000
0000
0033
,  // measure 62
1001
0000
0000
0000
;

//---------------dance-double - ----------------
#NOTES:
     dance-double:
     :
     Challenge:
     1:
     0.000,0.000,0.000,0.000,0.000:
00000000
00000000
00000000
00000000
;

//---------------dance-single - Wahyu D. L----------------
#NOTES:
     dance-single:
     Wahyu D. L:
     Hard:
     10:
     0.870,0.928,0.129,0.047,1.000:
0000
0000
0000
0000
,
0001
1000
0001
1000
0001
1000
0001
1000
0001
1000
0001
1000
,
0001
0000
0001
1000
0000
1000
0100
0000
0100
1000
0000
1000
,
0010
0000
0010
1000
0000
1000
0001
0010
0100
0010
0001
0010
,
1000
0000
1000
0001
0000
0001
0100
0000
0100
0010
0000
0010
,
1000
0000
1000
0001
0000
0001
0010
0100
0010
0001
1000
0001
,
0100
0000
0100
0010
0000
1000
0001
0000
0001
1000
0000
0100
,
1000
0000
1000
0010
0000
0010
1000
0000
1000
0001
0000
0001
,
0100
0010
0100
1000
0100
0001
0010
0001
0010
1000
0100
1000
,
0010
0001
1000
0010
0100
0010
1000
0010
1000
0001
0010
0001
,
0100
0000
0100
0010
0000
0010
1000
0000
1000
0001
0000
0001
,
0100
0000
0010
1000
0000
1000
0001
0010
0001
1000
0010
0100
,
1000
0000
1000
0010
0000
1000
0001
0000
0001
0100
0000
0010
,
1000
0000
0001
1000
0000
1000
0001
1000
0001
0100
0010
1000
,
0001
0000
0001
1000
0000
1000
0100
0000
0100
1000
0000
0010
,
1000
0000
0001
0010
0000
0001
0100
0000
0010
1000
0000
0001
,
0010
1000
0001
0010
0001
1000
0010
0100
0010
1000
0001
1000
,
0001
0100
0010
1000
0001
1000
0001
0100
0001
0010
0001
0100
,
0010
1000
0001
0010
0001
0100
0010
1000
0100
1000
0010
1000
,
0002
0000
0000
0000
,
1003
0000
1000
0001
0000
0000
0001
0000
0001
0100
0000
0000
,
0100
0000
0100
0010
0000
0000
0010
0000
0010
1000
0000
0000
,
1000
0000
1000
0001
0000
0000
0001
0000
0001
0100
0000
0000
,
0100
0010
0100
0010
0100
0010
0100
0010
0100
0010
0100
0010
,
0100
0000
0010
1000
0000
0000
1000
0000
1000
0001
0000
0000
,
0001
0000
0001
0100
0000
0000
0100
0000
0100
0010
0000
0000
,
0010
0000
0010
1000
0000
0000
1000
0000
1000
0001
0000
0000
,
0001
0100
0010
1000
0001
0010
0001
0100
0010
1000
0001
0010
,
0001
0000
0000
0100
0000
0100
0001
0000
0000
0001
0000
0001
,
0010
0000
0000
0010
0000
0010
0001
0000
0000
0001
0000
0001
,
0100
0000
0000
0100
0000
0100
0010
0000
0000
0010
0000
0010
,
1000
0001
0010
0001
0100
0010
1000
0001
1000
0100
0010
1000
,
0001
0000
0001
0100
0000
0000
0100
0000
0100
0010
0000
0000
,
1000
0000
1000
0001
0000
0000
0100
0000
0100
0010
0000
0000
,
1000
0000
0001
1000
0000
0000
1000
0000
1000
0100
0000
0000
,
0010
0001
0100
0010
1000
0001
0010
0001
0100
0010
1000
0001
,
0010
1000
0100
1000
0010
1000
0001
0011
0100
0010
1000
0001
,
0010
0001
0100
0010
1000
0001
0010
0001
0010
1000
0001
0010
,
0100
0010
1000
0001
0010
0001
0100
0010
1000
0100
0010
0001
,
0010
1000
0001
1000
0001
0100
0010
1000
0001
0010
0001
0100
,
0010
0001
1000
0010
1000
0001
0010
0001
0100
0010
1000
0001
,
2000
0000
0000
3100
0000
0000
1000
0000
1000
1000
1000
1000
,
0010
1000
0001
1000
0001
0010
0001
0100
0010
1000
0001
0010
,
0200
0000
0000
0301
0000
0000
0100
0000
0100
0100
0100
0100
,
0001
1000
0001
1000
0000
0000
0010
1000
0001
1000
0000
0001
,
0100
0000
0010
1000
0000
1000
0001
0000
0001
0100
0000
0010
,
1000
0000
1000
0001
0000
0000
0001
0000
0001
0100
0000
0010
,
1000
0000
1000
0001
0000
0010
0001
0000
0100
0001
0000
1000
,
0001
0000
1000
0100
0000
1000
0010
0000
1000
0001
0000
0010
,
0001
0000
0100
0010
0000
1000
0010
0000
1000
0001
0000
0001
,
0100
0000
0010
1000
0000
0001
0100
0000
0010
0100
0000
0010
,
1000
0000
1000
0001
0000
0001
0100
0000
0010
1000
0000
0001
,
1000
0000
0000
0101
0000
0001
1000
0000
0001
1000
0000
0010
,
1000
0000
0000
1001
0000
0001
0100
0000
0010
1000
0000
0001
,
1000
0000
0001
0100
0000
0010
1000
0000
0001
0010
0000
0001
,
0100
0000
0010
1000
0000
0001
1000
0000
0001
0100
0000
0010
,
1000
0000
0000
1010
0000
0000
0001
1000
0000
1001
0000
0001
,
0100
0000
0000
0110
0000
1000
0010
0000
0000
1010
0000
1000
,
0001
0000
0000
1001
0000
0100
0001
0000
0000
0101
0000
0001
,
1000
0000
0000
1010
0000
0000
0001
1000
0001
0010
0100
1000
,
0020
0000
0000
0000
0000
0000
0000
0000
0000
0000
0030
0000
,
1001
0000
0000
0000
;

//---------------dance-single - Wahyu D. L----------------
#NOTES:
     dance-single:
     Wahyu D. L:
     Challenge:
     12:
     1.000,1.000,0.117,0.059,1.000:
0000
0000
0000
0000
,
0001
1000
0001
1000
0001
1000
0001
1000
0001
1000
0001
1000
,
0001
0010
0100
0001
0010
0100
0001
0010
0100
0001
0010
0100
,
0001
0010
0100
0001
0010
0100
0001
0010
0100
1000
0100
0010
,
0001
0010
0100
0001
0010
0100
0001
0010
0100
0001
0010
0100
,
0001
0010
0100
0001
0010
0100
0001
0010
0100
1000
0100
0010
,
0001
0010
0100
0001
0010
0100
0001
0010
0100
0001
0010
0100
,
0001
0010
0100
0001
0010
0100
0001
0010
0100
1000
0100
0010
,
0001
0010
0001
0100
0010
0100
0010
1000
0010
1000
0010
0100
,
0010
1000
0010
1000
0001
0100
0010
0100
0001
0100
0010
0100
,
1000
0100
0010
1000
0100
0010
1000
0100
0010
1000
0100
0010
,
1000
0100
0010
1000
0100
0010
1000
0100
0010
0001
0010
0100
,
1000
0100
0010
1000
0100
0010
1000
0100
0010
1000
0100
0010
,
1000
0100
0010
1000
0100
0010
1000
0100
0010
0001
0010
0100
,
1000
0100
0010
1000
0100
0010
1000
0100
0010
1000
0100
0010
,
1000
0100
0010
1000
0100
0010
1000
0100
0010
0001
0010
0100
,
1000
0100
1000
0010
1000
0001
1000
0001
0010
0001
0100
0010
,
1000
0001
0010
0001
0100
0010
1000
0001
0010
0001
0100
0010
,
1000
0001
0010
0100
1000
0100
0010
0001
0010
0100
1000
0010
,
2020
0000
0000
0000
0000
0000
0000
0000
0000
0000
3030
0000
,
1000
0000
1000
0001
0000
0001
0100
0000
0100
0010
0000
0010
,
1000
0000
1000
0001
0000
0001
0100
0000
0100
0010
0000
0010
,
1000
0000
1000
0001
0000
0001
0100
0000
0010
1000
0000
1000
,
0001
0010
0001
0100
0010
1000
0001
0010
0001
0100
0010
1000
,
0001
0000
1000
0100
0000
1000
0010
0000
1000
0001
0000
0010
,
0001
0000
0100
0010
0000
1000
0001
0000
0100
0010
0000
1000
,
0001
0000
0010
0001
0000
0100
0010
0000
1000
0001
0000
0001
,
0010
0100
1000
0010
0100
0010
0001
0010
0100
0010
1000
0100
,
1000
0000
0001
0010
0000
0001
0100
0000
1000
0010
0000
1000
,
0001
0000
0001
0100
0000
0100
0010
0000
0010
1000
0000
1000
,
0001
0000
0001
0100
0000
1000
0010
0000
1000
0001
0000
1000
,
0001
0010
0100
1000
0010
1000
0001
0010
0001
0100
0010
1000
,
0001
0000
1000
0001
0000
0001
1000
0000
0100
1000
0000
1000
,
0010
0000
1000
0001
0000
0001
0010
0000
0001
0100
0000
0100
,
0010
0000
0010
1000
0000
1000
0001
0000
0001
1000
0000
1000
,
0100
1000
0010
0001
0010
0001
0100
0010
1000
0001
0100
0010
,
1000
0001
0010
0001
0100
0010
1000
0001
0100
0010
1000
0001
,
0010
0001
0100
0010
1000
0001
0100
0010
1000
0001
0010
0100
,
1000
0010
1000
0100
0010
0001
0010
0100
1000
0001
0010
0100
,
0010
1000
0001
0010
0001
0100
0010
1000
0100
0010
0100
1000
,
0010
1000
0001
0010
0001
0100
0010
1000
0001
0100
0010
1000
,
0002
0000
0000
1000
0000
0000
1003
0000
0001
0001
0001
0001
,
0001
1000
0010
1000
0001
0010
0001
0100
0010
1000
0001
1000
,
0200
0000
0000
1000
0000
0000
1300
0000
1000
1000
1000
1000
,
1000
0001
0100
0010
1000
0001
0010
0001
0100
0010
1000
0001
,
0010
0100
0001
0010
0100
0001
0010
0100
1000
0010
0100
1000
,
0010
0001
0100
0010
1000
0001
0100
0010
1000
0001
0010
0100
,
0001
0010
0100
1000
0010
0100
0001
0010
0100
1000
0010
1000
,
0001
0010
0100
0010
1000
0010
1000
0001
0100
0010
1000
0001
,
0010
0001
0100
0001
0010
1000
0010
1000
0001
0010
0001
0100
,
0010
1000
0001
0010
0001
0100
0010
1000
0001
0010
0001
0100
,
0010
1000
0001
0100
0010
1000
0001
1000
0010
1000
0001
1000
,
0100
1000
0010
1000
0001
1000
0001
0100
0010
1000
0001
0100
,
0010
1000
0010
1000
0001
0100
0001
0010
0001
0100
0010
1000
,
0001
0010
0100
0010
1000
0001
0100
0010
1000
0001
0010
0100
,
0001
0010
0001
0100
0010
1000
0001
1000
0100
0010
1000
0001
,
1100
0010
1000
0001
0100
0010
0101
0010
0001
0100
0010
1000
,
0011
0100
0010
1000
0001
0010
0101
1000
0100
0010
0001
0010
,
0101
1000
0010
1000
0001
0010
1100
0001
0010
1000
0001
0010
,
0101
1000
0100
0010
0001
0010
0101
1000
0010
1000
0001
0010
,
0200
0000
0000
0000
0000
0000
0000
0000
0000
0000
0300
0000
,
1001
0000
0000
0000
;
