#VERSION:0.83;
#TITLE:fantastic dreamer;
#SUBTITLE:;
#ARTIST:ハロー、ハッピーワールド!;
#TITLETRANSLIT:;
#SUBTITLETRANSLIT:;
#ARTISTTRANSLIT:Hello, Happy World!;
#GENRE:;
#ORIGIN:;
#CREDIT:;
#BANNER:fantastic dreamer.png;
#BACKGROUND:fantastic dreamer-bg.jpg;
#PREVIEWVID:;
#JACKET:fantastic dreamer-jacket.png;
#CDIMAGE:;
#DISCIMAGE:;
#LYRICSPATH:;
#CDTITLE:cdtitle.png;
#MUSIC:fantastic dreamer.mp3;
#OFFSET:-1.347000;
#SAMPLESTART:55.876961;
#SAMPLELENGTH:15.000000;
#SELECTABLE:YES;
#BPMS:0.000=185.000;
#STOPS:;
#DELAYS:;
#WARPS:;
#TIMESIGNATURES:0.000=4=4;
#TICKCOUNTS:0.000=4;
#COMBOS:0.000=1;
#SPEEDS:0.000=1.000=0.000=0;
#SCROLLS:0.000=1.000;
#FAKES:;
#LABELS:0.000=Song Start;
#BGCHANGES:;
#KEYSOUNDS:;
#ATTACKS:
;

//---------------dance-single - ----------------
#NOTEDATA:;
#CHARTNAME:;
#STEPSTYPE:dance-single;
#DESCRIPTION:;
#CHARTSTYLE:;
#DIFFICULTY:Hard;
#METER:8;
#RADARVALUES:0.523695,0.636393,0.210337,0.320513,0.020032,366.000000,345.000000,21.000000,32.000000,0.000000,0.000000,0.000000,0.000000,0.000000,0.523695,0.636393,0.210337,0.320513,0.020032,366.000000,345.000000,21.000000,32.000000,0.000000,0.000000,0.000000,0.000000,0.000000;
#CREDIT:RYUKINON;
#NOTES:
0000
0000
0000
0000
,
0000
0000
0000
0000
0000
0000
1000
0200
,
0000
0000
0000
0300
0000
0000
0001
0200
,
0000
0000
0000
0300
0000
0000
0010
0100
,
0000
0000
0001
1000
0000
1000
0100
0020
,
0000
0000
0001
0032
0000
0003
1000
0100
,
0010
0100
0010
0001
1000
0001
1000
0010
,
0100
0001
1000
0100
0000
0010
0001
0020
,
0000
0000
0000
0100
0200
0000
0000
0000
,
0000
0000
0000
0000
0000
0330
0000
0000
,
1001
0000
0100
0000
0010
1000
0100
1000
,
0000
0001
0200
0000
0320
0000
2030
0000
,
3001
0000
0100
0000
0010
1000
0100
0010
,
0001
0000
0100
0000
0010
0100
1000
0100
,
0010
0000
0100
0000
1000
0001
0100
0000
,
0010
0000
1000
0000
0001
0100
0001
0010
,
0000
0100
1000
0000
1001
0000
0001
0000
,
0101
0000
0010
0000
0100
0001
1000
0100
,
0000
0010
0001
0000
0011
0000
0001
0000
,
1001
0000
0001
1000
0000
1000
0100
0010
,
0000
0000
0000
0000
0000
0000
0000
0110
,
0000
1001
0000
0000
0000
0000
0000
0000
,
0001
0100
0001
0000
1000
0100
1000
0000
,
0020
0032
0203
0320
,
1030
0000
0100
0000
0010
0001
0100
0000
,
0010
0000
1000
0000
0001
0100
1000
0000
,
0100
0000
0001
1000
0000
0100
0000
0010
,
0000
0001
0001
0200
0000
0000
0310
0000
,
1000
0000
0100
0000
0001
0100
1000
0000
,
0010
0000
0100
0010
0100
0000
0001
0100
,
0000
0010
1000
0000
0100
0000
1000
0000
,
0001
0000
0100
0000
0001
1000
0100
0000
,
0010
0000
0001
1000
0000
0010
0001
0010
,
0000
1000
0100
1000
0010
0001
0100
0010
,
2000
0100
0010
3100
,
0002
0100
0010
0103
,
1000
0000
0000
0000
0100
0000
0000
1000
0100
0000
0000
0000
0001
0000
0000
0000
,
0100
0000
0000
0001
0100
0000
0000
0000
0010
0000
0000
0000
1000
0000
0000
0010
,
1000
0000
0000
0000
0001
0000
0000
0000
0100
0000
0000
0001
0100
0000
0000
0000
,
0020
0000
0000
0100
0130
0000
0110
0000
,
2000
0000
0000
0001
3001
0000
1001
0000
,
0100
0010
0100
0010
0001
1000
0001
0100
,
0000
0010
1000
0010
0100
0010
1000
0100
,
1000
0000
1100
0000
0001
0100
0010
0000
,
0100
0000
0110
0000
0010
1000
0100
0010
,
0001
0000
1000
0100
1000
0000
0010
0001
,
0200
0320
2030
3002
,
0103
0000
1000
0100
0100
0000
0110
0000
,
0002
0000
0103
0010
0010
0000
1010
0000
,
1000
0100
1000
0010
0000
0100
0000
0001
,
0010
0100
1000
0100
0010
0001
1000
0100
,
1000
0000
1001
0000
0100
0010
0001
0000
,
0100
0000
0110
0000
1000
0001
0100
0010
,
0100
0000
0001
1000
0000
0100
0010
0001
,
0020
0230
2300
3002
,
0103
0000
1001
0000
0011
0000
0001
1000
,
0000
1000
0100
0010
0100
0010
0010
0000
,
1001
0000
1000
0100
0010
0000
0100
0010
,
0000
0001
1000
0001
0100
0010
0010
0000
,
1000
0100
0010
0001
1000
0100
0010
0001
,
1000
0001
0100
0001
0000
0101
0000
2010
,
0000
0000
0000
0001
0002
0000
0000
0000
,
0000
0000
0000
3003
,
0010
0010
0100
0010
0010
1000
0010
0010
,
0100
0010
0010
1000
0100
0010
0001
1000
,
0001
0001
0100
0001
0001
0010
0001
0001
,
1000
0100
0010
0100
1000
0001
0100
0010
,
1000
1000
0100
1000
1000
0010
1000
1000
,
0100
0010
0002
0000
0000
0000
0003
0000
,
0220
0000
0000
0000
,
0000
0000
0000
0000
,
0000
0000
0000
0000
,
0000
0000
0000
0000
,
0000
0000
0000
0000
,
0000
0000
0000
0330
;

//---------------dance-single - ----------------
#NOTEDATA:;
#CHARTNAME:;
#STEPSTYPE:dance-single;
#DESCRIPTION:;
#CHARTSTYLE:;
#DIFFICULTY:Medium;
#METER:5;
#RADARVALUES:0.359146,0.449219,0.070112,0.380609,0.000000,251.000000,244.000000,7.000000,38.000000,0.000000,0.000000,0.000000,0.000000,0.000000,0.359146,0.449219,0.070112,0.380609,0.000000,251.000000,244.000000,7.000000,38.000000,0.000000,0.000000,0.000000,0.000000,0.000000;
#CREDIT:RYUKINON;
#NOTES:
0000
0000
0000
0000
,
0000
0000
0000
0000
,
0000
0000
3300
0000
,
0000
0000
0033
0000
,
0000
0000
0000
0000
,
0000
0000
0000
0000
,
2000
0100
0100
3100
,
0002
0010
0010
0013
,
0200
0000
0000
0010
0020
0000
0000
0000
,
0000
0000
0000
0330
,
1000
0100
0010
0001
,
0100
0010
1000
0100
,
1000
0001
0100
0010
,
1000
0100
1000
0010
,
0100
0001
0010
0001
,
0100
0000
0010
0000
1000
0000
0100
0010
,
0000
0001
1000
0000
0001
0000
0100
0000
,
0001
0000
0010
0000
0100
1000
0000
0100
,
0000
0010
0001
0000
0100
0000
0010
0000
,
1000
0000
0001
0000
1000
0001
0000
1001
,
0000
0000
0000
0000
,
0000
0000
0000
0000
,
0001
0100
0001
0010
,
0100
1000
0001
1000
,
0010
0010
0100
0100
,
0001
0001
1000
1000
,
0001
0100
0001
0010
,
0001
1000
0100
1000
,
0002
0103
2000
3100
,
0002
0013
2000
3010
,
0100
0010
1000
0001
,
1000
0100
0010
0001
,
0200
0010
0001
0310
,
2000
0001
0010
3100
,
0010
0001
0100
0010
,
1000
0001
0100
0010
,
2000
0100
3100
0002
,
0010
0013
0200
0010
,
0310
2000
0001
3001
,
0020
0000
0000
0100
0130
0000
0000
0000
,
0002
0000
0000
1000
1003
0000
0000
0000
,
2000
0000
0000
0010
3020
0000
0000
0000
,
0030
0100
0010
1000
0001
1000
0100
0020
,
0000
0000
0000
0030
0000
0000
0001
0200
,
0000
0000
0000
0000
0300
0000
0010
1000
,
0010
0000
0001
0100
0001
0000
0010
1000
,
0200
0320
0032
2003
,
3200
0000
0000
0010
0310
0000
0110
0000
,
0002
0000
0000
0100
0103
0000
0101
0000
,
0010
0000
1000
0010
0000
0100
0000
0001
,
0000
1000
0000
0100
0000
0010
0010
0002
,
0000
0000
0000
0000
0003
0000
1000
0200
,
0000
0000
0000
0000
0300
0000
0010
0001
,
0100
0000
0010
1000
0100
0000
0010
0001
,
0020
0230
2300
3002
,
0103
0000
0010
0000
0100
0000
0001
1000
,
0000
1000
0001
0000
1001
0000
0000
0000
,
0010
0000
0100
0000
0010
0000
1000
0100
,
0000
0100
1000
0000
1100
0000
0001
0100
,
0002
0100
0010
1003
,
0110
0000
0001
1000
0000
0001
0000
0200
,
0000
0000
0000
0010
0020
0000
0000
0000
,
0000
0000
0000
0330
,
1000
1000
0000
0001
0001
0000
0100
0100
,
0000
0010
0010
0000
0001
1000
0100
0000
,
0010
0010
0000
0001
0001
0000
1000
1000
,
0000
0100
0100
0000
0010
0001
0100
0000
,
0010
1000
0000
1000
0100
0000
0010
0001
,
0000
0001
0200
0000
0000
0000
0300
0000
,
2002
0000
0000
0000
,
0000
0000
0000
0000
,
0000
0000
0000
0000
,
0000
0000
0000
0000
,
0000
0000
0000
0000
,
0000
0000
0000
3003
;

//---------------dance-single - ----------------
#NOTEDATA:;
#CHARTNAME:;
#STEPSTYPE:dance-single;
#DESCRIPTION:;
#CHARTSTYLE:;
#DIFFICULTY:Easy;
#METER:4;
#RADARVALUES:0.304773,0.374349,0.120192,0.200321,0.000000,213.000000,201.000000,12.000000,20.000000,0.000000,0.000000,0.000000,0.000000,0.000000,0.304773,0.374349,0.120192,0.200321,0.000000,213.000000,201.000000,12.000000,20.000000,0.000000,0.000000,0.000000,0.000000,0.000000;
#CREDIT:RYUKINON;
#NOTES:
// measure 0
0000
0000
0000
0000
,  // measure 1
0000
0000
0000
0000
,  // measure 2
0000
0000
0000
0000
,  // measure 3
0000
0000
0000
0000
,  // measure 4
0000
0000
0000
0000
,  // measure 5
0000
0000
0000
0000
,  // measure 6
0000
0000
0000
0000
,  // measure 7
0000
0000
0000
0000
,  // measure 8
0000
0000
0000
0000
,  // measure 9
0000
0000
0000
0000
,  // measure 10
1000
0001
1000
0001
,  // measure 11
0010
0100
0010
0100
,  // measure 12
1000
0100
0010
0001
,  // measure 13
0010
0100
1030
0001
,  // measure 14
1000
0010
0100
0001
,  // measure 15
1000
0100
0010
0001
,  // measure 16
2000
0100
3100
0000
,  // measure 17
0002
0010
0013
0000
,  // measure 18
0020
0100
0130
0000
,  // measure 19
0200
0010
0310
0000
,  // measure 20
1001
0000
0000
0000
,  // measure 21
0110
0000
0000
0000
,  // measure 22
1000
0100
0010
0001
,  // measure 23
1000
0010
0100
0001
,  // measure 24
1000
0100
0001
0100
,  // measure 25
1000
0010
0001
0010
,  // measure 26
1000
0100
1000
0001
,  // measure 27
0100
0010
0100
0001
,  // measure 28
1000
0100
1000
0100
,  // measure 29
0010
0001
0100
0010
,  // measure 30
1000
0001
0100
0001
,  // measure 31
1000
0100
0010
0001
,  // measure 32
1000
0001
0100
0010
,  // measure 33
1000
0100
1000
0001
,  // measure 34
0100
0010
1000
0100
,  // measure 35
1000
0001
0100
0010
,  // measure 36
2000
0100
3100
0002
,  // measure 37
0010
0013
2000
0100
,  // measure 38
3010
0002
0010
0103
,  // measure 39
2000
0000
3001
0000
,  // measure 40
0002
0000
1003
0000
,  // measure 41
0020
0000
0130
0000
,  // measure 42
0010
0100
0001
1000
,  // measure 43
1001
0001
0100
0010
,  // measure 44
1000
0100
1000
0001
,  // measure 45
0100
0010
1000
0100
,  // measure 46
1000
0100
0010
0001
,  // measure 47
2000
3000
1100
0000
,  // measure 48
0002
0003
0011
0000
,  // measure 49
0001
0100
0010
1000
,  // measure 50
0100
0010
0001
1000
,  // measure 51
1001
0001
0100
0010
,  // measure 52
1000
0100
1000
0001
,  // measure 53
0100
0010
1000
0100
,  // measure 54
1000
0001
0010
0001
,  // measure 55
0100
0010
1001
0000
,  // measure 56
1000
0001
0110
0000
,  // measure 57
0001
0010
1100
0000
,  // measure 58
1000
0100
0011
0000
,  // measure 59
2000
0000
3001
0000
,  // measure 60
0002
0000
1003
0000
,  // measure 61
0020
0000
0200
0000
,  // measure 62
0000
0000
0000
0330
,  // measure 63
1001
0010
0100
0010
,  // measure 64
0001
0100
0010
1000
,  // measure 65
0100
1000
0010
0100
,  // measure 66
0001
0010
0001
0100
,  // measure 67
0010
1000
0100
1000
,  // measure 68
0001
2000
0000
3000
,  // measure 69
0202
0000
0000
0000
,  // measure 70
0000
0000
0000
0000
,  // measure 71
0000
0000
0000
0000
,  // measure 72
0000
0000
0000
0000
,  // measure 73
0000
0000
0000
0000
,  // measure 74
0000
0000
0000
0303
;
