#VERSION:0.83;
#TITLE:Your voice so... feat. Such (android52 Remix);
#SUBTITLE:;
#ARTIST:PSYQUI;
#TITLETRANSLIT:;
#SUBTITLETRANSLIT:;
#ARTISTTRANSLIT:;
#GENRE:;
#ORIGIN:;
#CREDIT:;
#BANNER:;
#BACKGROUND:your voice so rmx-bg.jpg;
#PREVIEWVID:;
#JACKET:your voice so rmx-jacket.jpg;
#CDIMAGE:;
#DISCIMAGE:;
#LYRICSPATH:;
#CDTITLE:cdtitle.png;
#MUSIC:Your voice so feat. Such (android52 Remix).mp3;
#OFFSET:-0.027000;
#SAMPLESTART:30.016993;
#SAMPLELENGTH:14.979997;
#SELECTABLE:YES;
#BPMS:0.000=128.040;
#STOPS:;
#DELAYS:;
#WARPS:;
#TIMESIGNATURES:0.000=4=4;
#TICKCOUNTS:0.000=4;
#COMBOS:0.000=1;
#SPEEDS:0.000=1.000=0.000=0;
#SCROLLS:0.000=1.000;
#FAKES:;
#LABELS:0.000=Song Start;
#BGCHANGES:;
#KEYSOUNDS:;
#ATTACKS:
;

//---------------dance-single - ----------------
#NOTEDATA:;
#CHARTNAME:;
#STEPSTYPE:dance-single;
#DESCRIPTION:;
#CHARTSTYLE:;
#DIFFICULTY:Easy;
#METER:1;
#RADARVALUES:0.082095,0.131924,0.011051,0.066307,0.000000,52.000000,51.000000,1.000000,6.000000,0.000000,0.000000,0.000000,0.000000,0.000000,0.082095,0.131924,0.011051,0.066307,0.000000,52.000000,51.000000,1.000000,6.000000,0.000000,0.000000,0.000000,0.000000,0.000000;
#CREDIT:RYUKINON;
#OFFSET:-0.087000;
#BPMS:0.000000=128.039993
;
#STOPS:;
#DELAYS:;
#WARPS:;
#TIMESIGNATURES:0.000000=4=4
;
#TICKCOUNTS:0.000000=4
;
#COMBOS:0.000000=1
;
#SPEEDS:0.000000=1.000000=0.000000=0
;
#SCROLLS:0.000000=1.000000
;
#FAKES:;
#LABELS:0.000000=Song Start
;
#NOTES:
// measure 0
0000
0000
0000
0000
,  // measure 1
0000
0000
0000
0000
,  // measure 2
0000
0000
0000
0000
,  // measure 3
0000
0000
0000
0000
,  // measure 4
1000
0000
0000
0000
,  // measure 5
1000
0000
0000
0000
,  // measure 6
0001
0000
0000
0000
,  // measure 7
0001
0000
0000
0000
,  // measure 8
1000
0000
0000
0000
,  // measure 9
0001
0000
0000
0000
,  // measure 10
0100
0000
0000
0000
,  // measure 11
0010
0000
0000
0000
,  // measure 12
2000
0000
0000
0000
,  // measure 13
0000
0000
0000
0000
,  // measure 14
0000
0000
0000
3000
,  // measure 15
1001
0000
0000
0000
,  // measure 16
0100
0000
0100
0000
,  // measure 17
0010
0000
0000
0000
,  // measure 18
0010
0000
0010
0000
,  // measure 19
0100
0000
0000
0000
,  // measure 20
1000
0000
1000
0000
,  // measure 21
0001
0000
0000
0000
,  // measure 22
0001
0000
0001
0000
,  // measure 23
1000
0000
0000
0000
,  // measure 24
0001
0000
1000
0000
,  // measure 25
0001
0000
0000
0000
,  // measure 26
1000
0000
0001
0000
,  // measure 27
1000
0000
0000
0000
,  // measure 28
0010
0000
0100
0000
,  // measure 29
0010
0000
0000
0000
,  // measure 30
0100
0000
0010
0000
,  // measure 31
0100
0000
0000
0000
,  // measure 32
0010
0000
0000
0000
,  // measure 33
1000
0000
0000
0000
,  // measure 34
0001
0000
0000
0000
,  // measure 35
0100
0000
0000
0000
,  // measure 36
0020
0000
0000
0030
,  // measure 37
0200
0000
0000
0300
,  // measure 38
0002
0000
0000
0003
,  // measure 39
2000
0000
0000
3000
,  // measure 40
0001
0000
0001
0000
,  // measure 41
1000
0000
1000
0000
,  // measure 42
0010
0000
0010
0000
,  // measure 43
0100
0000
0100
0000
,  // measure 44
0002
0000
0000
0000
,  // measure 45
0000
0000
0000
0000
,  // measure 46
0000
0000
0000
0000
,  // measure 47
0000
0000
0000
0003
;

//---------------dance-single - ----------------
#NOTEDATA:;
#CHARTNAME:;
#STEPSTYPE:dance-single;
#DESCRIPTION:;
#CHARTSTYLE:;
#DIFFICULTY:Medium;
#METER:6;
#RADARVALUES:0.358374,0.476168,0.309433,0.232075,0.000000,227.000000,199.000000,28.000000,21.000000,0.000000,0.000000,0.000000,0.000000,0.000000,0.358374,0.476168,0.309433,0.232075,0.000000,227.000000,199.000000,28.000000,21.000000,0.000000,0.000000,0.000000,0.000000,0.000000;
#CREDIT:RYUKINON;
#NOTES:
// measure 0
0000
0000
0000
0000
,  // measure 1
0000
0000
0000
0000
,  // measure 2
0000
0000
0000
0000
,  // measure 3
0000
0001
0010
0100
,  // measure 4
2000
0000
3100
0010
,  // measure 5
0001
0001
1000
1000
,  // measure 6
0020
0000
0130
0010
,  // measure 7
1010
0101
0011
1100
,  // measure 8
1000
0001
1000
0001
0100
0001
0100
0001
,  // measure 9
0010
0001
0010
0001
0010
0100
1000
0100
,  // measure 10
0010
0001
0100
0001
0010
0001
0100
0001
,  // measure 11
0010
0100
1000
0100
1000
0001
1000
0001
,  // measure 12
0100
0100
0010
0010
1000
1000
0001
0001
,  // measure 13
0100
0100
0100
0100
0010
0010
0010
0010
,  // measure 14
1000
1000
0001
0001
1000
1000
0001
0001
,  // measure 15
1001
0000
1001
0000
1001
0000
0010
0100
,  // measure 16
0110
0000
1001
0000
1000
0100
1000
0000
,  // measure 17
0001
0100
0001
0010
0100
1000
0100
0000
,  // measure 18
0011
0000
1100
0000
0001
1000
0100
0000
,  // measure 19
0010
0001
0100
0010
1000
0100
1000
0000
,  // measure 20
0001
0101
1000
1100
,  // measure 21
0100
0110
0010
0011
,  // measure 22
0001
0101
0100
0110
,  // measure 23
0010
1000
0100
0010
0001
0100
0010
0010
,  // measure 24
0010
0000
1010
0000
0100
0010
1000
0000
,  // measure 25
0100
0010
0001
1000
0010
0100
0010
0000
,  // measure 26
1100
0000
0011
0000
0001
0010
0100
0000
,  // measure 27
1000
0010
0100
0001
0010
0100
1000
0000
,  // measure 28
0001
0101
1000
1100
,  // measure 29
0010
0011
1000
1010
,  // measure 30
0100
0010
0100
0001
1000
0100
0001
0100
,  // measure 31
2000
3200
0320
0032
,  // measure 32
1003
0000
0200
0300
,  // measure 33
0020
0030
0002
0003
,  // measure 34
2000
3200
0320
0000
,  // measure 35
0030
0001
0100
0001
,  // measure 36
0020
0000
0130
0000
,  // measure 37
1000
0100
1000
0010
,  // measure 38
0200
0000
0310
0000
,  // measure 39
0110
1001
0110
1001
,  // measure 40
0000
0000
0020
0030
,  // measure 41
0200
0300
0020
0030
,  // measure 42
2000
0000
3100
0000
,  // measure 43
0002
0000
0103
0000
,  // measure 44
0020
0000
0200
0000
,  // measure 45
0000
0000
0000
0000
,  // measure 46
0000
0000
0000
0000
,  // measure 47
0000
0000
0000
0000
0330
0000
1000
0001
;

//---------------dance-single - ----------------
#NOTEDATA:;
#CHARTNAME:;
#STEPSTYPE:dance-single;
#DESCRIPTION:;
#CHARTSTYLE:;
#DIFFICULTY:Hard;
#METER:8;
#RADARVALUES:0.448363,0.661345,0.232075,0.353638,0.110512,284.000000,263.000000,21.000000,32.000000,0.000000,0.000000,0.000000,0.000000,0.000000,0.448363,0.661345,0.232075,0.353638,0.110512,284.000000,263.000000,21.000000,32.000000,0.000000,0.000000,0.000000,0.000000,0.000000;
#CREDIT:RYUKINON;
#OFFSET:-0.027000;
#BPMS:0.000000=128.039993
;
#STOPS:;
#DELAYS:;
#WARPS:;
#TIMESIGNATURES:0.000000=4=4
;
#TICKCOUNTS:0.000000=4
;
#COMBOS:0.000000=1
;
#SPEEDS:0.000000=1.000000=0.000000=0
;
#SCROLLS:0.000000=0.500000
,32.000000=1.000000
,64.000000=2.000000
,128.000000=0.500000
,188.000000=1.000000
;
#FAKES:;
#LABELS:0.000000=Song Start
;
#NOTES:
// measure 0
0000
0000
2000
3000
,  // measure 1
0002
0003
0200
0300
,  // measure 2
0020
2030
3200
0000
,  // measure 3
0300
0010
0001
0100
,  // measure 4
0020
0000
0130
0001
,  // measure 5
0100
0010
1000
0100
,  // measure 6
0002
0000
0103
1000
,  // measure 7
1010
0001
0101
1001
,  // measure 8
0010
0100
0010
0100
0001
1000
0001
1000
,  // measure 9
0100
0000
0010
0000
0001
0000
0010
0000
0100
0000
1000
0000
0001
0100
0001
0100
,  // measure 10
0001
0010
0100
1000
0100
0010
0001
1000
,  // measure 11
0010
0100
0001
1000
0010
0000
0100
0001
1000
0000
0001
0000
1001
0000
0000
0000
,  // measure 12
0010
0010
0010
0010
0100
0100
0100
0100
,  // measure 13
0001
0001
1000
1000
0100
0100
0010
0010
,  // measure 14
0100
0010
0100
0010
0100
0010
0100
0010
1000
0001
1000
0001
1000
0001
1000
0001
,  // measure 15
1000
0000
0100
0000
0010
0000
0001
1000
,  // measure 16
1001
0000
0110
0000
0001
1000
0100
0000
,  // measure 17
0010
0000
0001
0000
0010
0000
0001
0000
0100
0000
0010
1000
0100
0000
0010
0000
,  // measure 18
0010
0000
0001
1000
0001
0100
0010
1000
,  // measure 19
0100
0000
0010
0001
0100
0000
0010
1000
0100
0000
0010
0001
1000
0000
0010
0000
,  // measure 20
0100
0000
0010
0100
0010
1000
0100
0010
,  // measure 21
0100
0000
1000
0000
0010
0000
0100
0001
0010
0000
0001
0000
1000
0000
0000
0000
,  // measure 22
0100
0010
0001
0010
0100
1000
0010
0100
,  // measure 23
0220
0330
0022
0033
0202
0303
2200
3300
,  // measure 24
1001
0000
0000
0000
0110
0000
0000
0000
0001
0000
0000
0100
0000
0000
0010
0000
,  // measure 25
1000
0100
0010
0100
0001
1000
0010
0000
,  // measure 26
0100
0010
0001
0100
0010
1000
0100
1000
,  // measure 27
0001
0100
0001
0001
1000
0100
1000
0000
,  // measure 28
0010
0001
0010
0001
0100
0010
0100
0010
,  // measure 29
1000
0000
0010
0000
1000
0000
0010
0000
0100
0000
0001
0010
0100
0000
0000
0000
,  // measure 30
1000
0100
0001
0100
1000
0100
0001
0100
,  // measure 31
1000
0000
0110
0000
0001
0000
0110
1000
,  // measure 32
0001
0000
0200
0300
,  // measure 33
0020
0030
2000
3000
,  // measure 34
0002
0023
0230
0000
,  // measure 35
0300
1000
0010
1000
,  // measure 36
0200
0000
0310
0001
,  // measure 37
1000
0100
0010
0001
,  // measure 38
0200
0000
0310
1000
,  // measure 39
1100
0101
0011
0110
,  // measure 40
1000
0000
0002
0003
,  // measure 41
0200
0300
0020
0030
,  // measure 42
2000
0000
3000
0002
0000
0003
0200
0000
,  // measure 43
0300
0000
0020
0000
,  // measure 44
0000
0000
0000
0100
0200
0000
0300
0100
,  // measure 45
0100
0100
0100
0100
,  // measure 46
0100
0100
0100
0100
0100
0100
0100
0130
,  // measure 47
0110
0000
1001
0000
0110
0000
0001
1000
;
