#TITLE:YOU MAKE ME;
#SUBTITLE:;
#ARTIST:MONDAY MICHIRU;
#TITLETRANSLIT:;
#SUBTITLETRANSLIT:;
#ARTISTTRANSLIT:;
#GENRE:;
#CREDIT:;
#BANNER:YOU MAKE ME.png;
#BACKGROUND:you make me-bg.jpg;
#LYRICSPATH:;
#CDTITLE:cdtitle.png;
#MUSIC:YOU MAKE ME.ogg;
#OFFSET:0.000000;
#SAMPLESTART:24.018999;
#SAMPLELENGTH:15.000000;
#SELECTABLE:YES;
#DISPLAYBPM:110.000000;
#BPMS:0.000000=109.880997
;
#STOPS:
;
#BGCHANGES:3.000=Monday Michiru - You Make Me (Beatmania IIDX BGA).mp4=1.000=1=0=1===CrossFade==,
99999=-nosongbg-=1.000=0=0=0 // don't automatically add -songbackground-
;
#KEYSOUNDS:;
#ATTACKS:;

//---------------dance-single - ----------------
#NOTES:
     dance-single:
     :
     Hard:
     5:
     0.313403,0.364842,0.085845,0.286150,0.028615,230.000000,221.000000,9.000000,30.000000,0.000000,0.000000,0.313403,0.364842,0.085845,0.286150,0.028615,230.000000,221.000000,9.000000,30.000000,0.000000,0.000000:
// measure 0
0000
0000
0000
0000
,  // measure 1
0000
0000
0000
0000
,  // measure 2
0000
0000
0000
0000
,  // measure 3
0000
0000
0000
0000
,  // measure 4
0000
0000
0000
0000
,  // measure 5
0000
0000
0000
0000
,  // measure 6
0000
0000
0000
0000
,  // measure 7
0000
0001
0000
1000
0000
0001
0000
1000
,  // measure 8
0000
0010
0000
0100
0000
0010
0000
0100
,  // measure 9
0000
0001
0000
1000
0000
0001
0000
1000
,  // measure 10
1000
0100
0010
0001
,  // measure 11
1001
0010
0100
0010
1000
0100
1000
0001
,  // measure 12
0200
0320
2030
3002
,  // measure 13
0103
0010
1000
0100
1000
0001
0010
0001
,  // measure 14
0200
0320
2030
3002
,  // measure 15
0103
0010
0100
0010
1000
0001
1000
0001
,  // measure 16
0020
0100
1000
0130
,  // measure 17
0002
1000
0100
1003
,  // measure 18
0100
0010
1000
0000
0100
0010
0001
0000
,  // measure 19
1001
0110
2002
3003
,  // measure 20
0110
0000
0001
1000
0100
1000
0001
0000
,  // measure 21
0100
0000
0010
1000
0010
0100
0001
0000
,  // measure 22
1000
0000
0100
0010
0001
1000
0010
0100
,  // measure 23
0002
0023
0230
2300
,  // measure 24
3001
0000
0100
0010
1000
0001
0100
0000
,  // measure 25
0001
0000
1000
0100
0010
0001
0010
0000
,  // measure 26
0100
0000
1000
0010
0100
0001
0010
0100
,  // measure 27
2000
0000
3002
0000
1003
1000
0001
0001
,  // measure 28
0100
0000
0010
0000
1000
0000
0001
0000
0100
0001
0000
0001
0100
0000
0000
0000
,  // measure 29
0010
1000
0100
0000
0010
0001
0100
0010
,  // measure 30
1000
0000
0100
0000
1000
0000
0100
0000
0010
0001
0000
0001
0010
0000
0100
0000
,  // measure 31
1000
0100
1000
0000
0001
0100
0001
0000
,  // measure 32
0010
0000
0100
0000
0001
0000
1000
0000
0100
0010
0000
0010
0100
0000
0000
0000
,  // measure 33
1000
0001
0100
0010
1000
0001
0100
0001
,  // measure 34
0010
0100
1000
0001
0100
0010
1000
0100
,  // measure 35
1000
0001
1000
0001
0100
0010
0100
0010
,  // measure 36
1000
0000
0100
0000
0010
0001
0010
0001
,  // measure 37
0200
0320
2030
3002
,  // measure 38
0103
0010
1000
0000
0001
0100
0010
1000
,  // measure 39
0200
0320
0032
2003
,  // measure 40
3001
1000
0100
0000
1000
0001
0100
0010
,  // measure 41
2000
0100
0001
3100
,  // measure 42
0020
1000
0100
1030
,  // measure 43
0001
1000
0100
0000
1000
0001
0100
0000
,  // measure 44
1001
0110
2002
3003
,  // measure 45
0110
0000
0000
0000
;

//---------------dance-single - ----------------
#NOTES:
     dance-single:
     :
     Medium:
     4:
     0.204393,0.257535,0.066768,0.209844,0.000000,150.000000,143.000000,7.000000,22.000000,0.000000,0.000000,0.204393,0.257535,0.066768,0.209844,0.000000,150.000000,143.000000,7.000000,22.000000,0.000000,0.000000:
// measure 0
0000
0000
0000
0000
,  // measure 1
0000
0000
0000
0000
,  // measure 2
0000
0000
0000
0000
,  // measure 3
0000
0000
0000
0000
,  // measure 4
0000
0000
0000
0000
,  // measure 5
0000
0000
0000
0000
,  // measure 6
0000
0000
0000
0000
,  // measure 7
0000
0000
0000
0000
,  // measure 8
0000
0000
0000
0000
,  // measure 9
0000
0000
0000
0000
,  // measure 10
1000
0100
0010
0001
,  // measure 11
1001
0000
0000
0000
,  // measure 12
0001
0100
0010
1000
,  // measure 13
0200
0310
0002
1003
,  // measure 14
0010
0100
0001
1000
,  // measure 15
0200
1300
0002
0013
,  // measure 16
0100
1000
0001
0100
,  // measure 17
0020
0130
2000
3001
,  // measure 18
0100
0010
1000
0100
,  // measure 19
1001
0110
2002
3003
,  // measure 20
0010
0100
0010
0100
,  // measure 21
0001
1000
0001
1000
,  // measure 22
0100
0010
0001
0010
,  // measure 23
0100
1000
0100
1000
,  // measure 24
0001
0100
0001
0010
,  // measure 25
0001
1000
0100
1000
,  // measure 26
0001
0100
0010
1000
,  // measure 27
0100
0010
0001
1000
,  // measure 28
0001
0001
0100
0000
1000
1000
0100
0000
,  // measure 29
0010
0001
0100
0010
,  // measure 30
1000
1000
0010
0000
0001
0001
0010
0000
,  // measure 31
0100
1000
0001
0100
,  // measure 32
0010
0010
1000
0000
0100
0100
0010
0000
,  // measure 33
0001
0100
0001
0010
,  // measure 34
0100
0100
1000
0000
0001
0001
0100
0000
,  // measure 35
0010
1000
0100
1000
,  // measure 36
0001
0001
0001
0001
,  // measure 37
2000
3200
0320
0032
,  // measure 38
1003
0001
0100
0001
,  // measure 39
0020
0230
2300
3002
,  // measure 40
0103
0010
1000
0001
,  // measure 41
2000
3100
0002
0103
,  // measure 42
1000
0100
0001
0100
,  // measure 43
2000
3010
0002
0013
,  // measure 44
1001
0110
2002
0000
,  // measure 45
3003
0000
0000
0000
;

//---------------dance-single - ----------------
#NOTES:
     dance-single:
     :
     Easy:
     1:
     0.077669,0.128768,0.019077,0.076307,0.000000,57.000000,55.000000,2.000000,8.000000,0.000000,0.000000,0.077669,0.128768,0.019077,0.076307,0.000000,57.000000,55.000000,2.000000,8.000000,0.000000,0.000000:
// measure 0
0000
0000
0000
0000
,  // measure 1
0000
0000
0000
0000
,  // measure 2
0000
0000
0000
0000
,  // measure 3
0000
0000
0000
0000
,  // measure 4
0000
0000
0000
0000
,  // measure 5
0000
0000
0000
0000
,  // measure 6
0000
0000
0000
0000
,  // measure 7
0000
0000
0000
0000
,  // measure 8
0000
0000
0000
0000
,  // measure 9
0000
0000
0000
0000
,  // measure 10
0000
0000
0000
0000
,  // measure 11
0000
0000
0000
0000
,  // measure 12
1000
0000
1000
0000
,  // measure 13
0001
0000
0000
0000
,  // measure 14
0010
0000
0010
0000
,  // measure 15
0100
0000
0000
0000
,  // measure 16
0001
0000
0100
0000
,  // measure 17
0010
0000
0000
0000
,  // measure 18
1000
0000
0100
0000
,  // measure 19
1000
0000
0000
0000
,  // measure 20
0001
0000
0001
0000
,  // measure 21
1000
0000
1000
0000
,  // measure 22
0010
0000
0010
0000
,  // measure 23
0100
0000
0100
0000
,  // measure 24
0001
0000
0100
0000
,  // measure 25
1000
0000
0100
0000
,  // measure 26
0001
0000
0010
0000
,  // measure 27
1000
0000
0010
0000
,  // measure 28
0200
0000
0300
0000
,  // measure 29
0020
0000
0030
0000
,  // measure 30
2000
0000
3000
0000
,  // measure 31
0002
0000
0003
0000
,  // measure 32
2000
0000
3001
0000
,  // measure 33
0002
0000
1003
0000
,  // measure 34
0020
0000
0130
0000
,  // measure 35
0200
0000
0310
0000
,  // measure 36
1001
0000
0000
0000
,  // measure 37
0001
0000
0100
0000
,  // measure 38
0001
0000
0000
0000
,  // measure 39
1000
0000
0100
0000
,  // measure 40
1000
0000
0000
0000
,  // measure 41
0010
0000
0100
0000
,  // measure 42
0010
0000
0000
0000
,  // measure 43
0001
0000
1000
0000
,  // measure 44
0001
0000
1000
0000
,  // measure 45
1001
0000
0000
0000
;

//---------------dance-single - ----------------
#NOTES:
     dance-single:
     :
     Challenge:
     7:
     0.423775,0.429226,0.123998,0.133537,0.123998,311.000000,298.000000,13.000000,14.000000,0.000000,0.000000,0.423775,0.429226,0.123998,0.133537,0.123998,311.000000,298.000000,13.000000,14.000000,0.000000,0.000000:
// measure 0
0000
0000
0000
0000
,  // measure 1
0000
0000
0000
1000
,  // measure 2
0002
0000
0000
0000
0000
0000
0103
0010
,  // measure 3
2000
0000
0000
0000
,  // measure 4
0000
0000
0000
0000
3000
0000
0000
0000
0001
0100
0001
0000
1000
0100
1000
0100
,  // measure 5
0000
0000
0000
0000
0000
0000
0000
0001
,  // measure 6
0000
0000
1000
0000
0000
0000
0001
0000
0000
0000
0100
0000
0010
1000
0000
0000
,  // measure 7
0002
0100
0000
0100
0000
0100
0003
0010
,  // measure 8
0200
1000
0000
1000
0000
1300
0000
0001
,  // measure 9
0200
0010
0000
0010
0000
0310
0000
0010
,  // measure 10
0110
1100
0101
0011
,  // measure 11
1001
0001
1000
0100
1000
0001
0100
0001
,  // measure 12
0010
0001
1000
0100
0010
0001
0010
0100
,  // measure 13
1000
0100
0001
0100
1000
0010
0001
0010
,  // measure 14
1000
0001
0100
0001
1000
0001
0100
0001
,  // measure 15
1000
0100
0010
0001
1000
0100
0010
0001
,  // measure 16
1000
0010
0100
0001
0010
0100
1000
0001
,  // measure 17
0100
0100
0010
0010
1000
1000
0001
0001
,  // measure 18
0100
0010
1000
0001
0010
0100
1000
0001
,  // measure 19
1001
0001
0101
0001
0012
0000
1003
0000
,  // measure 20
0001
0000
0100
0000
0001
0000
0010
0100
0000
1000
0000
0001
0000
0000
0000
0000
,  // measure 21
1000
0000
0100
0000
1000
0000
0010
0100
0000
0001
0000
0010
0000
0000
0000
0000
,  // measure 22
0001
0000
0100
0000
0001
0000
0010
0001
0000
1000
0000
0000
0100
0000
0010
0000
,  // measure 23
0002
0100
0103
0000
2000
0001
3001
0000
,  // measure 24
1000
0000
0001
0000
0100
0000
0001
1000
0000
0100
0000
1000
0000
0000
0000
0000
,  // measure 25
0010
0001
0100
0010
1000
0001
0100
0000
,  // measure 26
0010
0000
1000
0000
0010
0000
0100
0010
0000
1000
0000
0000
0100
0000
1000
0000
,  // measure 27
0002
0000
1003
0100
2000
0000
3010
0100
,  // measure 28
0001
0000
1000
0000
0100
0000
0010
0000
0001
1000
0000
1000
0100
0010
0001
0010
,  // measure 29
0001
0100
0010
0000
1000
0001
0100
0010
,  // measure 30
1000
0100
1000
0010
0100
0001
0100
0001
,  // measure 31
0010
0001
0100
0010
1000
0100
1000
0001
,  // measure 32
0100
0000
0010
0000
1000
0000
0100
0000
0010
0001
0000
0001
0100
0010
0100
0010
,  // measure 33
2000
0000
0000
0000
3100
0010
0002
0000
0000
0000
1003
0000
0100
0000
1000
0000
,  // measure 34
0001
0001
1000
1000
0010
0010
0100
0100
,  // measure 35
0001
0100
0001
0010
0001
1000
0001
0100
,  // measure 36
0020
0100
0100
0130
,  // measure 37
0110
0001
1000
0100
0010
0001
0100
0010
,  // measure 38
1000
0001
0100
0001
0010
0001
1000
0100
,  // measure 39
0010
0001
1000
0100
1000
0001
0100
0001
,  // measure 40
1000
0010
1000
0001
0010
0001
0100
0100
,  // measure 41
0010
1000
0100
1000
0100
0010
0001
0100
,  // measure 42
0010
1000
0001
0100
0001
0010
0001
1000
,  // measure 43
0001
0010
0100
1000
0001
0010
0100
1000
,  // measure 44
1100
1000
1010
1000
2001
0000
3100
0000
,  // measure 45
1001
0000
0000
0000
;
