#VERSION:0.83;
#TITLE:ぼくたちいつでもしゅわっしゅわ!;
#SUBTITLE:;
#ARTIST:ヒゲドライバー feat.らいむっくま(CV\:村川梨衣) & れもんっくま(CV\:MoeMi);
#TITLETRANSLIT:We are always shuwa-shuwa!;
#SUBTITLETRANSLIT:;
#ARTISTTRANSLIT:Hige Driver feat. Lime-kuma (CV\: Rie Murakawa) & Lemon-kuma (CV\:MoeMi);
#GENRE:;
#ORIGIN:;
#CREDIT:;
#BANNER:;
#BACKGROUND:shuwashuwa-bg.jpg;
#PREVIEWVID:;
#JACKET:shuwashuwa.jpg;
#CDIMAGE:;
#DISCIMAGE:;
#LYRICSPATH:;
#CDTITLE:cdtitle.png;
#MUSIC:We are always shuwa shuwa!.mp3;
#OFFSET:0.320000;
#SAMPLESTART:63.500061;
#SAMPLELENGTH:15.000003;
#SELECTABLE:YES;
#BPMS:0.000=132.010;
#STOPS:;
#DELAYS:;
#WARPS:;
#TIMESIGNATURES:0.000=4=4;
#TICKCOUNTS:0.000=4;
#COMBOS:0.000=1;
#SPEEDS:0.000=1.000=0.000=0;
#SCROLLS:0.000=1.000;
#FAKES:;
#LABELS:0.000=Song Start;
#BGCHANGES:1.000=shuwashuwa-mv.mp4=1.000=1=0=1===CrossFade==,
99999=-nosongbg-=1.000=0=0=0 // don't automatically add -songbackground-
;
#KEYSOUNDS:;
#ATTACKS:
;

//---------------dance-single - ----------------
#NOTEDATA:;
#CHARTNAME:;
#STEPSTYPE:dance-single;
#DESCRIPTION:;
#CHARTSTYLE:;
#DIFFICULTY:Hard;
#METER:7;
#RADARVALUES:0.487329,0.485589,0.287176,0.121832,0.121832,392.000000,359.000000,33.000000,14.000000,0.000000,0.000000,0.000000,0.000000,0.000000,0.487329,0.485589,0.287176,0.121832,0.121832,392.000000,359.000000,33.000000,14.000000,0.000000,0.000000,0.000000,0.000000,0.000000;
#CREDIT:RYUKINON;
#NOTES:
// measure 0
0000
0000
0000
0000
,  // measure 1
0000
0000
0000
0000
,  // measure 2
0000
0000
0000
0000
,  // measure 3
0002
0000
0000
0003
,  // measure 4
0100
0010
1000
0001
,  // measure 5
1000
0100
1000
1000
0001
0100
0001
0001
,  // measure 6
1000
0100
1000
1000
0001
0100
0001
0001
,  // measure 7
1000
0100
0010
0001
,  // measure 8
1000
0000
0001
0000
1000
0001
1001
0000
,  // measure 9
0010
0100
0001
0010
0001
0100
0010
1000
,  // measure 10
0001
0100
0010
1000
0100
0010
0001
1000
,  // measure 11
0001
0100
0001
0010
0001
0100
0001
0010
,  // measure 12
0001
0000
0100
0000
0010
0000
1000
0000
0100
0000
0000
0010
0000
0000
0001
0000
,  // measure 13
0000
0011
0000
0110
0000
1100
0000
0101
,  // measure 14
0000
1010
0000
1100
0000
0101
0000
1001
,  // measure 15
0000
0110
0000
0011
0000
1100
0000
1001
,  // measure 16
0000
0000
0011
0000
0000
0000
0110
0000
1000
0001
0000
1000
0001
0000
0000
0000
,  // measure 17
0000
0000
0000
0000
0000
0000
0000
0100
,  // measure 18
0110
0010
1000
0100
1000
0010
0100
0001
,  // measure 19
1000
0000
0100
0000
1000
0000
0010
0000
0100
0000
0000
0001
0000
0000
1000
0000
,  // measure 20
0001
0100
0010
1000
0100
0010
0001
0100
,  // measure 21
0010
0100
0010
1000
0100
1000
0001
1000
,  // measure 22
0100
0000
0010
0000
0100
0000
1000
0000
0001
0000
0000
0100
0000
0000
0010
0000
,  // measure 23
1000
0000
0100
0000
0010
0000
0001
0000
1000
0000
0000
0100
0000
0000
1000
0000
,  // measure 24
0001
0100
0001
0000
1000
0100
1000
0000
,  // measure 25
0001
0100
1000
0100
0001
0100
1000
0100
,  // measure 26
0001
0000
0000
0001
0000
0000
0200
0000
0000
0000
0000
0000
0300
0000
0000
0000
,  // measure 27
0010
1000
0010
1000
0001
0100
0001
0100
,  // measure 28
0010
0000
0000
0010
0000
0000
2000
0000
0000
0000
0000
0000
3000
0000
0000
0000
,  // measure 29
0001
0000
0010
0000
0001
0000
0010
0000
0001
0000
0000
1000
0000
0000
0001
0000
,  // measure 30
0100
0000
0000
0100
0000
0000
0020
0000
0000
0000
0000
0000
0030
0000
0000
0000
,  // measure 31
0100
0000
0001
0000
1000
0000
0010
0000
0100
0000
0000
0001
0000
0000
1000
0000
,  // measure 32
0001
0000
0000
0100
0000
0000
0010
0000
1000
0000
0000
0100
0000
0000
1000
0000
,  // measure 33
0001
0000
0000
0100
0000
0000
0010
0000
1000
0000
0000
0100
0000
0000
0010
0000
,  // measure 34
0002
0000
0000
0003
,  // measure 35
0000
1000
0000
0001
0100
0010
1000
0100
,  // measure 36
0200
0000
0300
0010
0020
0000
0030
0001
,  // measure 37
0001
0000
1000
0100
0000
1000
0100
0000
0020
0000
0001
0000
0031
0000
0000
0000
,  // measure 38
0100
0010
1000
0001
0100
0010
1000
0100
,  // measure 39
1000
0000
0010
0000
0100
0000
0001
0000
0010
0000
0000
0001
0000
0000
0010
0000
,  // measure 40
0020
0000
0030
0100
0200
0000
0300
1000
,  // measure 41
1000
0000
0100
0010
0000
0100
0010
0000
0002
0000
1000
0000
1003
0000
0000
0000
,  // measure 42
0010
0100
0001
1000
0010
0100
0001
0010
,  // measure 43
0100
0000
1000
0000
0100
0000
0010
0000
0001
0000
0000
1000
0000
0000
0001
0000
,  // measure 44
0100
0010
0100
0100
0001
1000
0001
0001
,  // measure 45
0010
0001
0100
0100
0010
1000
0100
0100
,  // measure 46
2000
0000
0000
0000
3100
0000
0010
0001
0020
0000
0000
0000
0031
0000
0100
0000
,  // measure 47
0010
0000
0000
0010
0000
0000
0100
0000
0000
0100
0000
0000
0001
0000
1000
0000
,  // measure 48
0100
0010
0001
0001
1000
0010
0100
0100
,  // measure 49
0001
0010
0001
0001
1000
0100
1000
1000
,  // measure 50
0001
0100
0001
0010
0001
0010
0100
1000
,  // measure 51
0200
0010
0010
0310
,  // measure 52
0001
0000
0000
1000
0000
0000
0001
0000
0100
0000
0000
0000
0110
0000
0000
0000
,  // measure 53
1001
0001
0100
0010
1000
0100
0010
0001
,  // measure 54
1000
0001
0100
0001
0010
0001
0100
0010
,  // measure 55
1000
0100
1000
0010
0100
0001
0010
0001
,  // measure 56
0100
0000
0010
0000
1000
0000
0100
0000
1000
0000
0000
0010
0000
0000
0100
0000
,  // measure 57
0000
0110
0000
1001
0000
1100
0000
0101
,  // measure 58
0000
0011
0000
0110
0000
1100
0000
1001
,  // measure 59
0000
0101
0000
0011
0000
1010
0000
1100
,  // measure 60
0000
0000
1001
0000
0000
0000
0110
0000
0001
1000
0000
0001
1000
0000
0000
0000
,  // measure 61
0000
0000
0000
0000
0001
0100
0010
1000
,  // measure 62
1001
0000
0000
0000
;

//---------------dance-single - ----------------
#NOTEDATA:;
#CHARTNAME:;
#STEPSTYPE:dance-single;
#DESCRIPTION:;
#CHARTSTYLE:;
#DIFFICULTY:Medium;
#METER:4;
#RADARVALUES:0.290906,0.404657,0.113130,0.147939,0.034809,234.000000,221.000000,13.000000,17.000000,0.000000,0.000000,0.000000,0.000000,0.000000,0.290906,0.404657,0.113130,0.147939,0.034809,234.000000,221.000000,13.000000,17.000000,0.000000,0.000000,0.000000,0.000000,0.000000;
#CREDIT:RYUKINON;
#NOTES:
// measure 0
0000
0000
0000
0000
,  // measure 1
0000
0000
0000
0000
,  // measure 2
0000
0000
0000
0000
,  // measure 3
0000
0000
0000
0000
,  // measure 4
0000
0000
0000
0000
,  // measure 5
1000
0001
1000
1000
,  // measure 6
0001
1000
0001
0001
,  // measure 7
0200
0310
0020
0130
,  // measure 8
0001
0000
1000
0000
0001
1000
0001
0000
,  // measure 9
0100
0100
0010
0010
,  // measure 10
0100
0010
0100
0010
,  // measure 11
1000
1000
0001
0001
,  // measure 12
1000
0001
1000
0001
,  // measure 13
0000
1000
0000
0100
0000
1000
0000
0100
,  // measure 14
0000
0010
0000
0001
0000
0010
0000
0001
,  // measure 15
0000
0100
0000
0010
0000
0100
0000
0010
,  // measure 16
0000
1000
0000
0001
1000
0000
0001
0000
,  // measure 17
0000
0000
0000
0000
,  // measure 18
0010
0010
0100
0100
,  // measure 19
0010
0100
0010
0100
,  // measure 20
0001
0001
0100
0100
,  // measure 21
0001
0100
0001
0100
,  // measure 22
1000
1000
0200
0300
,  // measure 23
0001
0001
0200
0300
,  // measure 24
0010
1000
0010
1000
,  // measure 25
0001
0100
0001
0100
,  // measure 26
0010
0000
0000
0010
0000
0000
0020
0000
0000
0000
0000
0000
0030
0000
0000
0000
,  // measure 27
0100
0001
1000
0100
,  // measure 28
0010
0000
0000
0010
0000
0000
0020
0000
0000
0000
0000
0000
0030
0000
0000
0000
,  // measure 29
0001
0100
0010
1000
,  // measure 30
0001
0000
0000
0001
0000
0000
0002
0000
0000
0000
0000
0000
0003
0000
0000
0000
,  // measure 31
1000
0100
0010
0001
,  // measure 32
2000
3100
0002
0103
,  // measure 33
2000
3010
0002
0013
,  // measure 34
2000
0000
0000
0000
,  // measure 35
3001
0000
0000
0000
,  // measure 36
0010
0110
0001
1001
,  // measure 37
0001
0100
0020
0030
,  // measure 38
1000
0100
0001
0100
,  // measure 39
1000
0010
0001
0010
,  // measure 40
1000
1100
0010
0011
,  // measure 41
0001
1000
0200
0300
,  // measure 42
0010
0001
0100
0010
,  // measure 43
1000
0001
1000
0001
,  // measure 44
1000
0100
1000
0000
0001
0100
0001
0000
,  // measure 45
1000
0010
1000
0000
0001
0010
0001
0000
,  // measure 46
2000
3100
0020
0031
,  // measure 47
0100
0000
0000
0010
0000
0000
1000
0000
0000
0001
0000
0000
0100
0000
0000
0000
,  // measure 48
0010
0100
0010
0000
1000
0001
1000
0000
,  // measure 49
0010
0001
0100
0000
0010
1000
0100
0000
,  // measure 50
0010
0001
0100
0010
,  // measure 51
2000
0001
0001
3001
,  // measure 52
0010
0000
0000
0100
0000
0000
0010
0000
0100
0000
0000
0000
0110
0000
0000
0000
,  // measure 53
1000
1000
0001
0001
,  // measure 54
1000
0001
1000
0001
,  // measure 55
0100
0100
0010
0010
,  // measure 56
0100
0010
0100
0010
,  // measure 57
0000
0001
0000
1001
0000
1000
0000
1100
,  // measure 58
0000
0100
0000
0110
0000
0010
0000
0011
,  // measure 59
0000
0001
0000
0101
0000
0100
0000
0110
,  // measure 60
0000
0000
0010
0000
0000
0000
1010
0000
1000
0001
0000
1000
0001
0000
0000
0000
,  // measure 61
0000
0000
0000
0000
,  // measure 62
0110
0000
0000
0000
;

//---------------dance-single - ----------------
#NOTEDATA:;
#CHARTNAME:;
#STEPSTYPE:dance-single;
#DESCRIPTION:;
#CHARTSTYLE:;
#DIFFICULTY:Easy;
#METER:3;
#RADARVALUES:0.247394,0.269772,0.078321,0.165344,0.000000,199.000000,190.000000,9.000000,19.000000,0.000000,0.000000,0.000000,0.000000,0.000000,0.247394,0.269772,0.078321,0.165344,0.000000,199.000000,190.000000,9.000000,19.000000,0.000000,0.000000,0.000000,0.000000,0.000000;
#CREDIT:RYUKINON;
#NOTES:
// measure 0
0000
0000
0000
0000
,  // measure 1
0000
0000
0000
0000
,  // measure 2
0000
0000
0000
0000
,  // measure 3
0000
0000
0000
0000
,  // measure 4
0000
0000
0000
0000
,  // measure 5
1000
0001
1000
0000
,  // measure 6
0001
1000
0001
0000
,  // measure 7
0100
0010
0100
0000
,  // measure 8
0010
0100
0110
0000
,  // measure 9
1000
1000
1000
0010
,  // measure 10
0100
0100
0100
0001
,  // measure 11
1000
0100
1000
0100
,  // measure 12
0010
0001
0010
0001
,  // measure 13
0000
1000
0000
1000
0000
1000
0000
1000
,  // measure 14
0000
0001
0000
0001
0000
0001
0000
0001
,  // measure 15
0000
0100
0000
0100
0000
0100
0000
0100
,  // measure 16
0000
0010
0000
0010
0100
0000
0010
0000
,  // measure 17
1001
0000
0000
0000
,  // measure 18
0001
1000
0001
0001
,  // measure 19
0100
0010
0100
0100
,  // measure 20
0001
0010
0001
0001
,  // measure 21
1000
0100
1000
1000
,  // measure 22
0001
0100
0101
0000
,  // measure 23
1000
0100
1100
0000
,  // measure 24
0010
0001
0010
0001
,  // measure 25
0100
0010
0100
0010
,  // measure 26
1000
0001
2000
3000
,  // measure 27
0001
0001
1000
1000
,  // measure 28
0010
0100
0020
0030
,  // measure 29
0100
0010
1000
0001
,  // measure 30
1000
1000
0002
0003
,  // measure 31
0100
0001
1000
0001
,  // measure 32
2000
3000
0002
0003
,  // measure 33
0200
0300
0020
0030
,  // measure 34
2002
0000
0000
0000
,  // measure 35
3003
0000
0000
0000
,  // measure 36
0020
0130
0200
0310
,  // measure 37
0001
1000
2002
3003
,  // measure 38
1000
0100
0001
0100
,  // measure 39
1000
0100
0001
0100
,  // measure 40
2000
3001
0002
1003
,  // measure 41
0010
0100
0220
0330
,  // measure 42
0001
0100
0001
0100
,  // measure 43
0010
1000
0010
1000
,  // measure 44
0010
0010
0100
0000
,  // measure 45
0001
0001
1000
0000
,  // measure 46
0010
0001
0100
0010
,  // measure 47
2000
0000
0000
3000
,  // measure 48
0001
0001
1000
0000
,  // measure 49
0010
0010
0100
0000
,  // measure 50
1000
0100
0010
0001
,  // measure 51
0200
0000
0000
0300
,  // measure 52
0010
0100
0010
0110
,  // measure 53
1000
0010
0100
0001
,  // measure 54
1000
0100
0010
0001
,  // measure 55
1000
1000
0001
0001
,  // measure 56
1000
0001
1000
0001
,  // measure 57
0000
0100
0000
0100
0000
0010
0000
0010
,  // measure 58
0000
1000
0000
1000
0000
0001
0000
0001
,  // measure 59
0000
1000
0000
0100
0000
0010
0000
0001
,  // measure 60
0000
1000
0000
0001
1000
0000
0001
0000
,  // measure 61
0000
0000
0000
0000
,  // measure 62
1001
0000
0000
0000
;
