#VERSION:0.83;
#TITLE:U-NIVUS;
#SUBTITLE:;
#ARTIST:ESTi;
#TITLETRANSLIT:;
#SUBTITLETRANSLIT:;
#ARTISTTRANSLIT:;
#GENRE:;
#ORIGIN:;
#CREDIT:;
#BANNER:univus.png;
#BACKGROUND:univus-bg.jpg;
#PREVIEWVID:;
#JACKET:univus-jacket.png;
#CDIMAGE:;
#DISCIMAGE:;
#LYRICSPATH:;
#CDTITLE:;
#MUSIC:U-NIVUS.mp3;
#OFFSET:1.193000;
#SAMPLESTART:76.277161;
#SAMPLELENGTH:14.999995;
#SELECTABLE:YES;
#BPMS:0.000=129.980;
#STOPS:;
#DELAYS:;
#WARPS:;
#TIMESIGNATURES:0.000=4=4;
#TICKCOUNTS:0.000=4;
#COMBOS:0.000=1;
#SPEEDS:0.000=1.000=0.000=0;
#SCROLLS:0.000=1.000;
#FAKES:;
#LABELS:0.000=Song Start;
#BGCHANGES:3.000=univus-mv.mp4=1.000=0=0=1=====,
99999=-nosongbg-=1.000=0=0=0 // don't automatically add -songbackground-
;
#KEYSOUNDS:;
#ATTACKS:
;

//---------------dance-single - ----------------
#NOTEDATA:;
#CHARTNAME:;
#STEPSTYPE:dance-single;
#DESCRIPTION:;
#CHARTSTYLE:;
#DIFFICULTY:Hard;
#METER:8;
#RADARVALUES:0.508263,0.584503,0.385048,0.184823,0.100112,462.000000,412.000000,50.000000,24.000000,0.000000,0.000000,0.000000,0.000000,0.000000,0.508263,0.584503,0.385048,0.184823,0.100112,462.000000,412.000000,50.000000,24.000000,0.000000,0.000000,0.000000,0.000000,0.000000;
#CREDIT:RYUKINON;
#NOTES:
// measure 0
0000
0000
0000
0000
,  // measure 1
0000
0000
0000
0000
,  // measure 2
0000
0000
0000
0000
,  // measure 3
0000
0000
0000
0000
,  // measure 4
0000
0000
0000
0000
,  // measure 5
0010
0100
0001
1000
,  // measure 6
0010
0100
0001
0010
,  // measure 7
0100
1000
0001
0100
,  // measure 8
0010
1000
0001
0100
,  // measure 9
0010
1000
0000
1100
0000
0011
0000
0001
,  // measure 10
0010
0001
0000
0101
0000
1010
0000
0100
,  // measure 11
0010
1000
0000
1001
0000
0110
0000
0100
,  // measure 12
0001
0010
0000
0011
0000
1100
0000
1000
,  // measure 13
0001
0100
0010
1000
0100
0010
0001
1000
,  // measure 14
0001
0010
0001
0100
0010
1000
0100
1000
,  // measure 15
0010
0100
0001
1000
0100
0010
0001
1000
,  // measure 16
0001
0200
0000
0320
0000
2030
0000
3001
,  // measure 17
1001
0010
0110
0000
0001
0010
0100
1000
,  // measure 18
0100
0010
0011
0000
0001
0100
0010
1000
,  // measure 19
0001
0010
0110
0000
1000
0001
0100
0001
,  // measure 20
0010
0000
0100
0000
1100
0000
0000
0001
0000
1000
0000
0001
0100
0000
0010
0000
,  // measure 21
1000
0001
1001
0010
0100
0001
1000
0100
,  // measure 22
0010
0001
0101
0100
0010
1000
0100
1000
,  // measure 23
0001
0100
0110
0010
1000
0100
1000
0001
,  // measure 24
1000
0200
0000
0320
0000
0032
0000
2003
,  // measure 25
3001
0000
3010
0100
1000
0000
0100
0000
0010
0000
0100
0000
1000
0000
0001
0000
,  // measure 26
0100
0010
1000
0001
0010
0001
0100
0010
,  // measure 27
1000
0000
0100
0010
0001
0000
0100
0000
0010
0000
1000
0000
0100
0000
1000
0000
,  // measure 28
0010
0100
0001
0010
0001
0100
0010
1000
,  // measure 29
0100
0000
0010
0001
0100
0000
0010
0000
1000
0000
0001
0000
0100
0000
0010
0000
,  // measure 30
1000
0100
1000
0001
0100
0001
0010
0100
,  // measure 31
1000
0000
0010
0100
0010
0000
0001
0000
0010
0000
0100
0000
1000
0000
0001
0000
,  // measure 32
1000
0100
0010
0001
1000
0100
0010
0001
,  // measure 33
1000
0100
1000
1010
0000
0110
0000
0101
,  // measure 34
0000
1003
0100
0011
0000
1001
0000
1100
,  // measure 35
0000
0001
0100
0010
1000
0100
0010
0002
,  // measure 36
0000
2003
0000
3020
0000
0230
0000
0302
,  // measure 37
1033
0130
1000
1010
0000
0101
0000
0011
,  // measure 38
0000
0001
0010
1100
0000
0101
0000
1001
,  // measure 39
1000
0000
0000
0100
0000
0000
0001
0000
0000
0100
0000
0000
1000
0000
0000
0010
,  // measure 40
0000
0000
0001
0000
0000
0010
0000
0000
1000
0000
0000
0100
0000
0000
0010
0000
,  // measure 41
0002
0000
2000
3303
,  // measure 42
0010
1000
0100
0010
0001
0130
0010
1000
,  // measure 43
0001
3130
0001
0010
0001
0100
0010
1000
,  // measure 44
0100
0010
0001
0100
0010
1000
0001
0100
,  // measure 45
0010
1000
0100
1000
0001
0100
0010
1000
,  // measure 46
1001
0001
0100
0010
1000
0100
1000
0001
,  // measure 47
0100
0010
1000
0100
0010
0001
0100
0010
,  // measure 48
1000
0100
0001
0100
1000
0010
0001
0010
,  // measure 49
1000
0100
0010
0001
1000
0100
0010
0001
,  // measure 50
0012
0103
2010
3100
,  // measure 51
0010
0001
0100
0010
1000
0100
1000
0010
,  // measure 52
0200
0310
0002
0013
,  // measure 53
2000
0000
3100
0000
0020
0000
0031
0100
,  // measure 54
0010
1000
0100
0010
0001
0010
0100
1000
,  // measure 55
0001
0100
0010
1000
0100
1000
0010
0100
,  // measure 56
0001
0000
0000
1001
0000
0000
0110
0000
0000
1100
0000
0000
0011
0000
0000
0110
,  // measure 57
0000
0000
1100
0000
0000
1010
0000
0000
0101
0000
0000
0011
0000
0000
1000
0000
,  // measure 58
0001
0000
0100
0010
0103
0000
0010
0000
1000
0000
0100
0000
0010
0000
0001
0000
,  // measure 59
0100
0000
0010
1000
0100
0000
0010
0000
0001
0000
0100
0000
0010
0000
1000
0000
,  // measure 60
0001
0000
1000
0100
1000
0000
0010
0000
0001
0000
0100
0000
0010
0000
1000
0000
,  // measure 61
0001
0000
0100
0010
1000
0000
0100
0000
0010
0000
0100
0000
1000
0000
0001
0000
,  // measure 62
0100
0010
0100
0001
0010
0100
1000
0001
,  // measure 63
0010
0100
1000
0001
1000
0001
0100
0010
,  // measure 64
1000
0000
0000
1100
0000
0000
0110
0000
0000
0011
0000
0000
0101
0000
0000
0110
,  // measure 65
0000
0000
1010
0000
0000
0101
0000
0000
1001
0000
0000
2200
0000
0000
0000
0000
,  // measure 66
0000
0000
0000
3333
,  // measure 67
0202
0000
0000
0000
,  // measure 68
0000
0000
0000
0000
,  // measure 69
0303
0000
0000
0000
;

//---------------dance-single - ----------------
#NOTEDATA:;
#CHARTNAME:;
#STEPSTYPE:dance-single;
#DESCRIPTION:;
#CHARTSTYLE:;
#DIFFICULTY:Medium;
#METER:5;
#RADARVALUES:0.379547,0.451661,0.169421,0.446655,0.069309,345.000000,323.000000,22.000000,58.000000,0.000000,0.000000,0.000000,0.000000,0.000000,0.379547,0.451661,0.169421,0.446655,0.069309,345.000000,323.000000,22.000000,58.000000,0.000000,0.000000,0.000000,0.000000,0.000000;
#CREDIT:RYUKINON;
#NOTES:
// measure 0
0000
0000
0000
0000
,  // measure 1
0000
0000
0000
0000
,  // measure 2
0000
0000
0000
0000
,  // measure 3
0000
0000
0000
0000
,  // measure 4
0000
0000
0000
0000
,  // measure 5
2000
3100
0002
3103
,  // measure 6
2000
3010
0002
0013
,  // measure 7
2000
3001
0020
0130
,  // measure 8
0002
0023
0230
2300
,  // measure 9
3001
1000
0000
0010
0000
0100
0000
0001
,  // measure 10
1000
3100
0000
0010
0000
0100
0000
1000
,  // measure 11
0001
0100
0000
0010
0000
1000
0000
0001
,  // measure 12
0100
0010
0000
1000
0000
0100
0000
0010
,  // measure 13
0001
0010
0000
0011
0000
0101
0000
0010
,  // measure 14
1000
0100
0000
1100
0000
1010
0000
0100
,  // measure 15
0010
1000
0000
1001
0000
0110
0000
0001
,  // measure 16
1000
0200
0000
0320
0000
0032
0000
2003
,  // measure 17
3001
0101
1000
1100
,  // measure 18
0001
0011
1000
1100
,  // measure 19
0001
1001
0100
0110
,  // measure 20
1000
0000
0000
0000
0010
0000
0000
0100
0000
0001
0000
1000
0100
0000
0000
0000
,  // measure 21
1000
0100
1000
0000
0001
0010
0001
0000
,  // measure 22
1000
0010
0100
0000
0001
0100
0010
0000
,  // measure 23
1000
0100
0010
0000
0001
1000
0010
0000
,  // measure 24
0100
0010
0100
0010
1000
0001
1000
0001
,  // measure 25
1000
0100
1000
0200
0000
0320
0000
0032
,  // measure 26
0000
2003
0000
3001
0000
0013
0100
0000
,  // measure 27
1000
0001
0100
0020
0000
2030
0000
3002
,  // measure 28
0000
0203
0000
0000
0010
0000
0310
0300
,  // measure 29
1000
0100
0001
0100
1000
0010
0001
0010
,  // measure 30
1000
0001
0100
0010
1000
0001
0100
0000
,  // measure 31
0010
0001
0100
0010
1000
0100
1000
0010
,  // measure 32
0100
0001
0010
0001
1000
0100
0010
0001
,  // measure 33
1000
0100
1000
0002
0000
2003
0000
3020
,  // measure 34
0000
0230
0000
0302
0000
2003
0000
3200
,  // measure 35
0000
0320
0000
0032
0000
2003
0000
3002
,  // measure 36
0000
0203
0000
0320
0000
2030
0000
3100
,  // measure 37
0010
0301
1000
0002
0000
0203
0000
0320
,  // measure 38
0000
2030
0000
3200
0000
2300
0000
3002
,  // measure 39
1003
0000
0003
0100
0000
0000
0010
0000
0000
0001
0000
0000
0010
0000
0000
0100
,  // measure 40
0000
0000
1000
0000
0000
0001
0000
0000
0100
0000
0000
0010
0000
0000
1000
0000
,  // measure 41
0002
0000
0000
0333
,  // measure 42
2100
3010
0102
0013
,  // measure 43
0100
1000
0010
0100
0001
1000
0100
1000
,  // measure 44
0002
0100
1000
0103
,  // measure 45
2000
0000
0001
0000
0100
0000
3010
1000
,  // measure 46
2010
3001
0021
0130
,  // measure 47
0001
0100
0010
1000
0100
0001
0100
1000
,  // measure 48
0020
0100
1000
0130
,  // measure 49
2000
0000
0100
0000
0010
0000
3001
0100
,  // measure 50
0102
1003
2010
3100
,  // measure 51
0010
0001
0010
0001
0100
0010
0100
0310
,  // measure 52
2000
0001
0100
3001
,  // measure 53
0020
0000
0100
0000
1000
0000
0130
0001
,  // measure 54
1000
1001
0010
0110
,  // measure 55
1000
1010
0001
0101
,  // measure 56
1000
0000
0000
0100
0000
0000
0001
0000
0000
0100
0000
0000
1000
0000
0000
0010
,  // measure 57
0000
0000
0001
0000
0000
0010
0000
0000
1000
0000
0000
0100
0000
0000
0001
0000
,  // measure 58
0100
0010
0100
0000
0001
1000
0100
0000
,  // measure 59
1000
0001
0100
0000
0010
1030
0100
0000
,  // measure 60
0010
0001
0010
0000
1000
0100
1000
0000
,  // measure 61
0001
0100
0010
0000
1000
0001
0100
0000
,  // measure 62
0001
1000
0001
1000
0001
0100
0001
0103
,  // measure 63
0001
0010
0001
0010
0001
1000
0100
0010
,  // measure 64
0001
0000
0000
1000
0000
0000
0100
0000
0000
1000
0000
0000
0010
0000
0000
0100
,  // measure 65
0000
0000
0001
0000
0000
1000
0000
0000
0100
0000
0000
0020
0000
0000
0000
0000
,  // measure 66
0000
0000
0000
0000
,  // measure 67
0002
0000
0000
0000
,  // measure 68
0000
0000
0000
0000
,  // measure 69
0033
0000
0000
0000
;

//---------------dance-single - ----------------
#NOTEDATA:;
#CHARTNAME:;
#STEPSTYPE:dance-single;
#DESCRIPTION:;
#CHARTSTYLE:;
#DIFFICULTY:Easy;
#METER:4;
#RADARVALUES:0.245330,0.283780,0.069309,0.092411,0.019252,223.000000,214.000000,9.000000,12.000000,0.000000,0.000000,0.000000,0.000000,0.000000,0.245330,0.283780,0.069309,0.092411,0.019252,223.000000,214.000000,9.000000,12.000000,0.000000,0.000000,0.000000,0.000000,0.000000;
#CREDIT:RYUKINON;
#NOTES:
// measure 0
0000
0000
0000
0000
,  // measure 1
0000
0000
0000
0000
,  // measure 2
0000
0000
0000
0000
,  // measure 3
0000
0000
0000
0000
,  // measure 4
0000
0000
0000
0000
,  // measure 5
1000
0100
0001
0100
,  // measure 6
1000
0010
0001
0010
,  // measure 7
1000
3100
0010
0001
,  // measure 8
1000
0100
0010
0001
,  // measure 9
1000
0001
0110
0000
,  // measure 10
0001
1000
0110
0000
,  // measure 11
0100
0010
1001
0000
,  // measure 12
0010
0100
1001
0000
,  // measure 13
0001
0100
0010
1000
,  // measure 14
0001
0100
0010
1000
,  // measure 15
0001
0010
0100
1000
,  // measure 16
0002
0000
0000
0003
,  // measure 17
1000
0100
1000
0100
,  // measure 18
0001
0100
0001
0100
,  // measure 19
1000
0100
0001
0100
,  // measure 20
1000
0100
0001
0100
,  // measure 21
1000
0010
1000
0010
,  // measure 22
0001
0010
0001
0010
,  // measure 23
0001
0010
1000
0010
,  // measure 24
0001
0010
1000
0010
,  // measure 25
0001
0001
0100
0000
,  // measure 26
1000
1000
0100
0000
,  // measure 27
0010
0010
0001
0000
,  // measure 28
0100
0100
0010
3000
,  // measure 29
1000
0010
1000
0010
,  // measure 30
0100
0001
0100
0001
,  // measure 31
1000
0100
0010
0001
,  // measure 32
0100
0010
1000
0001
,  // measure 33
2000
0100
3100
0000
,  // measure 34
0002
0100
0103
0000
,  // measure 35
2000
0010
3010
0000
,  // measure 36
0002
0010
0013
0000
,  // measure 37
1000
0001
0100
0001
,  // measure 38
1000
0010
0100
0010
,  // measure 39
1000
0100
0010
0001
,  // measure 40
1000
0100
0010
0001
,  // measure 41
2000
0000
0002
3003
,  // measure 42
0010
0100
0010
0000
,  // measure 43
0001
1000
0100
0000
,  // measure 44
0010
0001
0100
0000
,  // measure 45
0010
1000
0100
0000
,  // measure 46
0010
0001
0010
0000
,  // measure 47
1000
0100
1000
0000
,  // measure 48
0001
0100
0010
0000
,  // measure 49
1000
0001
1000
0000
,  // measure 50
0002
0100
1000
0103
,  // measure 51
2000
0100
0001
3100
,  // measure 52
0001
0100
0010
0000
,  // measure 53
1000
0010
0100
0000
,  // measure 54
0002
0100
0103
0000
,  // measure 55
2000
0100
3100
0000
,  // measure 56
0010
0001
0100
0010
,  // measure 57
1000
0100
0010
0001
,  // measure 58
1000
0001
0110
0000
,  // measure 59
0001
1000
0110
0000
,  // measure 60
0010
0100
1001
0000
,  // measure 61
0100
0010
1001
0000
,  // measure 62
1000
0100
0001
0100
,  // measure 63
1000
0010
0001
0010
,  // measure 64
1000
0000
0000
1000
0000
0000
0100
0000
0000
0100
0000
0000
0010
0000
0000
0010
,  // measure 65
0000
0000
0001
0000
0000
0001
0000
0000
1000
0000
0000
0002
0000
0000
0000
0000
,  // measure 66
0000
0000
0000
0003
,  // measure 67
0110
0000
0000
0000
;
