#VERSION:0.83;
#TITLE:Tokyo Snorkel;
#SUBTITLE:;
#ARTIST:Yunomi feat. nicamoq;
#TITLETRANSLIT:;
#SUBTITLETRANSLIT:;
#ARTISTTRANSLIT:;
#GENRE:;
#ORIGIN:;
#CREDIT:;
#BANNER:tokyo snorkel-bn.png;
#BACKGROUND:tokyo snorkel-bg.jpg;
#PREVIEWVID:;
#JACKET:tokyo snorkel-jacket.png;
#CDIMAGE:;
#DISCIMAGE:;
#LYRICSPATH:ONCE UPON A TIME (Jertz mix).lrc;
#CDTITLE:cdtitle.png;
#MUSIC:Tokyo Snorkel.mp3;
#OFFSET:-0.027000;
#SAMPLESTART:101.977234;
#SAMPLELENGTH:15.000000;
#SELECTABLE:YES;
#BPMS:0.000=160.010;
#STOPS:;
#DELAYS:;
#WARPS:;
#TIMESIGNATURES:0.000=4=4;
#TICKCOUNTS:0.000=4;
#COMBOS:0.000=1;
#SPEEDS:0.000=1.000=0.000=0;
#SCROLLS:0.000=0.500;
#FAKES:;
#LABELS:0.000=Song Start;
#BGCHANGES:;
#KEYSOUNDS:;
#ATTACKS:
;

//---------------dance-single - ----------------
#NOTEDATA:;
#CHARTNAME:;
#STEPSTYPE:dance-single;
#DESCRIPTION:;
#CHARTSTYLE:;
#DIFFICULTY:Easy;
#METER:5;
#RADARVALUES:0.227299,0.391653,0.115592,0.176788,0.000000,234.000000,217.000000,17.000000,26.000000,0.000000,0.000000,0.000000,0.000000,0.000000,0.227299,0.391653,0.115592,0.176788,0.000000,234.000000,217.000000,17.000000,26.000000,0.000000,0.000000,0.000000,0.000000,0.000000;
#CREDIT:RYUKINON;
#OFFSET:-0.027000;
#BPMS:0.000000=160.009995
;
#STOPS:;
#DELAYS:;
#WARPS:;
#TIMESIGNATURES:0.000000=4=4
;
#TICKCOUNTS:0.000000=4
;
#COMBOS:0.000000=1
;
#SPEEDS:0.000000=1.000000=0.000000=0
;
#SCROLLS:0.000000=1.000000
;
#FAKES:;
#LABELS:0.000000=Song Start
;
#NOTES:
// measure 0
0000
0000
0000
0000
,  // measure 1
0000
0000
0000
0000
,  // measure 2
0000
0000
0000
0000
,  // measure 3
0000
0000
0000
0000
,  // measure 4
1000
0000
0000
0000
,  // measure 5
0100
0000
0000
0000
,  // measure 6
0010
0000
0000
0000
,  // measure 7
0001
0000
0000
0000
,  // measure 8
2000
0000
3100
0000
,  // measure 9
0002
0000
0103
0000
,  // measure 10
2000
0000
3010
0000
,  // measure 11
0002
0000
0013
0000
,  // measure 12
0200
0000
0310
0000
,  // measure 13
2000
0000
3001
0000
,  // measure 14
0002
0000
1003
0000
,  // measure 15
2002
0000
0000
3003
,  // measure 16
1000
0000
1000
0000
,  // measure 17
0001
0000
0001
0000
,  // measure 18
0100
0000
0100
0000
,  // measure 19
0010
0000
0010
0000
,  // measure 20
1000
1000
0001
0000
,  // measure 21
0010
0010
0100
0000
,  // measure 22
0001
0001
1000
0000
,  // measure 23
2002
0000
0000
3003
,  // measure 24
0110
0000
0000
0000
,  // measure 25
1001
0000
0000
0000
,  // measure 26
0110
0000
0000
0000
,  // measure 27
1001
0000
0000
0000
,  // measure 28
1100
0000
0000
0000
,  // measure 29
0110
0000
0000
0000
,  // measure 30
0011
0000
0000
0000
,  // measure 31
0101
0000
0000
0000
,  // measure 32
1000
0100
1000
0000
,  // measure 33
0001
0100
0001
0000
,  // measure 34
2000
0000
3000
0000
,  // measure 35
0002
0000
0003
0000
,  // measure 36
0100
0010
0100
0000
,  // measure 37
0001
1000
0001
0000
,  // measure 38
0200
0000
0300
0000
,  // measure 39
0020
0000
0030
0000
,  // measure 40
0110
0000
0000
0000
,  // measure 41
0000
0000
0000
0000
,  // measure 42
0000
0000
0000
0000
,  // measure 43
0000
0000
0000
0000
,  // measure 44
1000
0000
0010
0000
,  // measure 45
0100
0000
0001
0000
,  // measure 46
0010
0000
0100
0000
,  // measure 47
1000
0000
0001
0000
,  // measure 48
1000
0000
0100
0000
,  // measure 49
0001
0000
0100
0000
,  // measure 50
1000
0000
0010
0000
,  // measure 51
0001
0000
0010
0000
,  // measure 52
2000
0001
3001
0000
,  // measure 53
0020
0100
0130
0000
,  // measure 54
0002
0010
0013
0000
,  // measure 55
0200
1000
1300
0000
,  // measure 56
0010
0100
0010
0000
,  // measure 57
1000
0001
1000
0000
,  // measure 58
0001
0100
0001
0000
,  // measure 59
1000
0100
1000
0000
,  // measure 60
0001
1000
0001
0001
,  // measure 61
0100
0010
0100
0100
,  // measure 62
0001
1000
0100
0100
,  // measure 63
0010
0001
0010
0010
,  // measure 64
0100
1000
0100
1000
,  // measure 65
0001
1000
0001
1000
,  // measure 66
0100
0010
0001
1000
,  // measure 67
2002
0000
0000
3003
,  // measure 68
0010
0100
0001
0000
,  // measure 69
1000
0100
0010
0000
,  // measure 70
0001
0100
0010
0000
,  // measure 71
1000
0001
0100
0000
,  // measure 72
0010
1000
0100
0000
,  // measure 73
0010
0001
0100
0000
,  // measure 74
0010
1000
0001
0000
,  // measure 75
0100
0010
0110
1001
,  // measure 76
1100
0010
0001
0100
,  // measure 77
0010
1000
0100
1000
,  // measure 78
0002
0100
0103
0000
,  // measure 79
2000
0010
3010
0000
,  // measure 80
0110
0001
1000
0100
,  // measure 81
0010
0001
1000
0010
,  // measure 82
0200
0001
0301
0000
,  // measure 83
0020
1000
1030
0000
,  // measure 84
1001
1000
0001
0100
,  // measure 85
0010
0100
0001
0010
,  // measure 86
0100
1000
0100
1000
,  // measure 87
0001
0100
1000
0100
,  // measure 88
0001
0010
0100
1000
,  // measure 89
0001
0100
0010
1000
,  // measure 90
0001
0100
1000
0100
,  // measure 91
0001
0010
1000
0010
,  // measure 92
0002
0000
0000
0000
,  // measure 93
0000
0000
0000
0000
,  // measure 94
0000
0000
0000
0000
,  // measure 95
0000
0000
0000
0000
,  // measure 96
0003
0000
0000
0000
;

//---------------dance-single - ----------------
#NOTEDATA:;
#CHARTNAME:;
#STEPSTYPE:dance-single;
#DESCRIPTION:;
#CHARTSTYLE:;
#DIFFICULTY:Medium;
#METER:7;
#RADARVALUES:0.430313,0.587479,0.305979,0.217585,0.000000,443.000000,398.000000,45.000000,32.000000,0.000000,0.000000,0.000000,0.000000,0.000000,0.430313,0.587479,0.305979,0.217585,0.000000,443.000000,398.000000,45.000000,32.000000,0.000000,0.000000,0.000000,0.000000,0.000000;
#CREDIT:RYUKINON;
#OFFSET:-0.027000;
#BPMS:0.000000=160.009995
;
#STOPS:;
#DELAYS:;
#WARPS:;
#TIMESIGNATURES:0.000000=4=4
;
#TICKCOUNTS:0.000000=4
;
#COMBOS:0.000000=1
;
#SPEEDS:0.000000=1.000000=0.000000=0
;
#SCROLLS:0.000000=1.000000
;
#FAKES:;
#LABELS:0.000000=Song Start
;
#NOTES:
// measure 0
1000
0000
0000
0000
,  // measure 1
0000
0000
0000
0000
,  // measure 2
0000
0000
0000
0000
,  // measure 3
0000
0000
0000
0000
,  // measure 4
2000
0100
3100
0000
,  // measure 5
0002
0100
0103
0000
,  // measure 6
2000
0010
3010
0000
,  // measure 7
0002
0010
0013
0000
,  // measure 8
1001
0010
0100
0001
,  // measure 9
1000
0000
0010
0000
0100
0000
0001
1000
,  // measure 10
0100
0010
0001
0100
,  // measure 11
0010
0000
1000
0000
0100
0000
1000
0001
,  // measure 12
0100
0010
1000
0010
,  // measure 13
0100
0000
0001
0000
0010
0000
0100
1000
,  // measure 14
0001
1000
0010
0100
,  // measure 15
0010
0010
0010
0010
,  // measure 16
2000
0001
0001
3001
,  // measure 17
0020
0100
0100
0130
,  // measure 18
2000
3002
0203
0320
,  // measure 19
2030
3002
0203
0320
,  // measure 20
0130
0000
0100
0000
0100
0001
1000
0100
,  // measure 21
0010
0000
0010
0000
0010
0001
0100
0010
,  // measure 22
1000
0100
1000
0100
0001
0100
0001
0100
,  // measure 23
2000
0000
0000
3000
,  // measure 24
0101
0000
0000
0001
0100
0000
0001
0000
,  // measure 25
1100
0000
0000
0100
1000
0000
0100
0000
,  // measure 26
0011
0000
0000
0001
0010
0000
0001
0000
,  // measure 27
1000
0010
0100
0001
0000
0010
0100
0000
,  // measure 28
1100
0000
0000
0100
0010
0000
0001
0000
,  // measure 29
1001
0000
0000
1000
0100
0000
0001
0000
,  // measure 30
0110
0000
0000
0001
1000
0000
0100
0000
,  // measure 31
0010
0001
0010
0001
0000
0100
0010
1000
,  // measure 32
0100
0010
0110
0000
,  // measure 33
0001
1000
1001
0001
,  // measure 34
2000
0100
0010
3001
,  // measure 35
0002
0010
0100
1003
,  // measure 36
0100
0001
0101
0000
,  // measure 37
1000
0100
1100
0010
,  // measure 38
0012
0100
1000
0103
,  // measure 39
2000
0001
0010
3100
,  // measure 40
1001
0000
0000
0000
,  // measure 41
0000
0000
0000
0000
,  // measure 42
0000
0000
0000
0000
,  // measure 43
0000
0000
0000
0000
,  // measure 44
1000
0100
1000
0100
,  // measure 45
0001
0100
0001
0100
,  // measure 46
1000
0010
0001
0010
,  // measure 47
1000
0100
0001
0100
,  // measure 48
1000
1000
0001
0001
,  // measure 49
0100
0100
0010
0010
,  // measure 50
0100
0001
1000
0100
,  // measure 51
0010
0001
1000
0100
,  // measure 52
1100
0000
1000
0000
0100
0010
0001
0000
,  // measure 53
0101
0000
0100
0000
0010
1000
0100
1000
,  // measure 54
0001
1000
0001
1000
,  // measure 55
0010
0100
0010
0100
,  // measure 56
1001
0000
1000
0000
0001
1000
0010
0000
,  // measure 57
0100
0000
0001
0000
0010
0100
1000
0001
,  // measure 58
0100
0010
0100
0010
,  // measure 59
1000
0100
0010
0001
,  // measure 60
0011
0011
0011
0011
,  // measure 61
1100
1100
1100
1100
,  // measure 62
1001
1001
1001
1001
,  // measure 63
0110
0110
0110
0110
,  // measure 64
0010
0100
0010
0100
0010
0100
0010
0100
,  // measure 65
0001
1000
0001
1000
0001
1000
0001
1000
,  // measure 66
0100
0010
0001
0010
0100
1000
0100
0010
,  // measure 67
0002
0000
0000
0003
,  // measure 68
0001
1000
1001
0100
,  // measure 69
0010
0001
0100
0010
1000
0001
0100
0010
,  // measure 70
2000
0000
3100
0000
1100
0000
0010
0001
,  // measure 71
0100
0001
0101
0100
,  // measure 72
0010
1000
0100
1000
0100
0000
0010
0001
,  // measure 73
0100
0010
1000
0100
0010
0001
0010
0100
,  // measure 74
0020
0000
0031
0000
0011
0000
0001
1000
,  // measure 75
0200
0010
0010
0310
,  // measure 76
0001
1000
0001
1000
0100
0000
1000
0001
,  // measure 77
0100
0010
1000
0100
1000
0001
0100
0010
,  // measure 78
2000
0000
3001
0000
1001
0000
0010
0100
,  // measure 79
0020
0100
0100
0130
,  // measure 80
1000
0100
1000
0001
0100
0000
0010
0100
,  // measure 81
0010
1000
0001
0010
0100
1000
0001
0100
,  // measure 82
0020
0000
0130
0000
0110
0000
0001
1000
,  // measure 83
0200
0000
0310
0000
0110
0000
0001
0010
,  // measure 84
0002
0100
1000
0103
,  // measure 85
2000
0010
0001
3010
,  // measure 86
0002
0010
0100
0013
,  // measure 87
2000
0010
0100
3010
,  // measure 88
0001
1000
0100
0000
1100
0000
0101
0000
,  // measure 89
0001
1000
0010
0000
0011
0000
1010
0000
,  // measure 90
0001
1000
0001
0000
1001
0000
0110
0000
,  // measure 91
1000
0001
0100
0010
1000
0001
0010
0100
,  // measure 92
2000
0000
0000
0000
,  // measure 93
0000
0000
0000
0000
,  // measure 94
0000
0000
0000
0000
,  // measure 95
0000
0000
0000
0000
,  // measure 96
3000
0000
0000
0000
;

//---------------dance-single - ----------------
#NOTEDATA:;
#CHARTNAME:;
#STEPSTYPE:dance-single;
#DESCRIPTION:;
#CHARTSTYLE:;
#DIFFICULTY:Hard;
#METER:9;
#RADARVALUES:0.557561,0.652755,0.367175,0.278781,0.054396,574.000000,520.000000,54.000000,41.000000,0.000000,0.000000,0.000000,0.000000,0.000000,0.557561,0.652755,0.367175,0.278781,0.054396,574.000000,520.000000,54.000000,41.000000,0.000000,0.000000,0.000000,0.000000,0.000000;
#CREDIT:RYUKINON;
#OFFSET:-0.027000;
#BPMS:0.000000=160.009995
;
#STOPS:;
#DELAYS:;
#WARPS:;
#TIMESIGNATURES:0.000000=4=4
;
#TICKCOUNTS:0.000000=4
;
#COMBOS:0.000000=1
;
#SPEEDS:0.000000=1.000000=0.000000=0
;
#SCROLLS:0.000000=0.500000
,64.000000=1.000000
,160.000000=0.250000
,176.000000=0.500000
,208.000000=1.000000
,268.000000=0.500000
,272.000000=1.000000
,368.000000=0.250000
;
#FAKES:;
#LABELS:0.000000=Song Start
;
#NOTES:
// measure 0
0000
0000
0000
0000
,  // measure 1
0000
0000
0000
0000
,  // measure 2
0000
0000
0000
0000
,  // measure 3
0000
0000
0000
0000
,  // measure 4
0001
1000
1001
0000
,  // measure 5
0010
0100
0110
0000
,  // measure 6
1000
0100
0010
0001
,  // measure 7
2002
0000
0000
3003
,  // measure 8
0001
0100
0001
0100
1000
0100
1000
0100
,  // measure 9
0001
0100
1000
0100
0001
0100
1000
0100
,  // measure 10
0001
0010
0001
0010
1000
0010
1000
0010
,  // measure 11
0001
0010
1000
0010
0001
0010
1000
0010
,  // measure 12
0001
0100
0010
1000
0100
1000
0001
0200
,  // measure 13
0000
0310
0000
1000
0001
0100
0010
1000
,  // measure 14
0100
1000
0001
0100
0010
1000
0100
0010
,  // measure 15
0002
0100
0100
0103
,  // measure 16
1100
1000
0100
1000
,  // measure 17
0011
0001
0010
0001
,  // measure 18
1010
0000
1000
0000
0010
1000
0100
0010
,  // measure 19
0001
1000
0001
0100
,  // measure 20
0010
1000
0010
1000
0010
0100
0010
0100
,  // measure 21
0001
0100
0001
0100
0001
1000
0001
1000
,  // measure 22
0100
0000
0010
0000
0001
0000
0100
0000
0010
0000
1000
0000
0100
0010
0100
0010
,  // measure 23
0100
0000
0000
0000
1000
0000
0000
0000
0001
0000
0000
0010
0100
0000
1000
0000
,  // measure 24
2200
3300
0000
1000
0100
0000
1100
0000
,  // measure 25
0022
0033
0000
0001
0010
0000
0011
0000
,  // measure 26
2002
3003
0000
0001
1000
0000
1001
0000
,  // measure 27
0010
0100
0001
1000
0000
0100
0010
0001
,  // measure 28
0202
0303
0000
0001
0100
0000
0101
0000
,  // measure 29
2020
3030
0000
1000
0010
0000
1010
0000
,  // measure 30
0220
0330
0000
0010
0100
0000
0110
0000
,  // measure 31
1000
0000
0100
0000
0010
0000
0001
0000
1000
0001
1000
0001
1000
0000
0000
0000
,  // measure 32
0100
0010
0100
0001
1000
0000
1000
0001
,  // measure 33
0100
0010
1000
0010
0100
0001
0010
0100
,  // measure 34
2000
0000
3100
0000
0001
1000
0010
0100
,  // measure 35
0002
0013
0011
0101
,  // measure 36
1001
1000
0001
0100
0010
0000
0010
0100
,  // measure 37
0010
1000
0100
1000
0001
0100
0001
1000
,  // measure 38
0200
0000
0310
0000
0110
0000
0010
0001
,  // measure 39
0100
0000
0010
0000
1000
0000
0001
0000
1000
0010
1000
0010
1000
0000
0100
0000
,  // measure 40
2001
0000
0000
0000
3200
0000
0000
0320
,  // measure 41
0000
0000
0000
0000
0032
0000
0000
2000
,  // measure 42
0000
0000
0000
3000
,  // measure 43
0200
0000
0000
0303
,  // measure 44
0000
0000
0100
0010
0000
0001
0010
0001
,  // measure 45
1000
0100
1000
0010
0000
0100
0001
0010
,  // measure 46
0100
1000
0001
1000
0001
0100
0010
1000
,  // measure 47
0000
1001
0000
0010
0100
0010
1000
0200
,  // measure 48
0000
0310
0001
1000
0001
0100
0010
1000
,  // measure 49
0000
1100
0000
1000
0001
0100
0001
0020
,  // measure 50
0000
0130
1000
0001
1000
0100
0010
0001
,  // measure 51
0100
0100
0100
0100
,  // measure 52
0110
0000
0000
0010
0100
0000
0001
0000
1000
0000
0100
0000
0010
0000
0001
0000
,  // measure 53
0010
0000
0000
0100
1000
0000
0100
0000
1000
0000
0001
0000
0100
0000
0010
0000
,  // measure 54
2000
0100
0100
3100
,  // measure 55
0002
0010
0010
0013
,  // measure 56
1000
0000
0000
0001
0100
0000
0010
0000
0100
0000
0010
0000
1000
0000
0001
0000
,  // measure 57
0010
0000
0000
0100
0010
0000
0001
0000
1000
0000
0010
0000
0100
0000
0010
0000
,  // measure 58
2000
0001
0001
3001
,  // measure 59
0020
0100
0100
0130
,  // measure 60
0110
0110
0110
0110
,  // measure 61
1001
1001
1001
1001
,  // measure 62
1100
0101
1100
0101
,  // measure 63
1010
0011
1010
0011
,  // measure 64
0001
0010
0001
0010
0001
1000
0001
1000
,  // measure 65
0001
0100
0001
0100
0001
0010
0001
0010
,  // measure 66
0001
0000
1000
0000
0100
0000
0010
0000
0100
0000
1000
0000
0001
1000
0001
0100
,  // measure 67
0001
0000
0000
1000
0100
0000
1000
0000
0100
0000
0010
0000
0011
0000
0000
0000
,  // measure 68
1001
0001
1000
0100
0010
0000
0001
0100
,  // measure 69
0010
1000
0100
1000
0001
0100
0010
1000
,  // measure 70
0002
0000
0100
0000
0013
0001
0100
0010
,  // measure 71
2000
0001
3100
1010
,  // measure 72
0101
0001
0100
0010
1000
0000
0100
0010
,  // measure 73
0001
1000
0001
0100
0010
0100
0010
1000
,  // measure 74
0200
0000
0010
0000
1300
0001
0100
0010
,  // measure 75
1000
0001
0100
0001
0000
0010
0100
1000
,  // measure 76
0100
0010
0001
1000
0001
0000
0010
0100
,  // measure 77
1000
0001
0100
0010
1000
0001
0100
0010
,  // measure 78
2000
0000
0100
0000
3001
0100
0010
1000
,  // measure 79
0200
0010
0301
0011
,  // measure 80
1100
1000
0100
1000
0001
0000
0001
0100
,  // measure 81
0010
0100
0001
1000
0100
1000
0010
0100
,  // measure 82
0002
0000
0010
0000
0103
0010
1000
0100
,  // measure 83
2000
0000
0000
0000
0001
0000
0000
0000
3100
0000
0010
0000
0001
1000
0001
1000
,  // measure 84
0100
0010
0011
0100
,  // measure 85
0010
1000
1100
0001
,  // measure 86
0100
0010
1001
0100
,  // measure 87
0001
0010
0001
0100
0000
0010
1000
0100
,  // measure 88
1000
0001
0110
1000
,  // measure 89
0001
0100
1010
0100
,  // measure 90
0010
1000
0101
0010
,  // measure 91
0100
1000
0100
0001
0000
0010
0100
1000
,  // measure 92
0002
0100
0100
0103
,  // measure 93
2000
0100
0100
0200
,  // measure 94
0000
0000
0000
0000
,  // measure 95
0000
0000
0000
0000
,  // measure 96
3300
0000
0000
0000
;
