#VERSION:0.83;
#TITLE:Song For You;
#SUBTITLE:;
#ARTIST:NieN (feat. Yurisa);
#TITLETRANSLIT:;
#SUBTITLETRANSLIT:;
#ARTISTTRANSLIT:;
#GENRE:;
#ORIGIN:;
#TAGS:;
#CREDIT:;
#BANNER:song for you.png;
#BACKGROUND:song for you-bg.png;
#PREVIEWVID:;
#JACKET:song for you-jacket.png;
#CDIMAGE:;
#DISCIMAGE:;
#LYRICSPATH:;
#CDTITLE:cdtitle.png;
#MUSIC:Song For You.mp3;
#OFFSET:-0.047000;
#SAMPLESTART:54.456966;
#SAMPLELENGTH:14.999999;
#SELECTABLE:YES;
#BPMS:0.000000=130.000000
;
#STOPS:;
#DELAYS:;
#WARPS:;
#TIMESIGNATURES:0.000000=4=4
;
#TICKCOUNTS:0.000000=4
;
#COMBOS:0.000000=1
;
#SPEEDS:0.000000=1.000000=0.000000=0
;
#SCROLLS:0.000000=1.000000
;
#FAKES:;
#LABELS:0.000000=Song Start
;
#BGCHANGES:0.000=Song For You by NieN (feat. Yurisa).mp4=1.000=0=0=1=====,
99999=-nosongbg-=1.000=0=0=0 // don't automatically add -songbackground-
;
#KEYSOUNDS:;
#ATTACKS:
;

//---------------dance-single - ----------------
#NOTEDATA:;
#CHARTNAME:;
#CHARTHASH:3740923264;
#STEPSTYPE:dance-single;
#BANNER:;
#DESCRIPTION:;
#CHARTSTYLE:;
#DIFFICULTY:Medium;
#METER:5;
#METERF:5.000000;
#LASTSECONDHINT:136.662384;
#RADARVALUES:0.287512,0.390554,0.084444,0.316665,0.007037,286.000000,274.000000,12.000000,45.000000,0.000000,0.000000,0.000000,0.000000,0.000000,0.287512,0.390554,0.084444,0.316665,0.007037,286.000000,274.000000,12.000000,45.000000,0.000000,0.000000,0.000000,0.000000,0.000000;
#CREDIT:RYUKINON;
#NOTES:
// measure 0
0000
0000
0000
0000
,  // measure 1
0000
0000
0000
0000
,  // measure 2
0000
0000
0000
0000
,  // measure 3
0000
0000
0000
0000
,  // measure 4
0000
0000
0000
0000
,  // measure 5
0001
0000
1000
0010
,  // measure 6
0100
0000
0001
0000
,  // measure 7
1000
0100
0010
0001
,  // measure 8
1000
0000
0010
0000
,  // measure 9
0100
0000
0001
0010
,  // measure 10
0001
0000
1000
0000
,  // measure 11
0001
0100
0010
1000
,  // measure 12
0002
0000
0000
0003
,  // measure 13
0110
0000
0000
0000
,  // measure 14
0010
0100
1000
0001
,  // measure 15
2000
0000
3002
0000
,  // measure 16
0003
0000
1000
0001
,  // measure 17
0100
0000
0010
1000
,  // measure 18
0001
0010
0100
1000
,  // measure 19
0200
0000
0320
0000
,  // measure 20
0031
0000
0100
0000
0010
1000
0000
1000
,  // measure 21
0100
0010
0001
0100
,  // measure 22
0010
1000
0001
1000
,  // measure 23
0100
0010
0100
1000
,  // measure 24
0001
0000
0100
0010
0000
0010
1000
0000
,  // measure 25
0100
0010
0001
0200
0000
0300
0000
0010
,  // measure 26
1000
0100
0010
0002
0000
0003
0000
0100
,  // measure 27
0010
0000
0001
0000
1000
0100
0010
0001
,  // measure 28
2000
0000
0000
0000
,  // measure 29
3000
0000
0000
0000
0000
0000
0000
0000
0100
0000
0000
0010
0000
0000
0001
0000
,  // measure 30
1000
0000
0010
0100
0002
0000
0000
0000
,  // measure 31
1000
0000
0103
0000
1000
0100
0001
0010
,  // measure 32
0001
0000
0100
0010
1000
0000
0100
0010
,  // measure 33
0002
0000
0010
0013
,  // measure 34
1000
0100
0010
0001
0000
1000
0000
0001
,  // measure 35
0000
0010
0100
0010
,  // measure 36
2000
0000
3010
0100
0002
0000
0000
0000
,  // measure 37
0000
0000
0003
0000
0100
0010
1000
0001
,  // measure 38
0020
0031
0002
1003
,  // measure 39
2000
3100
0200
0310
,  // measure 40
0012
0103
0120
1030
,  // measure 41
2001
3100
0102
0013
,  // measure 42
0100
1000
0100
0010
0000
0001
0000
0100
,  // measure 43
0010
1000
0100
0010
0001
1000
0100
0010
,  // measure 44
0002
0010
0100
0013
,  // measure 45
2000
0000
0000
0000
0100
0000
0000
0000
3010
0000
0000
0001
0000
0000
0100
0000
,  // measure 46
0010
0000
1000
0001
0200
0000
0000
0000
,  // measure 47
0010
0000
0310
0000
1000
0001
0100
0001
,  // measure 48
0010
0000
0001
0100
0010
0000
1000
0100
,  // measure 49
0010
0000
0001
0100
0000
0010
1000
0100
,  // measure 50
1000
0010
0100
0001
0000
1000
0000
0001
,  // measure 51
0100
0010
1000
0100
,  // measure 52
0020
0000
0031
1000
0200
0000
0310
0000
,  // measure 53
0001
1000
0010
0100
,  // measure 54
1002
0000
0000
0100
0103
0000
0000
0000
,  // measure 55
2010
3200
0320
0032
,  // measure 56
1003
0000
0010
0100
0000
0100
0001
0000
,  // measure 57
0010
0100
1000
0100
0010
0100
1000
0001
,  // measure 58
0200
0310
2000
3001
,  // measure 59
0020
0000
0130
0000
2000
0000
3001
0100
,  // measure 60
0010
0100
0001
1000
0000
0001
0000
0100
,  // measure 61
0000
0020
2000
0000
0000
0000
0000
0000
,  // measure 62
0000
3030
1001
0110
,  // measure 63
1002
0000
0003
0000
0010
0100
1000
0001
,  // measure 64
0200
0310
2000
3100
,  // measure 65
0012
0100
1000
0103
,  // measure 66
0010
0100
1000
0100
0000
0010
0001
0100
,  // measure 67
0020
0000
0000
0100
0130
0000
0000
0000
,  // measure 68
2000
0000
0000
0001
3001
0000
0100
0000
,  // measure 69
0010
1000
0001
0100
0000
0010
0000
2002
,  // measure 70
0000
0000
0000
0000
,  // measure 71
3003
0000
0000
0000
1000
0000
0100
0010
,  // measure 72
0000
0010
0002
0000
0000
0000
0000
0000
,  // measure 73
0000
0000
0000
0000
,  // measure 74
0003
0000
0000
0000
;

//---------------dance-single - ----------------
#NOTEDATA:;
#CHARTNAME:;
#CHARTHASH:599533583;
#STEPSTYPE:dance-single;
#BANNER:;
#DESCRIPTION:;
#CHARTSTYLE:;
#DIFFICULTY:Hard;
#METER:8;
#METERF:0.000000;
#LASTSECONDHINT:136.662384;
#RADARVALUES:0.429257,0.468664,0.077407,0.267406,0.031667,427.000000,416.000000,11.000000,38.000000,0.000000,0.000000,0.000000,0.000000,0.000000,0.429257,0.468664,0.077407,0.267406,0.031667,427.000000,416.000000,11.000000,38.000000,0.000000,0.000000,0.000000,0.000000,0.000000;
#CREDIT:RYUKINON;
#NOTES:
// measure 0
0000
0000
0000
0000
,  // measure 1
0000
0000
0000
0000
,  // measure 2
0000
0000
0000
0000
,  // measure 3
0000
0000
0000
0000
,  // measure 4
0000
0000
0000
0000
,  // measure 5
1000
0000
0000
0000
0000
0000
0000
0000
0001
0000
0000
0010
0000
0000
0100
0000
,  // measure 6
2000
0000
0000
3100
0010
0000
0000
0000
,  // measure 7
0001
0000
0000
0000
0100
0000
0000
0000
0010
0000
0000
1000
0000
0000
0100
0000
,  // measure 8
0020
0000
0000
0031
0001
0000
0000
0000
,  // measure 9
0100
0000
0000
0000
0010
0000
1000
0000
0001
0000
0000
0100
0000
0000
0001
0000
,  // measure 10
0020
0000
0000
0031
1000
0000
0000
0000
,  // measure 11
0001
0000
0000
0100
0000
0000
0001
0000
1000
0000
0000
0000
0100
0000
0000
0000
,  // measure 12
2100
0000
0001
3100
,  // measure 13
0010
1000
0100
0010
0001
0100
0010
1000
,  // measure 14
0002
0203
0320
2030
,  // measure 15
3001
0000
1000
0001
0100
0000
0010
0000
,  // measure 16
0100
0010
1000
0100
0001
0100
1000
0010
,  // measure 17
0100
0000
0001
0010
0001
0100
0010
1000
,  // measure 18
0100
2000
3002
0203
,  // measure 19
0310
0000
1000
0001
0100
0000
0010
0000
,  // measure 20
1000
0100
0010
0001
1000
1001
0000
0010
,  // measure 21
0110
0100
0001
0010
0100
1000
0100
0010
,  // measure 22
0001
0100
0020
0000
2030
0000
3200
0000
,  // measure 23
0310
0001
0100
0010
1000
0100
1000
0001
,  // measure 24
0100
0000
0000
0000
0010
0000
1000
0000
0000
0000
0001
0000
0100
0000
0010
1000
,  // measure 25
0100
0000
0010
0000
0001
0000
0020
0000
0000
0000
0031
0000
0100
0000
0010
1000
,  // measure 26
0001
0000
0100
0000
0010
0000
0200
0000
0000
0000
0301
0000
0010
0000
0001
1000
,  // measure 27
0100
0010
0001
0100
0010
1000
0100
1000
,  // measure 28
0020
1000
0100
1030
,  // measure 29
0001
0000
0010
0000
0100
0000
1000
0000
0100
0000
0000
0010
0000
0000
0001
0000
,  // measure 30
0101
0100
0010
1000
0100
0010
0001
0100
,  // measure 31
0010
1000
0100
1000
0010
0100
0010
1000
,  // measure 32
0001
0010
0100
1000
0001
0100
0010
1000
,  // measure 33
0100
0010
0001
0010
0001
0100
0010
1000
,  // measure 34
0100
0000
0010
0001
0000
0100
0010
1000
,  // measure 35
0001
1001
0110
1001
,  // measure 36
2000
0000
3100
0010
0002
0000
0103
0000
,  // measure 37
0010
1000
0100
0010
0001
0001
0100
0100
,  // measure 38
0020
0000
0130
0010
2000
0000
3001
0000
,  // measure 39
0010
0100
1000
0100
0010
0001
0100
0010
,  // measure 40
2000
0000
3001
1000
0200
0000
0310
0001
,  // measure 41
0100
0010
1000
0100
1000
0001
0100
0010
,  // measure 42
1000
0000
0001
0100
0000
0010
1000
0100
,  // measure 43
0000
0010
0001
0100
0010
1000
0100
1000
,  // measure 44
0002
1000
0100
0013
,  // measure 45
0100
0000
1000
0000
0010
0000
0100
0000
0001
0000
0000
1000
0000
0000
0001
0000
,  // measure 46
1001
1000
0100
0010
0001
1000
0100
0010
,  // measure 47
0001
0100
0010
1000
0100
1000
0001
0100
,  // measure 48
0010
0100
0001
0010
0100
1000
0001
0010
,  // measure 49
0100
1000
0001
0100
0010
1000
0100
0010
,  // measure 50
0001
0010
0100
1000
0001
0100
0010
1000
,  // measure 51
0100
0010
0001
0010
0001
0100
0010
1000
,  // measure 52
0100
1000
0100
0010
0001
0100
0010
1000
,  // measure 53
0001
0100
0010
1000
0001
0000
0110
0000
,  // measure 54
2000
0000
3000
0100
0200
0000
0300
0000
,  // measure 55
0010
0001
0010
0001
0100
0010
1000
0100
,  // measure 56
2000
0000
3001
0002
0000
0003
0100
0000
,  // measure 57
0010
0100
0001
1000
0100
0010
0001
0100
,  // measure 58
0010
1000
0100
1000
0000
0010
0001
0100
,  // measure 59
0010
1000
0100
0010
0000
0001
1000
0001
,  // measure 60
0100
0010
1000
0100
0010
0001
0100
0010
,  // measure 61
1000
0001
1000
0100
1000
0010
0100
0001
,  // measure 62
0100
0010
1000
0100
1000
0000
1001
0000
,  // measure 63
0012
0000
0100
0000
1003
0010
0100
0010
,  // measure 64
2000
3200
0320
0032
,  // measure 65
2003
0000
0100
0000
3010
0000
0001
0100
,  // measure 66
0010
1000
0100
1000
0000
0001
0001
0100
,  // measure 67
0020
1000
0130
0001
,  // measure 68
0020
0001
0130
1000
,  // measure 69
0010
0100
0010
1000
0100
0010
0001
0200
,  // measure 70
0000
0000
0000
0300
,  // measure 71
0000
0000
0000
0000
0010
0000
1000
0100
,  // measure 72
0000
0010
0002
0000
0000
0000
0000
0000
,  // measure 73
0010
0000
0100
0000
,  // measure 74
1003
0000
0000
0000
;

//---------------dance-single - ----------------
#NOTEDATA:;
#CHARTNAME:;
#CHARTHASH:1036148889;
#STEPSTYPE:dance-single;
#BANNER:;
#DESCRIPTION:;
#CHARTSTYLE:;
#DIFFICULTY:Easy;
#METER:2;
#METERF:2.000000;
#LASTSECONDHINT:0.047000;
#RADARVALUES:0.152803,0.260369,0.105555,0.168888,0.000000,152.000000,137.000000,15.000000,24.000000,0.000000,0.000000,0.000000,0.000000,0.000000,0.152803,0.260369,0.105555,0.168888,0.000000,152.000000,137.000000,15.000000,24.000000,0.000000,0.000000,0.000000,0.000000,0.000000;
#CREDIT:RYUKINON;
#NOTES:
// measure 0
0000
0000
0000
0000
,  // measure 1
0000
0000
0000
0000
,  // measure 2
0000
0000
0000
0000
,  // measure 3
0000
0000
0000
0000
,  // measure 4
0000
0000
0000
0000
,  // measure 5
0010
0000
0100
0000
,  // measure 6
0010
0000
0100
0000
,  // measure 7
0001
0000
1000
0000
,  // measure 8
0001
0000
1000
0000
,  // measure 9
0100
0000
0010
0000
,  // measure 10
0001
0000
1000
0000
,  // measure 11
0001
0000
1000
0000
,  // measure 12
2002
0000
0000
3003
,  // measure 13
0110
0000
0000
0000
,  // measure 14
0010
0000
0100
0000
,  // measure 15
0010
0010
0010
0000
,  // measure 16
1000
1000
1000
0000
,  // measure 17
0100
0000
0010
0000
,  // measure 18
1000
0000
0001
0000
,  // measure 19
1000
1000
1000
0000
,  // measure 20
0001
0001
0001
0000
,  // measure 21
0200
0000
0310
0000
,  // measure 22
0020
0000
0130
0000
,  // measure 23
2000
0000
3001
0000
,  // measure 24
0002
0000
1003
0000
,  // measure 25
1001
0000
0000
0000
,  // measure 26
0110
0000
0000
0000
,  // measure 27
1001
0000
0000
0000
,  // measure 28
0220
0000
0000
0330
,  // measure 29
0000
0000
0000
0000
,  // measure 30
1000
0100
1000
0000
,  // measure 31
0001
0100
0001
0000
,  // measure 32
1000
0000
0100
0000
,  // measure 33
0001
0000
0100
0000
,  // measure 34
1000
0010
1000
0000
,  // measure 35
0001
0010
0001
0000
,  // measure 36
1000
0000
0010
0000
,  // measure 37
0001
0000
0010
0000
,  // measure 38
0200
0000
0000
0300
,  // measure 39
0020
0000
0000
0030
,  // measure 40
0002
0000
0000
0003
,  // measure 41
2000
0000
0000
3000
,  // measure 42
0010
0000
0100
0000
,  // measure 43
0001
0000
1000
0000
,  // measure 44
0002
0000
0000
0003
,  // measure 45
2000
0000
0000
3000
,  // measure 46
0001
1000
1001
0000
,  // measure 47
1000
0001
1001
0000
,  // measure 48
0010
0100
0110
0000
,  // measure 49
0100
0010
0110
0000
,  // measure 50
0001
0010
0100
0000
,  // measure 51
1000
0100
0010
0000
,  // measure 52
0001
1000
0100
0000
,  // measure 53
1000
0001
0100
0000
,  // measure 54
0020
0000
0130
0000
,  // measure 55
2000
0000
3001
0000
,  // measure 56
0002
0000
0013
0000
,  // measure 57
0200
0000
1300
0000
,  // measure 58
0010
0000
0001
0000
,  // measure 59
0100
0000
0010
0000
,  // measure 60
1000
1000
0100
0000
,  // measure 61
0010
0010
0001
0000
,  // measure 62
0100
0000
0010
0000
,  // measure 63
0220
0000
0000
0000
,  // measure 64
0330
0000
0000
0000
,  // measure 65
2002
0000
0000
0000
,  // measure 66
3003
0000
0000
0000
,  // measure 67
0010
0010
0100
0000
,  // measure 68
0100
0100
0001
0000
,  // measure 69
1000
0100
0010
0001
,  // measure 70
2002
0000
0000
0000
,  // measure 71
3003
0000
0000
0000
,  // measure 72
0110
0000
0000
0000
,  // measure 73
0010
0000
0100
0000
,  // measure 74
0110
0000
0000
0000
;
