#TITLE:Smeraldo Garden Marching Band;
#SUBTITLE:;
#ARTIST:Jimin (feat. Loco);
#TITLETRANSLIT:;
#SUBTITLETRANSLIT:;
#ARTISTTRANSLIT:;
#GENRE:;
#CREDIT:;
#BANNER:sgmbjimin.png;
#BACKGROUND:sgmbjimin-bg.png;
#LYRICSPATH:;
#CDTITLE:cdtitle.png;
#MUSIC:Smeraldo Garden Marching Band.mp3;
#OFFSET:-0.320000;
#SAMPLESTART:49.587963;
#SAMPLELENGTH:14.999991;
#SELECTABLE:YES;
#BPMS:0.000000=97.250000
;
#STOPS:
;
#BGCHANGES:;
#KEYSOUNDS:;
#ATTACKS:;

//---------------dance-single - ----------------
#NOTES:
     dance-single:
     :
     Medium:
     5:
     0.000000,0.000000,0.000000,0.000000,0.000000,0.000000,0.000000,0.000000,0.000000,0.000000,0.000000,0.000000,0.000000,0.000000,0.000000,0.000000,0.000000,0.000000,0.000000,0.000000,0.000000,0.000000:
// measure 0
0000
0000
0000
0000
,  // measure 1
0000
0000
0000
0000
,  // measure 2
0000
0000
0000
0000
,  // measure 3
0000
0000
0000
0000
,  // measure 4
1000
0001
0100
0010
,  // measure 5
1000
0100
0010
0001
,  // measure 6
0100
0010
1000
0001
,  // measure 7
0100
0010
1000
0001
,  // measure 8
0100
0100
0010
0010
,  // measure 9
1000
1000
0001
0001
,  // measure 10
1000
0100
0001
0100
,  // measure 11
1000
0010
0001
0010
,  // measure 12
2000
0000
0100
3100
,  // measure 13
0002
0000
0100
0103
,  // measure 14
2000
0000
0010
3010
,  // measure 15
0002
0000
0010
0013
,  // measure 16
0100
1000
0010
0001
,  // measure 17
0010
0100
1000
0001
,  // measure 18
1000
0100
1000
0001
,  // measure 19
0200
0000
0300
0110
,  // measure 20
1002
0100
0010
0103
,  // measure 21
2010
0100
0001
3010
,  // measure 22
0100
0010
1000
0000
0100
0010
0001
0000
,  // measure 23
0100
0010
1000
0100
0010
0001
1000
0000
,  // measure 24
1002
0100
0010
0103
,  // measure 25
1020
0100
0001
1030
,  // measure 26
0001
0001
0100
0000
0010
0010
1000
0000
,  // measure 27
0100
0010
0001
0010
0100
0010
0001
0000
,  // measure 28
1000
0100
0001
0100
,  // measure 29
1000
0010
0001
0010
,  // measure 30
2000
3100
0002
0013
,  // measure 31
0200
0310
0002
1003
,  // measure 32
0100
0100
0010
0000
0001
0001
0010
0000
,  // measure 33
0100
0100
1000
0000
0001
0001
1000
0000
,  // measure 34
0002
0000
0100
0013
,  // measure 35
1001
0110
1001
0110
,  // measure 36
1000
0010
1010
0000
0001
0100
0101
0000
,  // measure 37
0010
0001
0011
0000
0100
1000
1100
0000
,  // measure 38
0001
1000
1001
0000
0010
0100
0110
0000
,  // measure 39
1000
0100
0010
0001
1000
0100
0010
0001
,  // measure 40
1000
1000
0001
0001
0100
0100
0010
0010
,  // measure 41
1000
0100
1000
0100
0010
0001
0010
0001
,  // measure 42
0100
0010
1000
0001
0010
0100
1000
0100
,  // measure 43
0020
0032
0203
0320
,  // measure 44
2000
0000
0000
3030
;

//---------------dance-single - ----------------
#NOTES:
     dance-single:
     :
     Hard:
     7:
     0.000000,0.000000,0.000000,0.000000,0.000000,0.000000,0.000000,0.000000,0.000000,0.000000,0.000000,0.000000,0.000000,0.000000,0.000000,0.000000,0.000000,0.000000,0.000000,0.000000,0.000000,0.000000:
0000
0000
0000
0000
,
0000
0000
0000
0000
,
0000
0000
0000
0000
,
0000
0000
0000
0000
,
1000
0100
1000
0000
0001
0100
0001
0000
,
1000
0100
0010
0001
1000
0100
0010
0001
,
0100
0010
0100
0000
0001
1000
0001
0000
,
0010
0100
0010
1000
0001
0100
0010
0000
,
1000
0100
0010
0100
1000
0100
0001
0100
,
1000
0010
0100
0010
1000
0010
0001
0010
,
1000
1000
0001
0001
0100
0100
0010
0010
,
1000
0100
1000
0001
0100
0100
0100
0000
,
0020
0001
0100
1030
,
0200
0010
0001
1300
,
0010
0001
0100
0000
0010
1000
0100
0000
,
0010
0001
0010
0001
0100
0010
1000
0000
,
0002
1000
0010
0103
,
2000
0001
0100
3010
,
0100
0010
1000
0100
0010
0001
0100
0010
,
2000
0000
0000
0000
3000
0001
1001
0000
,
0110
0010
0100
0000
1001
1000
0001
0100
,
0101
0001
0100
0000
1010
1000
0010
0100
,
0010
1000
1100
0000
0010
0001
0011
0001
,
1001
0010
0100
0010
1000
0100
0010
0001
,
1000
0001
0110
0000
0001
1000
0110
0000
,
0001
1000
0010
0100
0001
1000
0100
0010
,
0001
1000
1001
0000
0010
0100
0110
0100
,
0101
0001
0010
0001
0100
0010
1000
0100
,
2000
0000
0000
0000
3100
0010
0001
0010
,
0000
0100
1000
0001
0100
0010
1000
0001
,
0200
0000
0000
0000
0300
0000
0000
0010
,
1000
0000
0000
1000
0000
0000
1000
0000
0001
0000
0000
0001
0000
0000
0001
0000
,
0200
0000
0010
0010
0000
0000
0010
0000
1300
0000
0100
0000
0010
0000
0001
0000
,
2000
0000
0100
0100
0000
0000
3100
0000
0010
0000
0001
0000
0100
0000
0010
0000
,
2000
0000
0001
0001
0000
0000
0001
0000
3000
0000
0010
0010
0000
0000
0100
0000
,
0110
0000
1001
0000
1000
0100
0010
0001
,
1001
0000
0001
0000
0100
0010
0100
0000
0010
0000
1000
0000
0100
0000
1000
0000
,
0001
0000
0010
0000
0001
0100
0001
0000
0010
0000
0100
0000
1000
0000
0100
0000
,
1000
0000
0010
0000
0100
0010
0100
0000
0001
0000
0010
0000
0100
0000
1000
0000
,
0100
0000
0010
0000
0001
1000
0001
0000
0100
0000
0100
0000
0010
0000
0010
0000
,
1010
0000
1000
0000
0100
0010
0100
0000
0010
0000
0001
0100
0010
0000
1000
0000
,
0100
0000
0010
0000
0001
0100
0001
0000
0010
0000
0100
1000
0010
0000
0100
0000
,
0110
0000
0010
0000
1000
0001
1000
0000
0010
0000
0100
0010
1000
0000
0100
0000
,
0020
0001
0032
0100
0203
0010
0320
1000
,
2030
0000
0000
3000
;

//---------------dance-single - ----------------
#NOTES:
     dance-single:
     :
     Easy:
     2:
     0.138751,0.192501,0.061250,0.105001,0.000000,111.000000,104.000000,7.000000,12.000000,0.000000,0.000000,0.138751,0.192501,0.061250,0.105001,0.000000,111.000000,104.000000,7.000000,12.000000,0.000000,0.000000:
// measure 0
0000
0000
0000
0000
,  // measure 1
0000
0000
0000
0000
,  // measure 2
0000
0000
0000
0000
,  // measure 3
0000
0000
0000
0000
,  // measure 4
1000
1000
0100
0000
,  // measure 5
0010
0010
0001
0000
,  // measure 6
0100
0100
0010
0000
,  // measure 7
1000
1000
0001
0000
,  // measure 8
1000
0001
1000
0000
,  // measure 9
0001
1000
0001
0000
,  // measure 10
0100
0010
0100
0000
,  // measure 11
0010
0100
0010
0000
,  // measure 12
2000
0000
0000
3000
,  // measure 13
0002
0000
0000
0003
,  // measure 14
0200
0000
0000
0300
,  // measure 15
0020
0000
0000
0030
,  // measure 16
1000
0100
1000
0000
,  // measure 17
0001
0100
0001
0000
,  // measure 18
1000
0001
0100
0000
,  // measure 19
0001
1000
0100
0000
,  // measure 20
0220
0000
0000
0330
,  // measure 21
1001
0000
0010
0100
,  // measure 22
0010
0000
1000
0001
,  // measure 23
1000
0000
0000
0000
,  // measure 24
2002
0000
0000
3003
,  // measure 25
0110
0000
0001
1000
,  // measure 26
0100
0000
0010
0001
,  // measure 27
0100
0000
0000
0000
,  // measure 28
0020
0000
0000
0030
,  // measure 29
0200
0000
0000
0300
,  // measure 30
0002
0000
0000
0003
,  // measure 31
2000
0000
0000
3000
,  // measure 32
0001
0100
0001
0000
,  // measure 33
1000
0100
1000
0000
,  // measure 34
0010
0001
0010
0000
,  // measure 35
0110
0000
1001
0000
,  // measure 36
1000
0001
1000
0100
,  // measure 37
1000
0001
1000
0010
,  // measure 38
0100
0100
0010
0010
,  // measure 39
1000
0100
0010
0001
,  // measure 40
0100
0010
1000
0100
,  // measure 41
0010
0001
0100
0010
,  // measure 42
1000
1000
0100
0100
,  // measure 43
0010
0001
0100
0010
,  // measure 44
0110
0000
0000
0000
;
