#VERSION:0.83;
#TITLE:MAGICALGIRL TRAP BEATZ;
#SUBTITLE:;
#ARTIST:DJ Noriken;
#TITLETRANSLIT:;
#SUBTITLETRANSLIT:;
#ARTISTTRANSLIT:;
#GENRE:;
#ORIGIN:;
#CREDIT:;
#BANNER:magicalgirl trap beatz.png;
#BACKGROUND:magicalgirl trap beatz-bg.jpg;
#PREVIEWVID:;
#JACKET:magicalgirl trap beatz-jacket.png;
#CDIMAGE:;
#DISCIMAGE:;
#LYRICSPATH:;
#CDTITLE:cdtitle.png;
#MUSIC:MAGICALGIRL TRAP BEATZ.mp3;
#OFFSET:-1.227000;
#SAMPLESTART:97.697090;
#SAMPLELENGTH:15.000000;
#SELECTABLE:YES;
#DISPLAYBPM:*;
#BPMS:0.000=200.000;
#STOPS:;
#DELAYS:;
#WARPS:;
#TIMESIGNATURES:0.000=4=4;
#TICKCOUNTS:0.000=4;
#COMBOS:0.000=1;
#SPEEDS:0.000=1.000=0.000=0;
#SCROLLS:0.000=0.500,
64.000=0.250,
68.000=1.000,
96.000=0.250,
100.000=1.000,
132.000=0.250,
136.000=1.000,
164.000=0.500,
224.000=0.250,
228.000=1.000;
#FAKES:;
#LABELS:0.000=Song Start;
#BGCHANGES:;
#KEYSOUNDS:;
#ATTACKS:
;

//---------------dance-single - ----------------
#NOTEDATA:;
#CHARTNAME:;
#STEPSTYPE:dance-single;
#DESCRIPTION:;
#CHARTSTYLE:;
#DIFFICULTY:Easy;
#METER:5;
#RADARVALUES:0.398787,0.627090,0.279951,0.255955,0.000000,349.000000,314.000000,35.000000,32.000000,0.000000,0.000000,0.000000,0.000000,0.000000,0.398787,0.627090,0.279951,0.255955,0.000000,349.000000,314.000000,35.000000,32.000000,0.000000,0.000000,0.000000,0.000000,0.000000;
#CREDIT:RYUKINON;
#DISPLAYBPM:*;
#NOTES:
0000
0000
0000
0000
,
0000
0000
0000
0000
,
0000
0000
0000
0000
,
0000
0000
0000
0000
,
0000
0000
0000
0000
,
2000
0000
0000
3000
,
0200
0000
0000
0300
,
0020
0000
0000
0030
,
0002
0000
2000
3003
,
0100
0100
0100
0000
,
0010
0010
0010
0000
,
0001
0001
0001
0000
,
1000
0000
0001
0000
,
1000
1000
1000
0000
,
0001
0001
0001
0000
,
0100
0100
0100
0000
,
0010
0000
0010
0000
,
0002
0100
0100
0103
,
2000
0010
0010
3010
,
0200
0001
0001
0301
,
0020
1000
1000
1030
,
1001
1000
1001
0001
,
0011
0010
0011
0001
,
0011
0110
1100
0110
,
2002
0000
0000
3003
,
0010
0100
0010
0100
,
0010
1000
0010
1000
,
0100
0001
0100
0001
,
0100
1000
0100
0001
,
1000
1000
0001
0001
,
0100
0100
0010
0010
,
1000
0001
1000
0001
,
0010
0100
1000
0100
,
0020
0000
0000
0030
,
0001
1000
0001
1000
,
0010
0100
0010
0010
,
1000
0001
1000
1000
,
0001
0010
0100
0010
,
0001
1000
0100
1000
,
0110
0001
0110
1000
,
0001
0010
0100
1000
,
0002
0000
1003
0000
,
2000
0000
3100
0000
,
0200
0000
0310
0000
,
0020
0000
0031
0000
,
0002
0010
0013
0000
,
2000
0100
3100
0000
,
0020
0001
0031
0000
,
0200
0010
0310
0000
,
1000
0001
0110
0000
,
0001
1000
0110
0000
,
0100
0010
1001
0000
,
0010
0100
1001
0000
,
1000
0100
1000
0000
,
0001
0100
0001
0000
,
1000
0100
0010
0001
,
2002
0000
0000
3003
,
0010
0010
0010
0000
,
0100
0100
0100
0000
,
0001
0001
0001
0000
,
1000
1000
1000
0000
,
0001
1000
0001
1000
,
0001
0100
0001
0100
,
0001
0010
0100
1000
,
0200
0000
0000
0300
,
0001
0010
1000
0010
,
0001
0010
1000
0010
,
0001
0100
1000
0100
,
0001
0100
1000
0100
,
0001
1000
0001
1000
,
0001
0100
0001
0100
,
0001
0010
0001
0010
,
0001
0001
1000
1000
,
0110
1001
0100
0010
,
0001
0010
0100
1000
,
0001
0100
0001
1000
,
0100
1000
0001
0100
,
0110
1000
0110
0001
,
1001
1000
1001
1000
,
0100
0010
0001
1000
,
0200
0300
1100
0011
,
1001
0100
0001
0010
,
1000
0100
1000
1000
,
0001
0100
0010
1000
,
0002
0103
2000
3100
,
0110
0001
0010
0100
,
1000
0001
0100
0010
,
1000
1000
0001
0001
,
0200
0310
0020
1030
,
1100
0101
1001
0100
,
0010
0010
0001
0001
,
1000
0100
1000
0100
,
2000
3010
0200
0301
,
0011
0110
1100
0001
,
1001
0110
1001
0100
,
0010
0010
1000
1000
,
0100
0000
0100
0000
0010
0001
0200
0000
,
0020
0000
0000
0000
,
0330
0000
0000
0000
;

//---------------dance-single - ----------------
#NOTEDATA:;
#CHARTNAME:;
#STEPSTYPE:dance-single;
#DESCRIPTION:;
#CHARTSTYLE:;
#DIFFICULTY:Medium;
#METER:8;
#RADARVALUES:0.659313,0.783862,0.327942,0.127977,0.055990,577.000000,536.000000,41.000000,16.000000,0.000000,0.000000,0.000000,0.000000,0.000000,0.659313,0.783862,0.327942,0.127977,0.055990,577.000000,536.000000,41.000000,16.000000,0.000000,0.000000,0.000000,0.000000,0.000000;
#CREDIT:RYUKINON;
#OFFSET:-1.227000;
#BPMS:0.000000=200.000000
;
#STOPS:;
#DELAYS:;
#WARPS:;
#TIMESIGNATURES:0.000000=4=4
;
#TICKCOUNTS:0.000000=4
;
#COMBOS:0.000000=1
;
#SPEEDS:0.000000=1.000000=0.000000=0
;
#SCROLLS:0.000000=1.000000
,64.000000=0.250000
,68.000000=1.000000
,132.000000=0.250000
,136.000000=1.000000
,224.000000=0.250000
,228.000000=1.000000
;
#FAKES:;
#LABELS:0.000000=Song Start
;
#DISPLAYBPM:*;
#NOTES:
0000
0000
0000
0000
,
0000
0000
0000
0000
,
0000
0000
0000
0000
,
0000
0000
0000
0000
,
0000
0000
0000
0000
,
1000
0100
1000
0100
1000
0000
0100
0000
,
0010
0001
0010
0001
0010
0000
0100
0000
,
0010
0100
0010
0100
0010
1000
0001
0100
,
0000
0010
1000
0100
0000
0010
0011
0000
,
1002
0100
0103
0000
,
2001
0100
3100
0000
,
1020
0100
0031
0000
,
2001
0010
3100
0000
,
1000
0000
0000
0001
0000
0000
1000
0000
0100
0000
0000
0000
0010
0000
0000
0000
,
0001
0000
0000
0100
0000
0000
0001
0000
0010
0000
0000
0000
0100
0000
0000
0000
,
1000
0100
0010
0001
1000
0100
0010
0001
,
1000
0000
0000
0110
,
1001
0001
0001
0001
,
1000
0000
1000
0000
1000
0000
1000
0100
,
0110
0010
0010
0010
,
0100
0000
0100
0000
0100
0000
0100
0100
,
0011
0001
1001
1000
,
1100
0001
0101
1000
,
0001
0100
0001
0010
0100
1000
0100
0010
,
0001
0000
0000
1000
0001
1000
0001
0000
,
0110
0000
0010
1000
0100
0000
0010
0001
,
0100
0000
0010
1000
0010
0100
0010
1000
,
0001
0000
1000
0100
1000
0000
0001
0010
,
0001
0100
0010
1000
0100
0010
0002
0000
,
1003
0000
0010
0100
0010
0000
1000
0100
,
1000
0000
0001
0100
0010
1000
0100
0010
,
0001
0000
1000
0100
1000
0000
0001
0100
,
0010
1000
0100
0001
0100
1000
0010
0100
,
0020
0000
0000
0130
,
1001
0000
0001
0000
1000
0001
0100
0000
,
0010
1000
0100
1000
0001
0100
0001
0010
,
0001
1000
0100
0010
0100
1000
0001
0000
,
0010
0100
0010
0100
0001
1000
0001
1000
,
0010
0100
0001
1000
0010
0100
0001
1000
,
0100
0100
0010
0010
0001
0001
1000
1000
,
0001
0010
0100
1000
0001
0010
0100
1000
,
0100
0010
0110
0000
,
0001
1000
1001
0000
,
0001
0100
0101
0000
,
1000
0100
1100
0000
,
0001
0000
1000
0010
0000
0100
0001
0010
,
0000
0100
1000
0100
0000
0001
0002
0000
,
0103
0000
0010
0000
1000
0100
1000
0001
,
0000
0010
0100
0010
0000
1000
1000
0000
,
0001
0000
0000
0001
0000
0000
0001
0000
1000
0000
0000
0000
0100
0000
0000
0000
,
0010
0000
0000
0010
0000
0000
0010
0000
0001
0000
0000
0000
1000
0000
0000
0000
,
0100
0000
0000
0100
0000
0000
0100
0000
0010
0000
0000
0000
0001
0000
0000
0000
,
0100
0010
1000
0001
0010
0100
1000
0100
,
0010
0000
0000
0001
0000
0000
1000
0000
0100
0000
0000
0000
1000
0000
0000
0000
,
0001
0000
0000
0100
0000
0000
0010
0000
1000
0000
0000
0000
0010
0000
0000
0000
,
0100
0000
0000
0010
0000
0000
1000
0000
0001
0000
0000
0000
1000
0000
0000
0000
,
0001
0010
0001
0200
0000
0010
0310
0000
,
0110
0000
0000
0000
0110
0000
0000
0000
0110
0000
0000
1000
0001
0000
0100
0000
,
0101
0000
0000
0000
0101
0000
0000
0000
0101
0000
0000
0001
1000
0000
0100
0000
,
1100
0000
0000
0000
1100
0000
0000
0000
1100
0000
0000
0100
0010
0000
0001
0000
,
1001
0000
0000
0000
1001
0000
0000
0000
1001
0000
0000
0010
0100
0000
0010
0000
,
1000
0100
1000
0100
0010
0001
0010
0001
,
1000
0100
0010
0001
1000
0100
0010
0001
,
0100
0010
0100
1000
0100
0010
0100
1000
,
0001
0000
1000
0010
0100
0001
2000
0000
,
3100
0000
0010
0000
0001
0100
0010
0000
,
1000
0001
0100
0010
1000
0001
0100
0000
,
0002
0000
0103
0000
0010
1000
0100
0000
,
0010
0001
0100
0001
0010
0001
1000
0000
,
0020
0000
1030
0000
0100
0001
0010
0000
,
0100
1000
0010
0001
0100
0010
0100
0000
,
0002
0000
1003
0001
0100
0000
0110
0000
,
0001
1000
0001
0100
0001
0010
0001
0000
,
1001
0000
0110
0000
0010
0001
0100
0000
,
0001
1000
0001
0100
0001
0010
0001
0000
,
2000
0000
3100
0000
0010
0001
0100
0000
,
0010
1000
0010
0100
0001
1000
0100
0000
,
0010
0001
0010
0001
0100
0001
0100
0001
,
1000
0001
1000
0001
0100
0001
0010
0001
,
0010
0100
1000
0001
0100
0010
1000
0001
,
0001
0000
0101
0000
0001
1000
0001
0000
,
1000
0100
0010
0100
1000
0000
1100
0000
,
0001
0010
0100
0010
0001
0000
0011
0000
,
0001
0100
0010
1000
0100
0010
0001
1000
,
0000
0001
0100
0010
0000
1000
0100
0000
,
0010
0001
0010
0100
0010
0000
0110
0000
,
1000
0001
0100
0001
1000
0000
1001
0000
,
0010
0100
0010
0100
0001
1000
0100
0010
,
0000
0100
1000
0001
0000
0100
0200
0000
,
0310
0000
0110
1000
0001
0000
0100
0000
,
0010
1000
0100
1000
0001
0000
1000
0000
,
0010
0100
0001
1000
0010
0100
0001
1000
,
0000
0100
0010
0001
0000
1000
1000
0000
,
0001
0000
0000
0100
0000
0000
0001
0000
0101
0000
0000
0000
1000
0000
0100
0000
,
1000
0000
0000
0010
0000
0000
1000
0000
1010
0000
0000
0000
0100
0000
0000
0000
,
0001
0010
0100
1000
0001
0010
0100
1000
,
0100
0010
0100
0010
0000
0001
2000
0000
,
0002
0000
0000
0000
,
3003
0000
0000
0000
;

//---------------dance-single - ----------------
#NOTEDATA:;
#CHARTNAME:;
#STEPSTYPE:dance-single;
#DESCRIPTION:;
#CHARTSTYLE:;
#DIFFICULTY:Hard;
#METER:10;
#RADARVALUES:0.807858,0.940634,0.279951,0.127977,0.243957,707.000000,672.000000,35.000000,16.000000,0.000000,0.000000,0.000000,0.000000,0.000000,0.807858,0.940634,0.279951,0.127977,0.243957,707.000000,672.000000,35.000000,16.000000,0.000000,0.000000,0.000000,0.000000,0.000000;
#CREDIT:RYUKINON;
#OFFSET:-1.227000;
#BPMS:0.000000=200.000000
;
#STOPS:;
#DELAYS:;
#WARPS:;
#TIMESIGNATURES:0.000000=4=4
;
#TICKCOUNTS:0.000000=4
;
#COMBOS:0.000000=1
;
#SPEEDS:0.000000=1.000000=0.000000=0
;
#SCROLLS:0.000000=0.500000
,36.000000=1.000000
,64.000000=0.250000
,68.000000=1.000000
,96.000000=0.250000
,100.000000=1.000000
,132.000000=0.250000
,136.000000=1.000000
,224.000000=0.250000
,228.000000=1.000000
,292.000000=2.000000
,293.000000=1.000000
;
#FAKES:;
#LABELS:0.000000=Song Start
;
#DISPLAYBPM:*;
#NOTES:
// measure 0
0000
0000
0000
0000
,  // measure 1
0000
0000
0000
0000
,  // measure 2
0000
0000
0000
0000
,  // measure 3
0000
0000
0000
0000
,  // measure 4
0000
0000
0000
0000
,  // measure 5
1000
0100
0010
0001
0010
0000
0011
0000
,  // measure 6
0001
0010
0100
1000
0100
0000
1100
0000
,  // measure 7
0001
1000
0001
0100
0001
0010
0100
1000
,  // measure 8
0000
0100
0010
0001
0000
0100
0100
0000
,  // measure 9
0010
0000
0000
0010
0000
0000
1000
0000
0100
0000
0000
0000
0010
0000
0000
0000
,  // measure 10
0001
0000
0000
0001
0000
0000
0100
0000
0010
0000
0000
0000
1000
0000
0000
0000
,  // measure 11
0001
0000
0000
0100
0000
0000
0010
0000
0100
0000
0000
0000
0010
0000
0000
0000
,  // measure 12
1000
0100
0001
0100
1000
0100
0001
0100
,  // measure 13
1000
0000
0000
1000
0000
0000
0100
0000
0010
0000
0000
0000
0110
0000
0000
0000
,  // measure 14
0001
0000
0000
0001
0000
0000
1000
0000
0010
0000
0000
0000
1010
0000
0000
0000
,  // measure 15
1000
0100
0010
0001
1000
0100
0010
0001
,  // measure 16
0100
0010
0100
0010
0000
1000
1001
0000
,  // measure 17
0001
0100
0001
0010
0001
0100
0001
1000
,  // measure 18
0010
0100
0010
0001
0010
0100
0010
1000
,  // measure 19
0100
0001
0100
1000
0100
0001
0100
0010
,  // measure 20
1000
0100
0001
0100
1000
0010
0001
0010
,  // measure 21
1000
0100
0010
0001
1000
0100
0010
0001
,  // measure 22
1000
1000
0001
0001
0100
0100
0010
0010
,  // measure 23
1000
0100
0001
0010
1000
0100
0001
0010
,  // measure 24
1100
0000
0000
0001
1000
0001
1000
0000
,  // measure 25
0100
0010
0001
0010
0100
1000
0001
0100
,  // measure 26
0010
0000
1000
0000
0001
0000
0100
0000
0010
0000
1000
0100
1000
0000
0010
0000
,  // measure 27
0001
0100
0010
0100
0001
0010
0100
1000
,  // measure 28
0100
0010
0100
1000
1100
0100
0101
0000
,  // measure 29
0010
0100
0010
0100
0001
1000
0100
1000
,  // measure 30
0001
0000
0010
0000
0001
0000
0100
0000
0010
0000
1000
0010
0100
0000
0001
0000
,  // measure 31
1000
0001
0100
0001
1000
0010
1000
0100
,  // measure 32
0010
0010
0001
0001
0100
0100
0010
0010
,  // measure 33
2000
0000
0000
3000
0000
0001
0110
0000
,  // measure 34
1000
0100
1000
0100
0010
0001
0010
0001
,  // measure 35
0100
0010
0100
0010
1000
0001
0010
0100
,  // measure 36
1000
0000
0001
0000
0100
0000
0010
0000
1000
0100
1000
0100
1000
0000
0000
0000
,  // measure 37
0100
0001
0010
0100
1000
0100
0010
0001
,  // measure 38
0100
0010
1000
0001
0100
0010
1000
0001
,  // measure 39
1000
0100
1000
0100
1000
0000
0010
0000
0001
0100
0001
0100
0001
0000
0010
0000
,  // measure 40
1000
0000
0100
0000
0010
0000
0001
0000
0100
0010
0100
0010
0100
0000
0000
0000
,  // measure 41
0110
0000
0001
1000
0000
1000
0100
0000
,  // measure 42
0011
0000
0001
0100
0000
0100
0010
0000
,  // measure 43
1000
0100
1000
0000
0001
0010
0001
0000
,  // measure 44
2000
0000
3001
2000
0000
3001
1000
0000
,  // measure 45
0100
0000
0010
0000
0001
0100
0010
0000
,  // measure 46
1000
0000
0001
0000
0100
0010
1000
0000
,  // measure 47
0010
0000
0001
0000
1000
0100
0010
0001
,  // measure 48
0000
0001
0010
0100
0000
1000
0001
0000
,  // measure 49
1000
0000
0000
0001
0000
0000
1000
0000
0010
0000
0000
0000
0110
0000
0000
0000
,  // measure 50
0001
0000
0000
1000
0000
0000
0001
0000
0100
0000
0000
0000
0101
0000
0000
0000
,  // measure 51
0010
0000
0000
1000
0000
0000
0100
0000
0010
0000
0001
0000
0010
0000
0200
0000
,  // measure 52
0000
1300
0001
0200
0000
0310
0100
0000
,  // measure 53
0001
0000
0000
0010
0000
0000
0001
0000
0100
0000
0000
0000
1100
0000
0000
0000
,  // measure 54
0010
0000
0000
0001
0000
0000
0010
0000
0100
0000
0000
0000
0110
0000
0000
0000
,  // measure 55
1000
0000
0000
0100
0000
0000
0001
0000
0100
0000
0000
1000
0000
0000
0010
0000
,  // measure 56
0100
0010
0100
0020
0000
0100
0130
0000
,  // measure 57
1001
0000
0000
0000
0110
0000
0000
0000
1001
0000
0000
1000
0100
0000
0010
0000
,  // measure 58
0110
0000
0000
0000
1001
0000
0000
0000
0110
0000
0000
1000
0001
0000
0100
0000
,  // measure 59
0101
0000
0000
0000
1100
0000
0000
0000
0101
0000
0000
0010
1000
0000
0100
0000
,  // measure 60
0011
0000
0000
0000
1010
0000
0000
0000
0110
0000
0000
1000
0001
0000
0100
0000
,  // measure 61
0010
0000
1000
0100
1000
0000
0100
0000
0010
0000
0001
0100
0001
0000
0100
0000
,  // measure 62
0010
0000
1000
0010
0100
0000
0001
0000
0100
0000
0010
1000
0100
0000
0010
0000
,  // measure 63
0001
0100
0001
0000
0001
0010
0001
0000
0001
1000
0001
0000
0001
0100
0010
1000
,  // measure 64
0100
0010
0001
0100
0010
0010
0010
0000
,  // measure 65
1010
0100
0010
0100
0010
1000
0100
0010
,  // measure 66
0001
0000
0100
0000
0001
0000
0010
0000
0001
0000
1000
0100
1000
0000
0000
0000
,  // measure 67
0010
0100
0001
0010
0100
1000
0010
0100
,  // measure 68
0001
0010
0100
0010
0011
0001
1001
0000
,  // measure 69
0100
0010
0100
0001
0100
0010
0100
1000
,  // measure 70
0100
0000
0010
0000
0001
0000
0100
0000
0010
0000
1000
0001
0100
0000
0010
0000
,  // measure 71
1000
0000
0100
0010
0100
0000
0001
0000
,  // measure 72
1000
0100
1000
0100
0010
0001
0010
0000
,  // measure 73
1001
0000
0110
0000
1000
0001
1000
0100
,  // measure 74
0010
0000
0001
0000
0100
0000
0010
0000
1000
0100
1000
0100
1000
0000
0000
0000
,  // measure 75
0010
0001
0100
0001
0010
0001
0100
0010
,  // measure 76
1000
0100
0010
0100
1100
1000
1001
0000
,  // measure 77
0100
0100
0010
0010
1000
1000
0001
0001
,  // measure 78
0100
0010
0100
0010
1000
0001
1000
0001
,  // measure 79
1000
0100
1000
0100
1000
0000
0010
0000
0001
1000
0001
1000
0001
0000
0100
0000
,  // measure 80
0010
0010
1000
0001
0001
0001
0001
0000
,  // measure 81
0110
0000
0010
0000
1000
0000
0100
0000
0010
0000
0001
0100
0010
0000
1000
0000
,  // measure 82
0001
0000
0100
0000
0001
0000
0010
0000
0100
0000
1000
0010
0100
0000
0001
0000
,  // measure 83
0010
0100
1000
0100
0010
0001
0100
0001
,  // measure 84
0020
0130
2000
3100
0020
0031
0200
0310
,  // measure 85
1000
0000
0001
0000
0100
0000
0001
0000
0010
0000
0001
0100
0001
0000
0010
0000
,  // measure 86
0100
0000
1000
0000
0100
0000
0010
0000
0100
0000
1000
0001
0100
0000
0010
0000
,  // measure 87
1000
0001
0100
0001
1000
0100
1000
0100
,  // measure 88
0010
0010
0001
0001
0100
0100
0010
0010
,  // measure 89
1000
0000
0000
1000
0100
0000
0000
0100
0010
0000
0000
0010
0001
0000
0000
0001
,  // measure 90
1000
0000
0000
1000
0010
0000
0000
0010
0100
0000
0000
0100
0001
0000
0000
0001
,  // measure 91
1000
0100
1000
0100
0010
0001
0010
0100
,  // measure 92
2000
3100
0020
0031
0020
0130
2000
3100
,  // measure 93
0001
0000
0000
1000
0000
0000
0001
0000
0100
0000
0010
0000
1000
0010
0100
0001
,  // measure 94
1000
0000
0000
0100
0000
0000
0010
0000
0001
0000
0100
0000
0010
1000
0010
0100
,  // measure 95
0010
1000
0001
0100
0001
0010
0001
0010
,  // measure 96
0100
1000
0100
0010
0001
0001
0002
0000
,  // measure 97
2000
0000
0000
0000
,  // measure 98
3003
0000
0000
0000
;
