#TITLE:ぎゅっDAYS♪;
#SUBTITLE:;
#ARTIST:Pastel*Palettes;
#TITLETRANSLIT:GyuuDAYS;
#SUBTITLETRANSLIT:;
#ARTISTTRANSLIT:Pastel Palettes;
#GENRE:;
#CREDIT:;
#BANNER:gyuudays.png;
#BACKGROUND:gyuudays-bg.jpg;
#LYRICSPATH:;
#CDTITLE:cdtitle.png;
#MUSIC:GyuuDAYS.mp3;
#OFFSET:-1.426999;
#SAMPLESTART:63.496956;
#SAMPLELENGTH:14.999990;
#SELECTABLE:YES;
#BPMS:0.000000=170.000000
;
#STOPS:
;
#BGCHANGES:;
#KEYSOUNDS:;
#ATTACKS:;

//---------------dance-single - ----------------
#NOTES:
     dance-single:
     :
     Hard:
     7:
     0.523344,0.576976,0.481054,0.416297,0.009251,396.000000,344.000000,52.000000,45.000000,0.000000,0.000000,0.523344,0.576976,0.481054,0.416297,0.009251,396.000000,344.000000,52.000000,45.000000,0.000000,0.000000:
// measure 0
0000
0000
0000
0000
,  // measure 1
0000
0000
0000
0000
,  // measure 2
0000
0000
0000
0000
,  // measure 3
0000
0000
0000
0000
,  // measure 4
0000
1000
0100
1000
0100
1000
0100
0010
,  // measure 5
0001
0000
1001
0000
0001
1000
0100
0010
,  // measure 6
0002
0203
0320
2030
,  // measure 7
3001
0000
0101
0000
0010
1000
0100
1000
,  // measure 8
0020
0032
0203
0320
,  // measure 9
1030
0000
1001
0000
0100
0010
0001
0000
,  // measure 10
0100
0000
0110
0000
0001
1000
0100
0000
,  // measure 11
0010
0001
0100
0010
0000
0100
0110
0000
,  // measure 12
0001
1000
0010
0100
0000
1000
1001
0000
,  // measure 13
0020
1000
0100
1030
,  // measure 14
0002
0010
0100
1003
,  // measure 15
0020
0000
0000
0100
0130
0000
0000
1000
,  // measure 16
0002
0203
0320
2030
,  // measure 17
3100
0000
0010
0001
0100
0010
1000
0100
,  // measure 18
0020
0000
0001
0031
0000
0100
0010
1000
,  // measure 19
0001
0000
0010
0100
0000
0100
0001
0000
,  // measure 20
1000
0100
0010
0100
1000
0100
0001
0100
,  // measure 21
2000
3100
0002
0103
,  // measure 22
2000
3010
0002
0013
,  // measure 23
1000
0000
0001
0000
0100
0010
1000
0100
,  // measure 24
0020
0032
0203
0310
,  // measure 25
1000
0000
0001
1000
0000
1000
0100
0000
,  // measure 26
0010
0000
0001
0100
0000
0010
1000
0100
,  // measure 27
1000
0000
0100
0010
0000
0001
1000
0010
,  // measure 28
0100
0020
2030
3002
,  // measure 29
0103
0000
0101
0000
0001
0100
0000
1100
,  // measure 30
0000
0101
0000
1100
0000
0010
0001
0100
,  // measure 31
0010
0000
0110
0000
1000
0001
0000
0011
,  // measure 32
0000
1010
0000
0011
0000
0001
1000
0001
,  // measure 33
0200
0000
0000
0010
0320
0000
0000
1000
,  // measure 34
2030
0000
3001
0000
,  // measure 35
1000
0000
0000
0100
0000
0000
0001
0000
0100
0000
0000
1000
0000
0000
0010
0000
,  // measure 36
0200
0010
0001
0310
,  // measure 37
1000
0000
0001
0100
0010
0000
1000
0001
,  // measure 38
0100
0000
0001
0010
0001
0010
0100
1000
,  // measure 39
0200
0000
0010
0310
0000
0001
0100
0010
,  // measure 40
2000
0000
0100
3100
0000
0010
0001
0100
,  // measure 41
0010
0000
1000
1100
0000
0110
0000
0022
,  // measure 42
0000
0000
0000
0033
,  // measure 43
0001
1000
1001
0000
0000
0000
0000
0000
,  // measure 44
0110
0000
1001
0000
0010
0100
0010
0000
,  // measure 45
1001
0000
0101
0000
0001
0100
0010
1000
,  // measure 46
1100
0000
0110
0000
0010
0001
0010
0000
,  // measure 47
0110
0000
1001
0000
0001
1000
0010
0100
,  // measure 48
0001
0000
1000
0001
0000
0001
0100
0010
,  // measure 49
1000
0000
0100
0010
0000
0001
0100
0010
,  // measure 50
1000
0100
0001
0100
0000
1000
0010
0100
,  // measure 51
0001
0010
0100
1000
,  // measure 52
1001
0000
0110
0000
1000
0001
0100
0000
,  // measure 53
1001
0000
1100
0000
0010
0001
0100
0010
,  // measure 54
0110
0000
1010
0000
0100
0010
1000
0001
,  // measure 55
0200
0320
2030
3002
,  // measure 56
0103
0000
0010
1000
0100
0000
0010
0001
,  // measure 57
0100
0000
0001
0100
0001
0000
0101
0000
,  // measure 58
1010
0000
0100
0010
0000
1000
0001
0100
,  // measure 59
0000
0001
0101
0000
0000
0000
0000
0000
,  // measure 60
1100
0000
0202
0303
0000
0110
0000
2002
,  // measure 61
0000
0000
0000
3003
,  // measure 62
0010
0100
0110
0110
,  // measure 63
1000
0001
1001
1001
,  // measure 64
0001
0100
0101
0101
,  // measure 65
0001
0100
0010
1000
0100
0010
0100
1000
,  // measure 66
0001
0010
0011
0011
,  // measure 67
1000
0100
1100
1100
,  // measure 68
0010
1000
1010
1010
,  // measure 69
0001
0100
0010
1000
0100
0010
0001
1000
,  // measure 70
0200
0010
0001
0310
,  // measure 71
2000
0001
0010
3100
,  // measure 72
0001
0100
0010
0100
0000
0001
1000
0200
,  // measure 73
0000
0300
0000
1001
0000
0000
0000
0000
;

//---------------dance-single - ----------------
#NOTES:
     dance-single:
     :
     Medium:
     5:
     0.371363,0.475156,0.111012,0.240527,0.000000,281.000000,269.000000,12.000000,26.000000,0.000000,0.000000,0.371363,0.475156,0.111012,0.240527,0.000000,281.000000,269.000000,12.000000,26.000000,0.000000,0.000000:
// measure 0
0000
0000
0000
0000
,  // measure 1
0000
0000
0000
0000
,  // measure 2
0000
0000
0000
0000
,  // measure 3
0000
0000
0000
0000
,  // measure 4
0000
0000
0000
0000
,  // measure 5
1000
0100
0001
0100
,  // measure 6
1000
0100
0001
0100
,  // measure 7
1000
0010
0001
0010
,  // measure 8
1000
0010
0001
0010
,  // measure 9
2000
0100
0100
3100
,  // measure 10
0002
0100
0100
0103
,  // measure 11
0010
0100
0010
0100
0000
1000
0001
0000
,  // measure 12
0010
0100
0001
1000
0000
0010
0100
0000
,  // measure 13
0001
0100
0001
0010
,  // measure 14
1000
0100
1000
0001
,  // measure 15
0100
0010
0001
0010
,  // measure 16
0100
0010
0001
0010
,  // measure 17
0100
1000
0010
0100
,  // measure 18
0010
0001
0100
0010
,  // measure 19
1000
0100
0010
0100
,  // measure 20
1000
0100
0010
0001
,  // measure 21
1000
0100
1000
0010
,  // measure 22
0001
0100
0001
0010
,  // measure 23
0001
0100
0001
0001
,  // measure 24
1000
0100
1000
1000
,  // measure 25
0001
0100
0010
1000
,  // measure 26
0100
0010
0001
1000
,  // measure 27
0001
0100
0010
1000
,  // measure 28
0100
0100
0010
0010
,  // measure 29
0001
0000
1000
0000
0001
0100
0000
0010
,  // measure 30
0000
1000
0000
0200
0000
0300
0000
0000
,  // measure 31
0010
0000
0001
0000
1000
0100
0000
1000
,  // measure 32
0000
0001
0000
0200
0000
0300
0000
0000
,  // measure 33
0020
0000
0230
0000
,  // measure 34
0302
0000
0000
0003
,  // measure 35
2000
0000
3002
0000
,  // measure 36
0203
0000
0000
0310
,  // measure 37
0001
1000
0010
0100
,  // measure 38
0001
1000
0100
1000
,  // measure 39
0001
0000
1000
0100
0000
0100
1000
0000
,  // measure 40
0010
0000
0001
0100
0000
0100
0001
0000
,  // measure 41
1000
0000
0001
0100
0000
0010
0000
2000
,  // measure 42
0000
0000
0000
0000
0000
3000
0000
0000
,  // measure 43
0010
0100
0010
0000
0000
0000
0000
0000
,  // measure 44
2000
3100
0002
0013
,  // measure 45
1000
0010
0100
0001
,  // measure 46
0020
0130
2000
3001
,  // measure 47
0100
0010
1000
0001
,  // measure 48
0100
0000
0010
1000
0000
1000
0100
0000
,  // measure 49
0010
0000
0001
0100
0000
0010
1000
0000
,  // measure 50
0001
0000
1000
0001
0000
0010
0100
0001
,  // measure 51
1000
0100
0010
0001
,  // measure 52
2000
3010
0200
0301
,  // measure 53
0010
0100
0010
0100
,  // measure 54
0002
0013
2000
3100
,  // measure 55
0001
0100
0001
0010
,  // measure 56
0002
0010
0010
0013
,  // measure 57
2000
0100
0100
3100
,  // measure 58
0001
0000
1000
0001
0000
0100
0010
1000
,  // measure 59
0000
0001
0001
0000
0000
0000
0000
0000
,  // measure 60
2000
0000
3001
0000
0010
0100
0000
0020
,  // measure 61
0000
0100
0100
0130
,  // measure 62
1000
1001
0001
1001
,  // measure 63
0010
0110
0100
0110
,  // measure 64
0001
0011
1000
1100
,  // measure 65
0010
0001
0100
0010
,  // measure 66
1000
1001
0001
1001
,  // measure 67
0010
1010
1000
1010
,  // measure 68
0100
0101
1000
1100
,  // measure 69
0010
0001
0100
0010
,  // measure 70
2000
0100
0000
3100
,  // measure 71
0002
0100
0000
0103
,  // measure 72
1000
0100
1000
0010
0000
0100
0001
0020
,  // measure 73
0000
0000
0000
0130
0000
0000
0000
0000
;

//---------------dance-single - ----------------
#NOTES:
     dance-single:
     :
     Easy:
     3:
     0.210131,0.335350,0.166519,0.129515,0.000000,159.000000,141.000000,18.000000,14.000000,0.000000,0.000000,0.210131,0.335350,0.166519,0.129515,0.000000,159.000000,141.000000,18.000000,14.000000,0.000000,0.000000:
// measure 0
0000
0000
0000
0000
,  // measure 1
0000
0000
0000
0000
,  // measure 2
0000
0000
0000
0000
,  // measure 3
0000
0000
0000
0000
,  // measure 4
0000
0000
0000
0000
,  // measure 5
1000
0000
0001
0000
,  // measure 6
1000
0000
0001
0000
,  // measure 7
0100
0000
0010
0000
,  // measure 8
0100
0000
0010
0000
,  // measure 9
1000
1000
0001
0000
,  // measure 10
0001
0001
1000
0000
,  // measure 11
0010
0000
0100
0000
,  // measure 12
0010
0000
0000
0000
,  // measure 13
1000
0001
1000
0000
,  // measure 14
0001
1000
0001
0000
,  // measure 15
0010
0000
0100
0000
,  // measure 16
0001
0000
1000
0000
,  // measure 17
0001
0100
0001
0000
,  // measure 18
0100
0001
0100
0000
,  // measure 19
0010
0000
1000
0000
,  // measure 20
0001
0000
0100
0000
,  // measure 21
0010
1000
0100
0000
,  // measure 22
0010
0001
0100
0000
,  // measure 23
0010
0000
0100
0000
,  // measure 24
0001
0000
1000
0000
,  // measure 25
0100
0010
0001
0000
,  // measure 26
0001
1000
0100
0000
,  // measure 27
1000
0000
0001
0000
,  // measure 28
0100
0000
0010
0000
,  // measure 29
1000
1000
1000
0000
,  // measure 30
0001
0001
0001
0000
,  // measure 31
0100
0100
0100
0000
,  // measure 32
0010
0010
0010
0000
,  // measure 33
0200
0000
0000
0300
,  // measure 34
0020
0000
0000
0030
,  // measure 35
2000
0000
0000
3000
,  // measure 36
0002
0000
0000
0003
,  // measure 37
1000
0100
1000
0000
,  // measure 38
0010
0001
0010
0000
,  // measure 39
0002
0000
1003
0000
,  // measure 40
2000
0000
3001
0000
,  // measure 41
0010
0000
0100
0000
,  // measure 42
0220
0000
0000
0330
,  // measure 43
0010
0100
0000
0000
,  // measure 44
1001
1001
0000
0000
,  // measure 45
0110
0110
0000
0000
,  // measure 46
1001
0110
0000
0000
,  // measure 47
0110
1001
0000
0000
,  // measure 48
0001
0100
0010
0000
,  // measure 49
1000
0010
0100
0000
,  // measure 50
0001
0000
1000
0000
,  // measure 51
0100
0000
0000
0000
,  // measure 52
1001
0110
0000
0000
,  // measure 53
0110
1001
0000
0000
,  // measure 54
1001
1001
0000
0000
,  // measure 55
0010
0000
0100
0000
,  // measure 56
0002
0000
0000
0003
,  // measure 57
2000
0000
0000
3000
,  // measure 58
0001
0100
0001
0000
,  // measure 59
1001
0000
0000
0000
,  // measure 60
1001
0000
0000
0000
,  // measure 61
0220
0000
0000
0330
,  // measure 62
0001
0001
0000
0000
,  // measure 63
1000
1000
0000
0000
,  // measure 64
0010
0010
0000
0000
,  // measure 65
0100
0000
0010
0000
,  // measure 66
1000
0100
0000
0000
,  // measure 67
0010
0001
0000
0000
,  // measure 68
0001
0100
0000
0000
,  // measure 69
0010
0000
1000
0000
,  // measure 70
0002
0000
0000
0003
,  // measure 71
2000
0000
0000
3000
,  // measure 72
0010
0000
0100
0000
;
