#VERSION:0.83;
#TITLE:魅惑のYUMMYスイーツ;
#SUBTITLE:;
#ARTIST:BEMANI Sound Team "TATSUYA";
#TITLETRANSLIT:ENCHANTING YUMMY SWEETS;
#SUBTITLETRANSLIT:;
#ARTISTTRANSLIT:;
#GENRE:;
#ORIGIN:;
#CREDIT:;
#BANNER:enchanting yummy sweets.png;
#BACKGROUND:enchanting yummy sweets-bg.jpg;
#PREVIEWVID:;
#JACKET:enchanting yummy sweets-jacket.png;
#CDIMAGE:;
#DISCIMAGE:;
#LYRICSPATH:;
#CDTITLE:cdtitle.png;
#MUSIC:ENCHANTING YUMMY SWEETS.mp3;
#OFFSET:-0.147000;
#SAMPLESTART:72.736816;
#SAMPLELENGTH:15.000000;
#SELECTABLE:YES;
#BPMS:0.000=208.000;
#STOPS:;
#DELAYS:;
#WARPS:;
#TIMESIGNATURES:0.000=4=4;
#TICKCOUNTS:0.000=4;
#COMBOS:0.000=1;
#SPEEDS:0.000=1.000=0.000=0;
#SCROLLS:0.000=1.000,
188.000=0.250,
212.000=1.000,
224.000=2.000,
226.000=1.000,
228.000=2.000,
230.000=1.000,
232.000=2.000,
236.000=0.250,
246.000=1.000,
252.000=2.000,
402.000=1.000;
#FAKES:;
#LABELS:0.000=Song Start;
#BGCHANGES:3.000=enchanting yummy sweets-pv.mp4=1.000=0=0=1=====,
99999=-nosongbg-=1.000=0=0=0 // don't automatically add -songbackground-
;
#KEYSOUNDS:;
#ATTACKS:
;

//---------------dance-single - ----------------
#NOTEDATA:;
#CHARTNAME:;
#STEPSTYPE:dance-single;
#DESCRIPTION:;
#CHARTSTYLE:;
#DIFFICULTY:Easy;
#METER:5;
#RADARVALUES:0.392166,0.572041,0.293558,0.190416,0.000000,346.000000,309.000000,37.000000,24.000000,0.000000,0.000000,0.000000,0.000000,0.000000,0.392166,0.572041,0.293558,0.190416,0.000000,346.000000,309.000000,37.000000,24.000000,0.000000,0.000000,0.000000,0.000000,0.000000;
#CREDIT:RYUKINON;
#OFFSET:-0.147000;
#BPMS:0.000000=208.000000
;
#STOPS:;
#DELAYS:;
#WARPS:;
#TIMESIGNATURES:0.000000=4=4
;
#TICKCOUNTS:0.000000=4
;
#COMBOS:0.000000=1
;
#SPEEDS:0.000000=1.000000=0.000000=0
;
#SCROLLS:0.000000=1.000000
;
#FAKES:;
#LABELS:0.000000=Song Start
;
#NOTES:
// measure 0
0000
0000
0000
0000
,  // measure 1
0000
0000
0000
0000
,  // measure 2
0000
0000
0000
0000
,  // measure 3
2002
0000
0000
0000
,  // measure 4
0000
0000
0000
0000
,  // measure 5
0000
0000
0000
0000
,  // measure 6
3003
0000
0000
0000
,  // measure 7
1000
0001
0100
0001
,  // measure 8
1000
0010
0100
0001
,  // measure 9
1000
0100
1000
0010
,  // measure 10
0100
0001
0010
0001
,  // measure 11
0100
0010
1000
0001
,  // measure 12
1000
0100
1000
0001
,  // measure 13
0010
0010
0100
0100
,  // measure 14
1000
0001
1000
0001
,  // measure 15
0100
0010
0100
0010
,  // measure 16
1000
0001
1000
0001
,  // measure 17
0100
0001
0010
0001
,  // measure 18
1000
0100
1000
0010
,  // measure 19
0100
0001
0010
0001
,  // measure 20
0100
0010
1000
0100
,  // measure 21
1000
1000
0001
0001
,  // measure 22
0100
0010
1000
0001
,  // measure 23
2000
0100
0100
3100
,  // measure 24
0002
0100
0100
0103
,  // measure 25
2000
0010
0010
3010
,  // measure 26
0002
0010
0010
0013
,  // measure 27
0200
0001
0001
0301
,  // measure 28
0020
1000
1000
1030
,  // measure 29
0100
0100
0010
0010
,  // measure 30
0100
0010
1000
0001
,  // measure 31
0100
0001
0010
0001
,  // measure 32
1000
0100
1000
0010
,  // measure 33
0100
0001
0010
0001
,  // measure 34
0100
0010
0100
0001
,  // measure 35
1000
0010
0100
0001
,  // measure 36
1000
0100
1000
0010
,  // measure 37
0100
0100
0001
0001
,  // measure 38
0010
0100
1000
0001
,  // measure 39
2000
0000
0000
0000
,  // measure 40
3010
0000
0000
0000
,  // measure 41
0002
0000
0000
0000
,  // measure 42
0103
0000
0010
0000
,  // measure 43
2000
0000
0000
0000
,  // measure 44
3100
0000
0010
0000
,  // measure 45
0001
0010
0100
1000
,  // measure 46
0100
0010
0001
1000
,  // measure 47
0002
0000
0000
0000
,  // measure 48
0023
0000
0000
0000
,  // measure 49
0230
0000
0000
0000
,  // measure 50
2300
0000
0000
0000
,  // measure 51
3002
0000
0000
0000
,  // measure 52
2003
0000
0000
0000
,  // measure 53
3020
0000
0000
0000
,  // measure 54
0230
0000
0000
0000
,  // measure 55
0302
0000
0000
0000
,  // measure 56
2003
0000
0000
0000
,  // measure 57
0002
0000
0000
0000
,  // measure 58
0000
0000
0000
0000
,  // measure 59
3003
0000
0000
0000
,  // measure 60
0000
0000
0000
0000
,  // measure 61
0110
0000
0000
0000
,  // measure 62
0000
0000
0000
0000
,  // measure 63
0001
1000
0001
0100
,  // measure 64
0010
1000
0100
1000
,  // measure 65
0001
0110
1000
0110
,  // measure 66
0001
0110
0110
0110
,  // measure 67
1000
0010
0100
0001
,  // measure 68
1000
0001
0100
0010
,  // measure 69
0100
1001
0010
1001
,  // measure 70
0100
1001
1001
1001
,  // measure 71
0100
0010
0001
0100
,  // measure 72
0010
1000
0001
0100
,  // measure 73
0010
1001
0100
1001
,  // measure 74
0010
1001
1001
1001
,  // measure 75
0100
0010
1000
0100
,  // measure 76
1000
0001
0100
0001
,  // measure 77
1000
0000
0010
0000
0100
0001
0000
1000
,  // measure 78
0000
0001
0100
0000
0110
0000
0000
0000
,  // measure 79
1000
0100
1000
0001
,  // measure 80
0100
0010
1000
0001
,  // measure 81
1000
1010
0001
0101
,  // measure 82
1000
1010
0101
1010
,  // measure 83
0001
0100
0010
1000
,  // measure 84
0100
0010
0001
1000
,  // measure 85
0001
0011
1000
1100
,  // measure 86
0001
0011
1100
0011
,  // measure 87
0100
0010
1000
0001
,  // measure 88
0100
0010
1000
0100
,  // measure 89
1000
1010
0001
0011
,  // measure 90
1000
1010
0011
1010
,  // measure 91
0100
0010
1000
0001
,  // measure 92
0010
0100
1000
0001
,  // measure 93
1000
0000
0100
0000
1000
0001
0000
0100
,  // measure 94
0000
0010
0100
0000
0110
0000
0000
0000
,  // measure 95
0001
0000
1000
0000
0001
0100
0000
0010
,  // measure 96
0000
1000
0100
0000
1100
0000
0000
0000
,  // measure 97
0010
0000
0001
0000
0100
0010
0000
0100
,  // measure 98
0000
0001
1000
0000
1001
0000
0000
0000
,  // measure 99
0001
0000
0100
0000
0010
1000
0000
0100
,  // measure 100
0000
0010
0001
0000
0022
0000
0000
0000
,  // measure 101
0000
0000
0000
0000
,  // measure 102
0000
0000
0000
0000
,  // measure 103
0033
0000
0000
0000
;

//---------------dance-single - ----------------
#NOTEDATA:;
#CHARTNAME:;
#STEPSTYPE:dance-single;
#DESCRIPTION:;
#CHARTSTYLE:;
#DIFFICULTY:Hard;
#METER:9;
#RADARVALUES:0.659655,1.021501,0.491907,0.349096,0.067439,582.000000,520.000000,62.000000,44.000000,0.000000,0.000000,0.000000,0.000000,0.000000,0.659655,1.021501,0.491907,0.349096,0.067439,582.000000,520.000000,62.000000,44.000000,0.000000,0.000000,0.000000,0.000000,0.000000;
#CREDIT:RYUKINON;
#NOTES:
// measure 0
0000
0000
0000
0000
,  // measure 1
0000
0000
0000
0000
,  // measure 2
0000
0000
0000
0000
,  // measure 3
0120
0000
0000
0000
,  // measure 4
0100
0100
0000
0000
,  // measure 5
0200
0000
0000
0000
,  // measure 6
0330
0000
0000
0000
,  // measure 7
1000
0000
0001
0100
0000
1000
0100
0000
,  // measure 8
1000
0001
0010
0001
0000
0100
0010
0100
,  // measure 9
0001
0000
1000
0010
0000
0001
0010
0000
,  // measure 10
0100
1000
0010
0100
0001
1000
0001
0000
,  // measure 11
1000
0000
0001
0100
0000
0010
1000
0000
,  // measure 12
0100
0010
0001
0010
0000
0100
1000
0100
,  // measure 13
0020
0031
0002
1003
,  // measure 14
2000
3010
0020
0130
,  // measure 15
0001
0100
0001
0100
0001
0010
0001
0010
,  // measure 16
0001
0100
0001
0010
0001
0100
0001
0000
,  // measure 17
1000
0100
0010
0001
1000
0100
0010
0001
,  // measure 18
1000
0100
0010
0100
1000
0100
0010
0000
,  // measure 19
0001
1000
0001
1000
0001
0100
0001
0100
,  // measure 20
0001
1000
0001
0100
0001
1000
0001
0100
,  // measure 21
0020
1030
2000
3100
,  // measure 22
0200
0310
0020
0031
,  // measure 23
0011
0010
0110
0100
,  // measure 24
1100
0000
1000
0000
1001
0000
1000
0010
,  // measure 25
1010
0010
0110
0100
,  // measure 26
0101
0000
0001
0000
0011
0000
0001
0100
,  // measure 27
0101
0100
0110
0100
,  // measure 28
1100
0000
1000
0000
1001
0000
0001
0010
,  // measure 29
0200
0310
0002
1003
,  // measure 30
0020
0230
0302
2003
,  // measure 31
3001
0100
0001
0010
0001
0100
0001
1000
,  // measure 32
0001
0100
0001
0010
0100
1000
0100
0000
,  // measure 33
0010
0001
0010
0100
0010
0001
1000
0010
,  // measure 34
0100
0001
1000
0010
0100
0001
1000
0000
,  // measure 35
0010
0100
0010
0100
0001
1000
0001
1000
,  // measure 36
0001
0010
0100
1000
0001
0010
0100
1000
,  // measure 37
0200
0310
0002
1003
,  // measure 38
0020
0230
0302
2003
,  // measure 39
3002
0000
0000
0000
,  // measure 40
0103
0000
0000
0000
0010
0000
1000
0100
,  // measure 41
2000
0000
0000
0000
,  // measure 42
3001
0000
0000
0000
0100
0000
0001
1000
,  // measure 43
0200
0000
0000
0000
,  // measure 44
0310
0000
0000
0000
0001
0000
1000
0010
,  // measure 45
0200
0310
2000
3001
,  // measure 46
0020
0230
2300
3002
,  // measure 47
0203
0000
0000
0000
,  // measure 48
0320
0000
0000
0000
,  // measure 49
2030
0000
0000
0000
,  // measure 50
3002
0000
0000
0000
,  // measure 51
2003
0000
0000
0000
,  // measure 52
3002
0000
0000
0000
,  // measure 53
0100
0100
0100
0103
,  // measure 54
0010
1000
0010
1000
0010
0100
0010
1000
,  // measure 55
0010
1000
0010
0100
0010
1000
0010
0100
,  // measure 56
0010
1000
0010
1000
0010
1000
0010
1000
0010
0000
0100
0000
0010
0000
1000
0000
,  // measure 57
0100
0010
0100
0010
0100
0010
0100
0010
0100
0000
0010
0000
0001
0000
0100
0000
,  // measure 58
0010
0000
0000
1000
0000
0000
0100
0000
0001
0000
0000
0100
0000
0000
1000
0000
,  // measure 59
0001
0000
0000
0000
,  // measure 60
0000
0000
0000
0000
,  // measure 61
0000
0000
0000
0000
0000
0000
0000
0000
0001
0000
0000
0000
1000
0002
0000
0000
,  // measure 62
0000
0000
0000
0003
,  // measure 63
0010
0001
0100
0010
1000
0100
0010
0100
,  // measure 64
1000
0001
0100
0001
0010
0001
0100
0010
,  // measure 65
1000
0100
0110
0000
0001
1000
0110
0000
,  // measure 66
0001
1000
1100
0000
0101
0000
1100
0000
,  // measure 67
0001
0100
0001
0010
0001
0100
0010
1000
,  // measure 68
0100
0010
0001
0100
0010
1000
0100
1000
,  // measure 69
0100
0010
1001
0000
0010
0100
1001
0000
,  // measure 70
0010
0001
0101
0000
0011
0000
1001
0000
,  // measure 71
1000
0100
0010
0100
1000
0001
0100
0010
,  // measure 72
1000
0100
0010
0001
1000
0001
0100
0010
,  // measure 73
1000
0100
0110
0000
0001
0100
0110
0000
,  // measure 74
1000
0100
1100
0000
0110
0000
0011
0000
,  // measure 75
0001
1000
0001
0100
0001
0010
0001
1000
,  // measure 76
0100
0010
0001
1000
0100
0010
0001
1000
,  // measure 77
1001
0000
0110
0000
0001
1000
0000
1100
,  // measure 78
0000
0010
0001
0000
0022
0000
0033
0000
,  // measure 79
0001
0000
0100
0000
0010
0000
1000
0000
0100
0000
0010
0000
0001
0000
1000
0100
,  // measure 80
1000
0010
0100
0001
0010
0001
1000
0001
,  // measure 81
0100
0010
0110
0000
0010
0100
0110
0000
,  // measure 82
0010
1000
1100
0000
0011
0000
1100
0000
,  // measure 83
1000
0000
1000
0000
0100
0000
0100
0000
0010
0000
0010
0000
0001
0000
0001
0010
,  // measure 84
0100
0100
1000
0010
0100
0001
1000
0001
,  // measure 85
0100
0010
0110
0000
0001
1000
1001
0000
,  // measure 86
0010
1000
1010
0000
0011
0000
1010
0000
,  // measure 87
1000
0000
0100
0000
1000
0000
0010
0000
0100
0000
0001
0000
0010
0000
0001
0100
,  // measure 88
0010
1000
0100
0010
0100
1000
0010
0100
,  // measure 89
0001
0001
0011
0000
1000
1000
1100
0000
,  // measure 90
0010
0100
0110
0000
1001
0000
0110
0000
,  // measure 91
0001
0000
1000
0000
0001
0000
0100
0000
0001
0000
0010
0000
0001
0000
0100
0010
,  // measure 92
0100
0001
1000
0100
0010
0001
1000
0001
,  // measure 93
1001
0000
0101
0000
1000
0001
0000
0110
,  // measure 94
0000
0010
1000
0000
2020
0000
3030
0000
,  // measure 95
1001
0000
0110
0000
1000
0100
0000
1100
,  // measure 96
0000
0000
0001
0000
0100
0000
0000
0000
0101
0000
0100
0010
0100
0000
0001
0000
,  // measure 97
1000
0000
1001
0000
0010
0100
0000
0110
,  // measure 98
0000
0000
0001
0000
1000
0000
0000
0000
1100
0000
1000
0100
1000
0000
0001
0000
,  // measure 99
0101
0000
0110
0000
0010
1000
0000
1010
,  // measure 100
0000
0100
0001
0000
2002
0000
0000
0000
,  // measure 101
0000
0000
0000
0000
,  // measure 102
0000
0000
0000
0000
,  // measure 103
3003
0000
0000
0000
;

//---------------dance-single - ----------------
#NOTEDATA:;
#CHARTNAME:;
#STEPSTYPE:dance-single;
#DESCRIPTION:;
#CHARTSTYLE:;
#DIFFICULTY:Medium;
#METER:6;
#RADARVALUES:0.451104,0.653761,0.341162,0.420501,0.007934,398.000000,355.000000,43.000000,53.000000,0.000000,0.000000,0.000000,0.000000,0.000000,0.451104,0.653761,0.341162,0.420501,0.007934,398.000000,355.000000,43.000000,53.000000,0.000000,0.000000,0.000000,0.000000,0.000000;
#CREDIT:RYUKINON;
#OFFSET:-0.147000;
#BPMS:0.000000=208.000000
;
#STOPS:;
#DELAYS:;
#WARPS:;
#TIMESIGNATURES:0.000000=4=4
;
#TICKCOUNTS:0.000000=4
;
#COMBOS:0.000000=1
;
#SPEEDS:0.000000=1.000000=0.000000=0
;
#SCROLLS:0.000000=1.000000
,236.000000=0.250000
,246.000000=1.000000
;
#FAKES:;
#LABELS:0.000000=Song Start
;
#NOTES:
// measure 0
0000
0000
0000
0000
,  // measure 1
0000
0000
0000
0000
,  // measure 2
0000
0000
0000
0000
,  // measure 3
0220
0000
0000
0000
,  // measure 4
0000
0000
0000
0000
,  // measure 5
0000
0000
0000
0000
,  // measure 6
0330
0000
0000
0000
,  // measure 7
1000
0100
1000
0010
,  // measure 8
0100
0001
0100
0010
,  // measure 9
1000
0001
1000
0010
,  // measure 10
0100
0001
0100
0001
,  // measure 11
0010
0001
0100
0010
,  // measure 12
1000
0100
1000
0001
,  // measure 13
2000
3100
0002
0103
,  // measure 14
0020
0230
0302
2003
,  // measure 15
3001
1000
0001
1000
,  // measure 16
0010
0100
0010
0100
,  // measure 17
0001
0100
0001
0100
,  // measure 18
0010
1000
0010
1000
,  // measure 19
0001
0010
0100
1000
,  // measure 20
0001
0010
0100
1000
,  // measure 21
0002
0103
2000
3100
,  // measure 22
0020
0032
0203
0320
,  // measure 23
1030
1000
1000
1000
,  // measure 24
0001
0000
0001
0000
0001
0000
0001
0100
,  // measure 25
0010
0010
0010
0010
,  // measure 26
0100
0000
0100
0000
0100
0000
0100
0001
,  // measure 27
1000
0100
0010
0001
,  // measure 28
1000
0100
0010
0001
,  // measure 29
2000
3010
0002
0013
,  // measure 30
2000
3002
0203
0320
,  // measure 31
1030
0100
0010
0100
,  // measure 32
1000
0100
0010
0100
,  // measure 33
1000
0010
0100
0001
,  // measure 34
1000
0010
0100
0001
,  // measure 35
0010
0001
0100
0010
,  // measure 36
1000
0001
0100
0010
,  // measure 37
2000
3001
0020
0130
,  // measure 38
2000
3002
0203
0320
,  // measure 39
2030
0000
0000
0000
,  // measure 40
3100
0000
0000
0000
0010
0000
0001
0100
,  // measure 41
0020
0000
0000
0000
,  // measure 42
0130
0000
0000
0000
0001
0000
1000
0100
,  // measure 43
2000
0000
0000
0000
,  // measure 44
3001
0000
0000
0000
0100
0000
0010
1000
,  // measure 45
0200
0310
0002
1003
,  // measure 46
0020
0230
0302
2003
,  // measure 47
3200
0000
0000
0000
,  // measure 48
2300
0000
0000
0000
,  // measure 49
3002
0000
0000
0000
,  // measure 50
0203
0000
0000
0000
,  // measure 51
0320
0000
0000
0000
,  // measure 52
2030
0000
0000
0000
,  // measure 53
3001
0100
0001
0100
,  // measure 54
0010
0010
0010
0010
,  // measure 55
0010
0010
0010
0010
,  // measure 56
1000
0010
1000
0010
1000
0010
1000
0000
,  // measure 57
0001
0100
0001
0100
0001
0100
0001
0100
,  // measure 58
0001
0000
0000
0100
0000
0000
0010
0000
1000
0000
0000
0001
0000
0000
0100
0000
,  // measure 59
0010
0000
0000
0000
,  // measure 60
0000
0000
0000
0000
,  // measure 61
0000
0000
2002
0000
,  // measure 62
0000
0000
3003
0000
,  // measure 63
0010
0100
0010
0010
,  // measure 64
1000
0001
1000
1000
,  // measure 65
0001
0011
1000
1100
,  // measure 66
0001
0011
0110
1100
,  // measure 67
0010
0001
0100
0100
,  // measure 68
0001
1000
0010
0010
,  // measure 69
1000
1010
0001
0101
,  // measure 70
1000
1010
0101
1001
,  // measure 71
0010
0001
0100
0010
,  // measure 72
1000
0100
0010
0001
,  // measure 73
1000
1001
0001
1001
,  // measure 74
0010
0110
1001
0110
,  // measure 75
0001
1000
0001
1000
,  // measure 76
0010
0100
0010
0100
,  // measure 77
0001
0000
1000
0000
0001
0100
0000
0001
,  // measure 78
0000
1000
0100
0000
2200
0000
3300
0000
,  // measure 79
0010
0001
0010
0001
,  // measure 80
0100
0010
0100
0010
,  // measure 81
1000
1100
0001
0101
,  // measure 82
1000
1100
0101
1100
,  // measure 83
0001
0100
0010
1000
,  // measure 84
0100
0010
0001
1000
,  // measure 85
0001
0011
1000
1010
,  // measure 86
0001
0011
1010
0011
,  // measure 87
0100
0000
0010
0000
0100
0010
0100
0000
,  // measure 88
0001
0000
1000
0000
0001
1000
0001
0000
,  // measure 89
0010
0110
1000
1001
,  // measure 90
0100
0110
1001
0110
,  // measure 91
0001
0100
0001
0100
0010
0010
0000
1000
,  // measure 92
0000
0001
1000
0001
0100
0010
1000
0100
,  // measure 93
1000
0000
1001
0000
0001
1000
0000
0010
,  // measure 94
0000
0100
0001
0000
0202
0000
0303
0000
,  // measure 95
1000
0000
1010
0000
0100
0010
0000
1000
,  // measure 96
0000
0001
0100
0000
0220
0000
0330
0000
,  // measure 97
1000
0000
1001
0000
0001
0100
0000
0010
,  // measure 98
0000
1000
0001
0000
0022
0000
0033
0000
,  // measure 99
1001
0000
1001
0000
0010
0100
0000
0110
,  // measure 100
0000
0001
1000
0000
2002
0000
0000
0000
,  // measure 101
0000
0000
0000
0000
,  // measure 102
0000
0000
0000
0000
,  // measure 103
3003
0000
0000
0000
;
