#VERSION:0.83;
#TITLE:Aegleseeker;
#SUBTITLE:;
#ARTIST:Silentroom vs Frums;
#TITLETRANSLIT:;
#SUBTITLETRANSLIT:;
#ARTISTTRANSLIT:;
#GENRE:;
#ORIGIN:;
#CREDIT:;
#BANNER:aegleseeker.png;
#BACKGROUND:aegleseeker-bg.jpg;
#PREVIEWVID:;
#JACKET:aegleseeker-jacket.png;
#CDIMAGE:;
#DISCIMAGE:;
#LYRICSPATH:;
#CDTITLE:cdtitle.png;
#MUSIC:Aegleseeker.mp3;
#OFFSET:-0.847000;
#SAMPLESTART:97.077095;
#SAMPLELENGTH:14.999999;
#SELECTABLE:YES;
#DISPLAYBPM:*;
#BPMS:0.000=234.000;
#STOPS:;
#DELAYS:;
#WARPS:;
#TIMESIGNATURES:0.000=4=4;
#TICKCOUNTS:0.000=4;
#COMBOS:0.000=1;
#SPEEDS:0.000=1.000=0.000=0;
#SCROLLS:0.000=1.000;
#FAKES:;
#LABELS:0.000=Song Start;
#BGCHANGES:;
#KEYSOUNDS:;
#ATTACKS:
;

//---------------pump-single - ----------------
#NOTEDATA:;
#CHARTNAME:;
#STEPSTYPE:pump-single;
#DESCRIPTION:;
#CHARTSTYLE:;
#DIFFICULTY:Easy;
#METER:11;
#RADARVALUES:0.421553,0.620733,0.219817,0.313072,0.033306,443.000000,410.000000,33.000000,47.000000,0.000000,0.000000,0.000000,0.000000,0.000000,0.421553,0.620733,0.219817,0.313072,0.033306,443.000000,410.000000,33.000000,47.000000,0.000000,0.000000,0.000000,0.000000,0.000000;
#CREDIT:RYUKINON;
#OFFSET:-0.847000;
#BPMS:0.000000=117.000000
,28.000000=234.000000
,276.000000=117.000000
,308.000000=234.000000
;
#STOPS:28.000000=1.960000
;
#DELAYS:;
#WARPS:;
#TIMESIGNATURES:0.000000=4=4
;
#TICKCOUNTS:0.000000=4
;
#COMBOS:0.000000=1
;
#SPEEDS:0.000000=1.000000=0.000000=0
;
#SCROLLS:0.000000=1.000000
,156.000000=0.500000
,220.000000=1.000000
,304.000000=0.500000
,308.000000=1.000000
,420.000000=0.500000
,436.000000=1.000000
;
#FAKES:;
#LABELS:0.000000=Song Start
;
#DISPLAYBPM:*;
#NOTES:
00000
00000
00000
00000
,
00000
00000
00000
00000
,
00000
00000
00000
00000
,
00000
00000
00000
00000
,
00010
00000
01000
00000
,
00100
00000
10000
00000
,
00010
00000
00100
00001
,
20002
00000
00000
00000
,
00000
00000
00000
00000
,
00000
00000
00000
00000
,
00000
00000
00000
30003
,
02020
00000
00000
00000
,
00000
00000
00000
00000
,
00000
00000
00000
00000
,
00000
00000
00000
03030
,
00100
00000
01000
00010
00000
00010
01000
00000
,
00100
00000
10000
00001
00000
00001
10000
00000
,
00010
00000
00100
00001
00000
00001
01000
00000
,
00100
00000
10000
00010
00000
00010
10000
00000
,
00200
00000
00000
01300
00000
00000
01100
00000
,
20000
00000
00000
30001
00000
00000
10001
00000
,
02000
00000
00000
03010
00000
00000
01010
00000
,
00100
00000
00001
10000
00000
00110
00000
00000
,
02000
00000
00100
00000
,
00000
00000
00100
00000
,
00000
00000
00100
00000
,
00000
00000
00100
03000
,
00020
00000
00100
00000
,
00000
00000
00100
00000
,
00000
00000
00100
00000
,
00000
00000
00100
00030
,
10000
00000
00001
01000
00000
01000
00100
00000
,
10000
00000
00010
00100
00000
00100
00001
00000
,
01000
00000
00010
00100
00000
00001
01000
00000
,
00100
00000
10000
00010
00000
00100
00001
00000
,
02000
00000
03000
00100
00000
00000
01100
00000
,
00020
00000
00030
00100
00000
00000
00110
00000
,
20000
00000
30000
00100
00000
00000
10100
00000
,
01000
00010
00200
00000
00000
00000
00300
00000
,
00010
00100
00001
00000
,
01000
00100
10000
00000
,
00010
01000
00100
00000
,
10000
00001
00100
00010
,
01000
00100
01000
00000
,
00010
00100
00010
00000
,
10000
00100
10000
00000
,
00001
00100
00001
00000
,
01000
00010
00100
00001
,
01000
00100
10000
00010
,
01000
00100
10000
00001
,
01000
00100
10000
00001
,
01000
00100
00010
00100
,
01000
00100
00010
00100
,
01000
00100
00010
00100
,
00001
00100
10000
00100
,
02000
00100
03100
00002
,
00100
00103
20000
00100
,
30100
00020
00100
00130
,
02000
00100
03001
00020
,
10000
00130
02000
00100
,
03010
20000
00001
30100
,
00020
00100
01030
00200
,
10000
10300
00002
01000
,
01003
20000
00010
30010
,
00002
01000
01003
10000
,
10000
10000
00001
00001
,
00001
01000
01000
01000
,
00020
00000
00000
20030
00000
00000
30000
00002
,
00000
00000
00000
02003
00000
00000
00000
00000
,
03100
00000
00000
00010
00000
00000
00000
00000
01000
00000
00000
00100
00000
00000
00000
00000
,
10000
00000
00000
00001
00000
00000
00000
00000
00000
00000
00000
00000
00000
00000
01000
00000
,
00100
00000
00000
10000
00000
00000
00000
00000
00001
00000
00000
01000
00000
00000
00000
00000
,
00200
00000
00000
00300
,
10000
00000
00000
00001
00000
00000
00000
00000
00100
00000
00000
00010
00000
00000
00000
00000
,
01000
00000
00000
00100
00000
00000
00000
00000
00000
00000
00000
00000
00000
00000
00010
00000
,
10000
00000
00000
00100
00000
00000
00000
00000
01000
00000
00000
00010
00000
00000
00000
00000
,
02020
00000
00000
03030
,
10001
00000
00000
01001
00000
00000
00100
00000
,
10010
00000
00000
10001
00000
00000
00100
00000
,
01010
00000
00000
01001
00000
00000
00100
00000
,
00010
01000
00100
10000
,
10010
00000
00000
01001
00000
00000
00100
00000
,
01010
00000
00000
10001
00000
00000
00100
00000
,
01000
00100
10000
00010
,
00100
00001
01000
00100
,
01010
00000
00000
00011
00000
00000
00100
00000
,
01010
00000
00000
11000
00000
00000
00100
00000
,
01100
00000
00000
00110
00000
00000
01000
00000
,
00100
10000
00001
01000
,
01001
00000
00000
00110
00000
00000
10000
00000
,
10010
00000
00000
01100
00000
00000
00010
00000
,
02000
00100
00100
03100
,
00010
00100
00010
00100
00001
00100
00001
00100
,
00020
00000
00000
00130
00000
00000
00000
00000
,
20000
00000
00000
30100
00000
00000
00000
00000
,
00001
00100
00010
01000
,
00100
10000
00001
01000
,
00100
10000
00010
01000
,
00100
10000
00001
01000
,
00010
00100
00001
01000
,
00100
10000
00010
01000
,
00001
00100
00001
00100
00001
00100
00001
00000
,
10000
00100
10000
00100
10000
00100
10000
00000
,
00010
00100
00010
00100
00010
00100
00010
00000
,
01000
00100
01000
00100
01000
00100
01000
00000
,
00020
00000
00030
00110
00000
00000
00000
00000
,
02000
00000
03000
01100
00000
00000
00000
00000
,
01020
00000
00000
00000
,
00100
00100
00100
00130
,
10000
00000
00001
00000
01000
00100
10000
00000
,
00010
00000
00100
00000
00001
01000
00100
00000
,
10000
00000
00100
00000
01000
00010
00100
00000
,
00001
00000
01000
00000
00100
10000
00010
00000
,
01000
00000
00001
00000
00100
00010
01000
00000
,
00100
00000
10000
00000
00010
00100
00010
00000
,
01000
00000
00100
00000
10000
00001
10000
00000
,
00010
00100
00001
01000
00100
10000
00010
01000
,
00200
00000
00000
00300
,
00000
00000
00000
00000
00000
20000
00000
00000
,
32000
00000
03200
00000
00000
00320
00000
00030
,
00002
00000
00000
10003
,
00010
00000
01000
00000
00100
10000
00001
00000
,
01000
00000
00100
00000
10000
00010
00100
00001
,
10000
01000
00100
00010
01000
00100
00010
00002
,
20000
30003
00000
00000
;

//---------------dance-single - ----------------
#NOTEDATA:;
#CHARTNAME:;
#STEPSTYPE:dance-single;
#DESCRIPTION:;
#CHARTSTYLE:;
#DIFFICULTY:Hard;
#METER:10;
#RADARVALUES:0.867848,1.176103,0.106578,0.299750,0.399667,912.000000,896.000000,16.000000,45.000000,0.000000,0.000000,0.000000,0.000000,0.000000,0.867848,1.176103,0.106578,0.299750,0.399667,912.000000,896.000000,16.000000,45.000000,0.000000,0.000000,0.000000,0.000000,0.000000;
#CREDIT:RYUKINON;
#OFFSET:-0.707000;
#BPMS:0.000000=234.000000
;
#STOPS:;
#DELAYS:;
#WARPS:;
#TIMESIGNATURES:0.000000=4=4
;
#TICKCOUNTS:0.000000=4
;
#COMBOS:0.000000=1
;
#SPEEDS:0.000000=1.000000=0.000000=0
;
#SCROLLS:0.000000=0.500000
,56.000000=0.100000
,64.000000=1.000000
,126.500000=0.250000
,128.000000=1.000000
,312.000000=0.250000
,368.000000=0.100000
,376.000000=1.000000
,440.000000=0.250000
,448.000000=1.000000
;
#FAKES:;
#LABELS:0.000000=Song Start
;
#DISPLAYBPM:*;
#NOTES:
// measure 0
0000
0000
0000
0000
,  // measure 1
0000
0000
0000
0000
,  // measure 2
0000
0000
0000
0000
,  // measure 3
0000
0000
0000
0000
,  // measure 4
0000
0000
0000
0000
,  // measure 5
0000
0000
0000
0000
,  // measure 6
0000
0000
0000
0000
,  // measure 7
0000
0000
0000
0000
,  // measure 8
1000
0000
0000
0000
3000
0100
0000
0000
,  // measure 9
0010
0000
0000
0001
0000
0100
0000
0010
,  // measure 10
1000
0000
0000
0100
0000
0010
0000
1000
,  // measure 11
0001
0000
0000
0001
0000
0100
0000
0010
,  // measure 12
1000
0000
0000
0001
0000
1000
0000
0010
,  // measure 13
0100
0000
0000
0001
0000
1000
0000
0010
,  // measure 14
0130
0000
0000
0000
,  // measure 15
0000
0000
0000
0000
,  // measure 16
0220
0000
0000
0000
,  // measure 17
0000
0000
0000
0000
,  // measure 18
0000
0000
0000
0330
,  // measure 19
1000
0000
0001
0100
0001
0000
0010
0000
1000
0000
0100
0000
1000
0000
0000
0000
,  // measure 20
2002
0000
0000
0000
,  // measure 21
0000
0000
0000
0000
,  // measure 22
0000
0000
0000
3003
,  // measure 23
0010
0000
1000
0100
1000
0000
0010
0000
0100
0000
0001
0000
0010
0000
0000
0000
,  // measure 24
0001
0010
0001
0000
1000
0000
0010
0100
0010
0000
1000
0000
0100
0000
0000
0000
,  // measure 25
0010
0001
0100
0000
0010
0000
0100
0010
1000
0000
0100
0000
1000
0000
0000
0000
,  // measure 26
0001
0100
0001
0000
0010
0000
1000
0100
1000
0000
0010
0000
0100
0000
0000
0000
,  // measure 27
0001
1000
0001
0000
0100
0000
0010
1000
0100
0000
0010
0000
0001
0000
0100
0000
,  // measure 28
0010
0100
0010
0000
1000
0000
0001
0010
0001
0000
0010
0000
0100
0000
1000
0000
,  // measure 29
0010
0001
0010
0000
0100
0000
0010
0001
3010
0000
0100
0000
1000
0000
0001
0000
,  // measure 30
0100
0010
0100
0000
1000
0000
0100
0001
0010
0000
0100
0000
1000
0000
0001
0000
,  // measure 31
1000
0100
1000
3100
1000
0100
1000
0000
0000
0000
2002
0000
3003
0000
3003
0000
,  // measure 32
3113
0000
0001
0000
0010
0000
0100
0000
1000
0000
0000
0100
0000
0000
1100
0000
,  // measure 33
0010
0000
0001
0000
0100
0000
0010
0000
1000
0000
0000
0010
0000
0000
1010
0000
,  // measure 34
0100
0000
0010
0000
1000
0000
0001
0000
0100
0000
0000
0010
0000
0000
0110
0000
,  // measure 35
1000
0000
0100
0000
0010
0000
0001
0000
1000
0001
1000
0001
1000
0000
0000
0000
,  // measure 36
1001
0000
0010
0000
0100
0000
0010
0000
1000
0000
0000
0100
0000
0000
1001
0000
,  // measure 37
0010
0000
0100
0000
0001
0000
1000
0000
0100
0000
0000
0010
0000
0000
0110
0000
,  // measure 38
0001
0000
1000
0000
0010
0000
0100
0000
0010
0000
0000
1000
0000
0000
1001
0000
,  // measure 39
0100
0000
0010
0000
0001
0000
1000
0000
0100
0010
0100
0010
0100
0000
0000
0000
,  // measure 40
0001
1000
0001
0000
0100
0000
0010
1000
3010
0000
0100
0000
0010
0000
1000
0000
,  // measure 41
0100
0010
0100
0000
0001
0000
1000
0100
1000
0000
0010
0000
0100
0000
0001
0000
,  // measure 42
1000
0001
1000
0000
0010
0000
0100
0001
1000
0000
0100
0000
0010
0000
0001
0000
,  // measure 43
1000
0001
0100
0000
0010
0000
0100
0001
1000
0000
0100
0000
0010
0000
0031
0000
,  // measure 44
1000
0010
0100
0000
0001
0000
0010
0001
0100
0000
0010
0000
1000
0000
0100
0000
,  // measure 45
1000
0100
1000
0000
0010
0000
0100
0001
0100
0000
0010
0000
1000
0000
0100
0000
,  // measure 46
1000
0001
0100
0000
0010
0000
1000
0001
0010
0000
0001
0000
0100
0000
0010
0000
,  // measure 47
1000
0001
1000
0001
1000
0000
0000
0000
0000
0000
0000
0000
0000
0000
0000
0000
,  // measure 48
0001
0000
0000
0000
1000
0100
0010
0100
1000
0100
0001
0100
1330
0100
3010
0100
,  // measure 49
1000
0000
0010
0000
0000
0200
0000
0000
0000
0000
0000
0300
0300
0000
0000
0000
,  // measure 50
0010
0001
0200
0000
0000
0320
0000
2030
,  // measure 51
0030
3001
0103
0020
0300
0000
0030
0000
,  // measure 52
1000
0000
0000
0000
0000
0001
0010
0001
0100
0000
0020
0000
2330
0000
0030
3200
,  // measure 53
3030
0003
3323
0300
0300
0032
0330
0000
0203
0000
3030
0320
0300
0000
2330
0000
,  // measure 54
3100
0010
0001
0100
0010
1000
0100
1000
,  // measure 55
0010
0100
0001
0020
0000
0000
0031
0030
,  // measure 56
0001
0100
0010
1000
0001
0100
3010
1000
,  // measure 57
0001
0100
0001
0010
0001
1000
0001
0200
,  // measure 58
0000
0320
0000
2030
0000
3001
1000
0020
,  // measure 59
0000
0230
0000
0302
0300
0000
1003
0000
,  // measure 60
0100
0010
0001
0100
0010
1000
0100
0010
,  // measure 61
0001
1000
0100
0010
0001
1000
0010
0100
,  // measure 62
0002
0000
0000
0000
0000
0000
0000
0000
1003
0100
0010
0000
3001
0000
1000
0000
,  // measure 63
0100
0010
0100
1000
0001
1000
0100
1000
,  // measure 64
0001
1000
0100
0000
0100
0000
0010
0000
0031
0000
0010
0000
0100
0000
1000
0000
,  // measure 65
0001
1000
0001
0000
3100
0000
0010
0000
1000
0000
0100
0000
0010
0000
0001
0000
,  // measure 66
1000
0100
0010
0000
1000
0000
0001
0000
0100
0000
0010
0000
1000
0000
0100
0000
,  // measure 67
1000
0001
0100
0000
0010
0000
1000
0000
0100
0000
1000
0000
0010
0000
0100
0000
,  // measure 68
0001
0010
0001
0000
1000
0000
0001
0000
0010
0000
0100
0000
1000
0000
0001
0000
,  // measure 69
0010
0100
0010
0000
1000
0000
0100
0000
0001
0000
0100
0000
1000
0000
0010
0000
,  // measure 70
0100
0000
0001
0000
1000
0000
0100
0000
0010
0001
1000
0000
0100
0000
1000
0000
,  // measure 71
0010
0000
0100
0000
0001
1000
0100
0000
1000
0000
0010
0000
0001
0000
0010
0000
,  // measure 72
0001
1000
0100
0000
0010
0000
0001
0000
1000
0000
0001
0100
0010
0000
1000
0000
,  // measure 73
0001
0000
0010
0000
0001
0000
1000
0100
1000
0000
0010
0000
0001
0000
0100
0010
,  // measure 74
1000
0100
0010
0001
1000
0001
0100
0010
,  // measure 75
1000
0001
0103
0010
1000
3100
0010
0001
,  // measure 76
1000
0100
0001
0100
1000
0001
0100
0010
,  // measure 77
1000
0001
0100
0010
1000
0001
0100
0010
1000
0100
0010
0001
1000
0100
0010
0001
,  // measure 78
2000
0000
0000
3100
0000
0000
0000
0000
,  // measure 79
0002
0000
0000
0103
0000
0000
0000
0000
,  // measure 80
0020
0000
0000
0130
0000
0001
1000
0100
,  // measure 81
0000
0010
0001
0010
0001
0100
0010
1000
,  // measure 82
0200
0000
0000
0310
0000
0000
0000
0000
,  // measure 83
0002
0000
0000
1003
0000
0000
0000
0000
,  // measure 84
0020
0000
0100
0000
,  // measure 85
1000
0000
0100
0330
,  // measure 86
1000
0000
0100
0010
0000
0010
0100
0000
,  // measure 87
1000
0000
0001
1000
0000
1000
0100
0000
,  // measure 88
0010
0000
0001
0010
0000
0010
0001
0000
,  // measure 89
0100
0010
1000
3100
0000
0010
0001
0100
,  // measure 90
0010
0000
1000
0001
0000
0001
0100
0000
,  // measure 91
0010
0000
1000
0100
0000
0100
1000
0000
,  // measure 92
2002
0000
0000
0000
,  // measure 93
0000
0000
0000
3003
,  // measure 94
0100
0010
0100
0010
0100
0000
0010
0000
0001
0000
1000
0000
0100
0000
0010
0000
,  // measure 95
0001
1000
0001
1000
0001
0000
0100
0000
0010
0000
1000
0000
0100
0000
1000
0000
,  // measure 96
0001
0010
0031
0010
0001
0000
0100
0000
0010
0000
1000
0000
0100
0000
1000
0000
,  // measure 97
0100
0010
0001
1000
3100
0010
0001
1000
,  // measure 98
0001
0100
0001
0100
0001
0000
0010
0000
0001
0000
0100
0000
0010
0000
1000
0000
,  // measure 99
0100
0010
0100
0010
0100
0000
0010
0000
0001
0000
1000
0000
0001
0000
0100
0000
,  // measure 100
0010
1000
0010
1000
0001
0100
0001
0100
,  // measure 101
1000
1000
0100
0100
0010
0010
0001
0001
,  // measure 102
1000
0100
1000
3100
1000
0000
0010
0000
0001
0000
0100
0000
0010
0000
1000
0000
,  // measure 103
0001
0100
0001
0100
0001
0000
0010
0000
1000
0000
0100
0000
0010
0000
0001
0000
,  // measure 104
1000
0010
1000
0010
1000
0000
0100
0000
0010
0000
1000
0000
0001
0000
0100
0000
,  // measure 105
0010
0001
0010
0001
1000
0100
1000
0100
,  // measure 106
0010
0001
0010
0001
0010
0000
0001
0000
1000
0000
0001
0000
0100
0000
0010
0000
,  // measure 107
1000
0100
1000
0100
1000
0000
0100
0000
0010
0000
1000
0000
0001
0000
0100
0000
,  // measure 108
0010
1000
0010
0100
0001
0010
0100
1000
,  // measure 109
0100
0100
0010
0010
0001
0001
1000
1000
,  // measure 110
0002
0000
0000
0103
0000
0000
0101
0000
,  // measure 111
0002
0000
0000
1033
0000
0000
1001
0000
,  // measure 112
1000
0001
0100
0010
1000
0001
0100
0010
,  // measure 113
1000
0000
0100
0000
0010
0000
0001
0000
1000
0000
0100
0000
0010
0001
0010
0001
,  // measure 114
0010
0001
0100
0010
1000
0001
1000
0100
,  // measure 115
0010
0001
1000
0100
0010
0001
1000
0001
,  // measure 116
0100
0010
1000
0100
1000
0010
0100
0001
,  // measure 117
0010
0000
0001
0000
1000
0000
0010
0000
0100
0000
0001
0000
1000
0100
1000
0100
,  // measure 118
1000
0000
0010
0000
0100
0000
0010
0000
1000
0000
0001
0000
0100
0010
0100
0010
,  // measure 119
0100
0000
0001
0000
1000
0000
0010
0000
0100
0000
0001
0000
1000
0010
1000
0010
,  // measure 120
1000
0100
0010
0001
1000
0100
0010
0001
,  // measure 121
1000
0000
0100
0000
0001
0000
0100
0000
1000
0000
0100
0000
0010
0001
0010
0001
,  // measure 122
0020
0000
0000
0031
0030
0000
0011
0000
,  // measure 123
0002
0000
0000
1003
0000
0000
1001
0000
,  // measure 124
0020
0000
0000
0000
,  // measure 125
0100
0100
0100
0130
,  // measure 126
0001
1000
0100
0010
0001
1000
0001
0100
,  // measure 127
0001
0010
0001
0100
0010
1000
0100
1000
,  // measure 128
0010
0100
0001
0010
0001
1000
0001
0100
,  // measure 129
0010
1000
0100
1000
0010
0100
0001
0010
,  // measure 130
0001
1000
0100
1000
0010
0100
0001
1000
,  // measure 131
0010
0100
0001
1000
0001
0100
0001
0010
,  // measure 132
0001
0010
0100
1000
0001
0010
0100
1000
,  // measure 133
0100
0010
0001
1000
0001
0100
0010
1000
,  // measure 134
0002
0000
0000
0000
,  // measure 135
2003
0000
0000
0000
,  // measure 136
3200
0000
0000
0000
,  // measure 137
0320
0000
0000
0000
,  // measure 138
0031
1000
0010
0100
0001
1000
0010
0100
,  // measure 139
0001
1000
0100
0010
0001
1000
0100
0010
,  // measure 140
0031
0000
0000
0000
0000
0000
0000
0000
0000
0000
0000
0000
0000
0000
0000
0000
1000
0000
0000
0000
0000
0000
0000
0000
0000
0000
0000
0000
0000
0000
0000
0000
0001
0000
0000
0000
0000
0000
0000
0000
0000
0000
3000
0000
0000
0000
0000
0000
0100
0000
0000
0000
0000
0000
0000
0000
0000
0000
0000
0000
0000
0000
0000
0000
0010
0000
0000
0000
0000
0000
0000
0000
0000
0000
0000
0000
0000
0000
0000
0000
1000
0000
0000
0000
0000
0000
0000
0000
0000
0000
0000
0000
0000
0000
0000
0000
0100
0000
0000
0000
0000
0000
0000
0000
0000
0000
0000
0000
0000
0000
0000
0000
0010
0000
0000
0000
0000
0000
0000
0000
0000
0000
0000
0000
0000
0000
0000
0000
0001
0000
0000
0000
0000
0000
0000
0000
0000
0000
0000
0000
0000
0000
0000
0000
0100
0000
0000
0000
0000
0000
0000
0000
0000
0000
0000
0000
0000
0000
0000
0000
0010
0000
0000
0000
0000
0000
0000
0000
0000
0000
0000
0000
0000
0000
0000
0000
1000
0000
0000
0000
0000
0000
0000
0000
0000
0000
0000
0000
0000
0000
0000
0000
,  // measure 141
0002
0003
0000
0000
;

//---------------dance-single - ----------------
#NOTEDATA:;
#CHARTNAME:;
#STEPSTYPE:dance-single;
#DESCRIPTION:;
#CHARTSTYLE:;
#DIFFICULTY:Medium;
#METER:8;
#RADARVALUES:0.571904,0.892256,0.139883,0.459617,0.056619,601.000000,580.000000,21.000000,69.000000,0.000000,0.000000,0.000000,0.000000,0.000000,0.571904,0.892256,0.139883,0.459617,0.056619,601.000000,580.000000,21.000000,69.000000,0.000000,0.000000,0.000000,0.000000,0.000000;
#CREDIT:RYUKINON;
#OFFSET:-0.707000;
#BPMS:0.000000=234.000000
;
#STOPS:;
#DELAYS:;
#WARPS:;
#TIMESIGNATURES:0.000000=4=4
;
#TICKCOUNTS:0.000000=4
;
#COMBOS:0.000000=1
;
#SPEEDS:0.000000=1.000000=0.000000=0
;
#SCROLLS:0.000000=0.250000
,56.000000=0.100000
,64.000000=1.000000
,126.500000=0.250000
,128.000000=1.000000
,192.000000=0.250000
,256.000000=1.000000
,312.000000=0.250000
,368.000000=0.100000
,376.000000=1.000000
,440.000000=0.250000
,448.000000=1.000000
;
#FAKES:;
#LABELS:0.000000=Song Start
;
#DISPLAYBPM:*;
#NOTES:
// measure 0
0000
0000
0000
0000
,  // measure 1
0000
0000
0000
0000
,  // measure 2
0000
0000
0000
0000
,  // measure 3
0000
0000
0000
0000
,  // measure 4
0000
0000
0000
0000
,  // measure 5
0000
0000
0000
0000
,  // measure 6
0000
0000
0000
0000
,  // measure 7
0000
0000
0000
0000
,  // measure 8
1000
0000
0000
0001
0000
0100
0000
0000
,  // measure 9
0010
0000
0000
1000
0000
0001
0000
0100
,  // measure 10
0010
0000
0000
0001
0000
0010
0000
0001
,  // measure 11
1000
0000
0003
0010
0000
0100
0000
0001
,  // measure 12
0100
0000
0000
0010
0000
1000
0000
0001
,  // measure 13
0100
0000
0000
0010
0000
0001
0000
1000
,  // measure 14
0100
0000
0000
0000
,  // measure 15
0000
0000
0000
0000
,  // measure 16
0220
0000
0000
0000
,  // measure 17
0000
0000
0000
0000
,  // measure 18
0000
0000
0000
0330
,  // measure 19
1000
0100
0010
0001
0010
0100
1000
0000
,  // measure 20
2002
0000
0000
0000
,  // measure 21
0000
0000
0000
0000
,  // measure 22
0000
0000
0000
3003
,  // measure 23
0001
0010
0130
1300
0100
0010
0001
0000
,  // measure 24
1000
0100
1000
0100
0010
0001
0010
0000
,  // measure 25
0001
0100
0001
0100
0010
1000
0010
0000
,  // measure 26
1000
0100
0001
0100
1000
0100
0001
0000
,  // measure 27
0100
0010
0001
0100
0010
1000
0001
0000
,  // measure 28
1000
0100
1000
0000
0010
0000
0001
0100
0001
0000
0010
0000
0100
0000
0000
0000
,  // measure 29
0010
1000
0010
0000
0100
0000
0001
0010
0001
0000
1000
0000
0100
0000
0000
0000
,  // measure 30
0010
0001
0100
0000
0010
0000
1000
0001
0100
0000
0010
0000
1000
0000
0000
0000
,  // measure 31
0100
0010
0001
1000
0000
0002
0000
0000
,  // measure 32
2003
0100
0100
3000
,  // measure 33
0002
0010
0010
0003
,  // measure 34
0200
0010
0010
0300
,  // measure 35
0020
1000
1000
0030
,  // measure 36
2000
3100
0002
3103
,  // measure 37
2000
3010
0032
0013
,  // measure 38
2000
3010
0200
0301
,  // measure 39
0020
0130
2000
3001
,  // measure 40
1000
0001
0100
0001
0010
0031
0100
0000
,  // measure 41
0010
1000
0010
0100
0010
1000
0001
0000
,  // measure 42
0010
0001
0010
0100
0010
0001
1000
0000
,  // measure 43
0001
0100
0010
1000
0100
0010
0001
0000
,  // measure 44
1000
0100
0010
0000
0001
0000
1000
0010
0100
0000
0010
0000
0100
0000
0000
0000
,  // measure 45
0010
1000
0100
0000
0010
0000
0001
0100
0010
0000
1000
0000
0100
0000
0000
0000
,  // measure 46
0010
0001
0100
0010
1000
3100
1300
0010
,  // measure 47
0100
0001
1033
0000
0000
0000
0000
0000
,  // measure 48
2000
3200
0320
0032
,  // measure 49
2003
3002
0203
0320
,  // measure 50
2030
3002
0203
0302
,  // measure 51
0023
0032
2003
3200
,  // measure 52
2300
0100
0100
3100
,  // measure 53
0002
0100
0100
0103
,  // measure 54
0020
1000
1000
1030
,  // measure 55
0200
0001
0001
0301
,  // measure 56
0020
0032
0203
0320
,  // measure 57
2030
3200
2300
3002
,  // measure 58
0203
0320
2030
3200
,  // measure 59
2300
3002
0203
0320
,  // measure 60
1030
0100
0010
0001
,  // measure 61
1000
0100
0010
0001
,  // measure 62
1000
0001
0100
0010
,  // measure 63
1000
0010
0100
0001
,  // measure 64
1000
3100
1000
3001
,  // measure 65
0010
0001
0100
0010
,  // measure 66
0100
1000
0100
0310
,  // measure 67
0001
1000
0001
0100
,  // measure 68
0001
0010
0100
1000
,  // measure 69
0001
0100
0010
1000
,  // measure 70
0100
0010
0001
1000
,  // measure 71
0001
0100
0010
1000
,  // measure 72
0001
0100
0001
0100
0001
0000
1000
0100
,  // measure 73
1000
3100
1000
0000
0010
0001
0010
0031
,  // measure 74
0010
0000
1000
0100
0010
0130
1000
0000
,  // measure 75
0001
0100
0013
1000
0100
0010
0031
2000
,  // measure 76
0000
3002
0300
0203
0030
0320
0003
1030
,  // measure 77
0100
3010
0001
0010
0100
1000
0001
0100
,  // measure 78
0010
0000
0000
0110
0000
0000
0000
0000
,  // measure 79
1000
0000
0000
1100
0000
0000
0000
0000
,  // measure 80
0001
0000
0000
0101
0000
0000
0000
0000
,  // measure 81
0000
0000
0000
1000
,  // measure 82
0001
0000
0000
0110
0000
0000
0000
0000
,  // measure 83
1000
0000
0000
1001
0000
0000
0000
0000
,  // measure 84
0002
0000
0000
0000
,  // measure 85
0000
0000
0000
0003
,  // measure 86
1000
0000
0000
0100
0000
0000
0010
0000
,  // measure 87
0001
0000
0000
0100
0000
0000
0010
0000
,  // measure 88
1000
0000
0000
0001
0000
1000
0100
1000
,  // measure 89
0000
0010
0001
0100
0010
1000
0100
0000
,  // measure 90
1000
0000
0000
1100
0000
0000
0000
0000
,  // measure 91
0001
0000
0000
0011
0000
0000
0000
0000
,  // measure 92
0220
0000
0000
0000
,  // measure 93
0000
0000
0000
0330
,  // measure 94
0001
0000
0000
1001
0003
0000
1000
0000
,  // measure 95
0010
0000
0000
1010
0000
0000
0001
0000
,  // measure 96
0100
0000
0000
0101
0000
0000
0100
0000
,  // measure 97
0010
1000
0100
1000
0010
0100
0001
0000
,  // measure 98
1000
0000
0000
1001
0000
0000
0010
0000
,  // measure 99
0100
0000
0000
0110
0000
0000
0000
0000
,  // measure 100
1000
0001
0100
0010
,  // measure 101
1000
0100
0010
0001
1000
0001
0100
0010
,  // measure 102
1000
0100
1000
0000
0000
0000
1100
0000
0000
0000
0000
0000
0001
0000
0000
0000
,  // measure 103
0010
0000
0000
0011
0000
0000
0001
0000
,  // measure 104
1000
0000
0000
0110
0000
0000
0010
0000
,  // measure 105
1000
0100
1000
0100
0010
0001
0010
0000
,  // measure 106
0100
0000
0000
0110
0000
0000
0001
0000
,  // measure 107
1000
0000
0000
1001
0000
0000
0010
0000
,  // measure 108
0100
0001
1000
0100
,  // measure 109
1000
0000
0001
0000
1000
0000
0001
0000
0100
0000
0010
0000
0100
0000
0310
1000
,  // measure 110
0200
0000
0000
0000
0000
0000
3310
0300
0000
0000
0000
0000
0000
0000
0000
0000
,  // measure 111
0002
0000
0000
1003
0000
0000
0010
0000
,  // measure 112
0100
0010
0100
0010
1000
0100
1000
0100
,  // measure 113
0010
0000
0001
0000
0100
0000
0010
0000
1000
0000
0100
0000
1000
0000
0001
0100
,  // measure 114
0010
0100
0010
1000
0100
1000
0010
0100
,  // measure 115
0001
1000
0100
0010
0001
1000
0001
0100
,  // measure 116
0001
0010
0001
1000
0100
0010
0001
1000
,  // measure 117
0001
0000
0100
0000
0010
0000
1000
0000
0001
0000
0100
0000
0010
0000
1000
0001
,  // measure 118
0100
0010
0100
0001
1000
0100
1000
0010
,  // measure 119
0001
0010
0001
0100
0010
1000
0001
0100
,  // measure 120
0010
1000
0100
0010
0001
1000
0001
0100
,  // measure 121
0010
0000
1000
0000
0100
0000
0010
0000
0001
0000
1000
0000
0001
0100
0001
0100
,  // measure 122
0002
0000
0000
1003
0000
0000
0000
0000
,  // measure 123
0200
0000
0000
0310
0000
0000
0000
0000
,  // measure 124
2002
0000
0000
0000
,  // measure 125
0000
0000
0000
3003
,  // measure 126
1003
0001
0100
0001
,  // measure 127
0010
0001
0100
0010
,  // measure 128
1000
0100
0010
0001
,  // measure 129
1000
0001
0100
0010
,  // measure 130
1000
0100
1000
0100
,  // measure 131
0010
0001
0010
0001
,  // measure 132
0100
0010
1000
0001
,  // measure 133
1000
0100
1000
0010
,  // measure 134
0200
0000
0000
0000
,  // measure 135
0000
0000
0030
0000
,  // measure 136
0320
0000
3000
0000
,  // measure 137
2030
0000
0000
3001
,  // measure 138
0100
0010
0100
0010
1000
0001
1000
0001
,  // measure 139
1000
0100
0010
0001
1000
0100
0010
0001
,  // measure 140
1000
0100
1000
0100
0010
0001
0010
0001
,  // measure 141
0100
0000
0000
0000
;

//---------------dance-single - ----------------
#NOTEDATA:;
#CHARTNAME:;
#STEPSTYPE:dance-single;
#DESCRIPTION:;
#CHARTSTYLE:;
#DIFFICULTY:Easy;
#METER:5;
#RADARVALUES:0.370168,0.610491,0.146545,0.279767,0.000000,389.000000,367.000000,22.000000,42.000000,0.000000,0.000000,0.000000,0.000000,0.000000,0.370168,0.610491,0.146545,0.279767,0.000000,389.000000,367.000000,22.000000,42.000000,0.000000,0.000000,0.000000,0.000000,0.000000;
#CREDIT:RYUKINON;
#OFFSET:-0.707000;
#BPMS:0.000000=234.000000
;
#STOPS:;
#DELAYS:;
#WARPS:;
#TIMESIGNATURES:0.000000=4=4
;
#TICKCOUNTS:0.000000=4
;
#COMBOS:0.000000=1
;
#SPEEDS:0.000000=1.000000=0.000000=0
;
#SCROLLS:0.000000=1.000000
,126.500000=0.250000
,128.000000=1.000000
,192.000000=0.250000
,256.000000=1.000000
,312.000000=0.250000
,368.000000=0.100000
,376.000000=1.000000
;
#FAKES:;
#LABELS:0.000000=Song Start
;
#DISPLAYBPM:*;
#NOTES:
// measure 0
0000
0000
0000
0000
,  // measure 1
0000
0000
0000
0000
,  // measure 2
0000
0000
0000
0000
,  // measure 3
0000
0000
0000
0000
,  // measure 4
0000
0000
0000
0000
,  // measure 5
0000
0000
0000
0000
,  // measure 6
0000
0000
0000
0000
,  // measure 7
0000
0000
0000
0000
,  // measure 8
0000
0000
0000
0000
,  // measure 9
0000
0000
0000
0000
,  // measure 10
0000
0000
0000
0000
,  // measure 11
0000
0000
0000
0000
,  // measure 12
0000
0000
0000
0000
,  // measure 13
0000
0000
0000
0000
,  // measure 14
0000
0000
0000
0000
,  // measure 15
0000
0000
0000
0000
,  // measure 16
2002
0000
0000
0000
,  // measure 17
0000
0000
0000
0000
,  // measure 18
0000
0000
0000
0000
,  // measure 19
0000
0000
3003
0000
,  // measure 20
0220
0000
0000
0000
,  // measure 21
0000
0000
0000
0000
,  // measure 22
0000
0000
0000
0000
,  // measure 23
0000
0000
0330
0000
,  // measure 24
1330
0000
0100
0010
0000
0010
0100
0000
,  // measure 25
1000
0000
0001
0100
0000
0100
0001
0000
,  // measure 26
0010
0000
0001
0100
0000
0010
1000
0000
,  // measure 27
0100
0000
1000
3001
0000
0100
0010
0000
,  // measure 28
2000
0000
3000
1100
0000
0000
0000
0000
,  // measure 29
0002
0000
0003
0011
0000
0000
0000
0000
,  // measure 30
0020
0000
0030
0110
0000
0000
0000
0000
,  // measure 31
1000
0100
0310
0001
0000
1001
0000
0000
,  // measure 32
2000
0000
0100
0000
,  // measure 33
0000
0000
0100
0000
,  // measure 34
0000
0000
0010
0000
,  // measure 35
0000
0000
0010
3000
,  // measure 36
0002
0000
0010
0000
,  // measure 37
0000
0000
0010
0000
,  // measure 38
0000
0000
0100
0000
,  // measure 39
0000
0000
0100
0003
,  // measure 40
0010
0000
1000
0001
0000
0001
0100
0000
,  // measure 41
0010
0000
1000
0100
0000
0010
0001
0000
,  // measure 42
0100
0000
0010
1000
0000
0001
0100
0000
,  // measure 43
0010
0000
1000
0001
0000
0100
0010
0000
,  // measure 44
2000
0000
3000
1010
0000
0000
0000
0000
,  // measure 45
0002
0000
0003
0101
0000
0000
0000
0000
,  // measure 46
0020
0000
0030
0110
0000
0000
0000
0000
,  // measure 47
1000
0001
1000
0000
0000
0000
0000
0000
,  // measure 48
1000
0100
1000
0010
,  // measure 49
0001
0100
0001
0100
,  // measure 50
1000
0001
0100
0010
,  // measure 51
0001
1000
0100
1000
,  // measure 52
0010
0130
0010
1000
,  // measure 53
0001
0010
0001
1000
,  // measure 54
0100
1000
3001
0100
,  // measure 55
0010
0001
1000
0001
,  // measure 56
0100
0010
1000
0100
,  // measure 57
1000
0100
0010
0001
,  // measure 58
0010
0100
1000
0001
,  // measure 59
0103
0010
1000
0100
,  // measure 60
1000
0100
0001
0100
,  // measure 61
1000
3010
0001
0010
,  // measure 62
1000
0100
0010
0001
,  // measure 63
1003
0010
0100
0001
,  // measure 64
1000
0100
1000
0100
,  // measure 65
0010
0001
0010
0031
,  // measure 66
0100
0010
0100
0010
,  // measure 67
1000
0001
0100
0010
,  // measure 68
1000
0100
0010
0001
,  // measure 69
1000
0100
0010
0001
,  // measure 70
1000
0001
0100
0010
,  // measure 71
1000
0001
0010
0001
,  // measure 72
2000
0100
3100
0002
,  // measure 73
0010
0013
0200
1000
,  // measure 74
1300
0002
0100
0103
,  // measure 75
0020
1000
0130
2000
,  // measure 76
0100
3001
0200
0000
,  // measure 77
0320
0000
2030
0000
,  // measure 78
3001
0000
0000
1000
0000
0000
0000
0000
,  // measure 79
0010
0000
0000
0100
0000
0000
0000
0000
,  // measure 80
1000
0000
0000
0001
0000
0000
0000
0000
,  // measure 81
0000
0000
0000
1000
,  // measure 82
0100
0000
0000
1000
0000
0000
0000
0000
,  // measure 83
0001
0000
0000
0100
0000
0000
0000
0000
,  // measure 84
0010
0000
0000
0000
,  // measure 85
0000
0000
0000
0000
,  // measure 86
1000
0000
0000
0001
0000
0000
0000
0000
,  // measure 87
0010
0000
0000
0100
0000
0000
0000
0000
,  // measure 88
0001
0000
0000
1000
0000
0000
0000
0000
,  // measure 89
0000
0000
0000
0100
,  // measure 90
0010
0000
0000
0001
0000
0000
0000
0000
,  // measure 91
1000
0000
0000
0001
0000
0000
0000
0000
,  // measure 92
1001
0000
0000
0000
,  // measure 93
0000
0000
0000
3003
,  // measure 94
0020
0000
0030
0110
0000
0000
1000
0000
,  // measure 95
0002
0000
0003
1001
0300
0000
0100
0000
,  // measure 96
0020
0000
0030
0011
0000
0000
0001
0000
,  // measure 97
1000
0001
0100
0010
,  // measure 98
2000
0000
3000
1100
0000
0000
0010
0000
,  // measure 99
0002
0000
0003
0011
0000
0000
0100
0000
,  // measure 100
0010
1000
0100
0010
,  // measure 101
0001
1000
0001
0100
,  // measure 102
0002
0000
0003
1001
0000
0000
1000
0000
,  // measure 103
0020
0000
0030
1010
0000
0000
0100
0000
,  // measure 104
0002
0000
0003
0101
0000
0000
1000
0000
,  // measure 105
0100
0010
0001
1000
,  // measure 106
0200
0000
3300
0110
0000
0000
0010
0000
,  // measure 107
0002
0000
0003
1001
0000
0000
0010
0000
,  // measure 108
0100
0001
0010
0001
,  // measure 109
1000
0100
1000
0100
0010
0001
0010
0001
,  // measure 110
2000
0000
3000
0100
0000
0000
0000
0000
,  // measure 111
0002
0000
0003
0010
0000
0000
0000
0000
,  // measure 112
0001
0100
0010
1000
,  // measure 113
0100
1000
0010
0100
,  // measure 114
0001
0010
0100
1000
,  // measure 115
0001
0010
0100
1000
,  // measure 116
0100
0010
0001
1000
,  // measure 117
0001
0100
0001
0010
,  // measure 118
0002
1000
0100
0013
,  // measure 119
2000
0001
0010
3103
,  // measure 120
0020
0001
0100
0031
,  // measure 121
1000
0100
0010
0031
,  // measure 122
2000
0000
0000
3001
0000
0000
0000
0000
,  // measure 123
0020
0000
0000
0130
0000
0000
0000
0000
,  // measure 124
0220
0000
0000
0000
,  // measure 125
0000
0000
0000
0330
,  // measure 126
1000
0100
1000
0100
,  // measure 127
0010
0001
0010
0001
,  // measure 128
0100
0010
0100
0010
,  // measure 129
1000
0001
1000
0001
,  // measure 130
0100
0010
1000
0001
,  // measure 131
0100
0010
1000
0100
,  // measure 132
1000
0010
0100
0001
,  // measure 133
1000
0100
0010
0001
,  // measure 134
2000
0000
0000
0000
,  // measure 135
0000
0000
0000
0000
,  // measure 136
3002
0000
0000
0000
,  // measure 137
0000
0000
0000
0000
,  // measure 138
0103
0010
1000
0100
,  // measure 139
1000
0010
0100
0001
,  // measure 140
1000
0100
0010
0001
,  // measure 141
1001
0000
0000
0000
;
