#TITLE:μ9;
#SUBTITLE:;
#ARTIST:PAXA;
#TITLETRANSLIT:u9;
#SUBTITLETRANSLIT:;
#ARTISTTRANSLIT:;
#CREDIT:DigiMindAxel;
#BANNER:u9.png;
#BACKGROUND:u9-bg.png;
#LYRICSPATH:;
#CDTITLE:pop'n music.png;
#MUSIC:u9.mp3;
#OFFSET:-11.080;
#SAMPLESTART:37.733;
#SAMPLELENGTH:12.000;
#SELECTABLE:YES;
#BPMS:0.000=180.000;
#STOPS:;
#BGCHANGES:;

//---------------dance-single - ----------------
#NOTES:
     dance-single:
     :
     Easy:
     2:
     0.187,0.222,0.000,0.240,0.000:
2000
0000
0000
0000
,
3200
0000
0000
0000
,
0320
0000
0000
0030
,
0002
0000
0000
0000
,
0023
0000
0000
0000
,
0230
0000
0000
0300
,
2000
0000
0000
0000
,
3002
0000
0000
0000
,
1003
0000
1000
0000
,
1000
0000
1000
0000
,
0001
0000
0001
0000
,
0001
0000
0001
0000
,
0100
0000
0100
0000
,
0100
0000
0100
0000
,
0010
0000
0010
0000
,
0010
0000
0010
0000
,
2000
0000
0000
0000
,
0000
0000
0000
0000
,
3002
0000
0000
0000
,
0000
0003
0000
0000
,
1000
0000
0001
0000
,
1000
0000
0001
0000
,
0100
0000
0001
0000
,
0100
0000
0001
0000
,
1000
0000
0010
0000
,
1000
0000
0010
0000
,
0100
0000
0010
0000
,
0100
0000
0001
0000
,
1000
0000
0100
0000
,
0010
0000
0001
0000
,
1000
0000
0001
0000
,
1000
0000
0001
0000
,
1000
0000
0010
0000
,
0100
0000
0001
0000
,
0100
0000
0010
0000
,
0100
0000
0010
0000
,
0200
0000
0000
0000
,
0310
0000
0000
0000
,
0020
0000
0000
0000
,
0130
0000
0000
0000
,
0002
0000
0000
0000
,
1003
0000
0000
0000
,
2000
0000
0000
0000
,
3001
0000
0000
0000
,
0200
0000
0001
0000
,
0001
0000
0301
0000
,
2000
0000
0100
0000
,
0100
0000
3100
0000
,
0020
0000
0100
0000
,
0100
0000
0130
0000
,
0002
0000
1000
0000
,
1000
0000
1003
0000
,
0100
0001
0010
0000
,
0001
0000
0001
0000
,
0100
0001
0010
0000
,
0001
0000
0001
0000
,
0010
0100
1000
0000
,
0010
0000
0010
0000
,
1000
0100
0010
0000
,
0001
1000
0010
0000
,
0200
0000
0010
0000
,
0310
0000
0001
0000
,
2000
0000
0001
0000
,
3001
0000
0010
0000
,
0002
0000
1000
0000
,
1003
0000
0100
0000
,
0020
0000
0100
0000
,
0130
0000
1000
0000
,
0002
0000
0000
0000
,
0203
0000
0000
0000
,
0320
0000
0000
0000
,
2030
0000
0000
0000
,
3002
0000
0000
0000
,
2003
0000
0000
0000
0000
0000
0000
3000
;

//---------------dance-single - ----------------
#NOTES:
     dance-single:
     :
     Medium:
     4:
     0.305,0.316,0.051,0.274,0.000:
0001
0000
0001
0000
,
0001
0000
0001
0000
,
1000
0000
1000
0000
,
1000
0000
1000
0000
,
0010
0000
0100
0000
,
0001
0000
0010
0000
,
0100
0000
1000
0000
,
0010
0000
0100
0000
,
0001
1000
0001
0000
,
0200
0000
0000
0300
,
0010
0100
0010
0000
,
0200
0000
0000
0300
,
0001
1000
0001
0000
,
0200
0000
0000
0300
,
0010
0100
0010
0000
,
0200
0000
0000
0300
,
0002
0000
0000
0000
,
0000
0003
0000
0000
,
2000
0000
0000
0000
,
0000
3000
0000
0000
,
0010
0100
0010
0100
,
0010
0100
0010
0100
,
0001
1000
0001
1000
,
0001
1000
0001
1000
,
0100
1000
0100
1000
,
0100
1000
0100
1000
,
0100
0010
0100
0010
,
0100
0010
0100
0010
,
0001
1000
0001
0100
,
0001
1000
0001
0100
,
0010
1000
0100
0010
,
0100
1000
0001
0100
,
0010
0100
0001
0100
,
0010
0100
0001
0100
,
0010
1000
0100
0010
,
0100
1000
0010
0100
,
0001
0000
0001
0000
1000
0000
0000
2200
,
0000
0000
3300
0000
,
1000
0000
1000
0000
0001
0000
0000
0022
,
0000
0000
0033
0000
,
0001
0000
0001
0000
1000
0000
0000
2020
,
0000
0000
3030
0000
,
0020
0000
0000
0230
0000
0000
0000
0000
,
0302
0000
0000
2003
0000
0000
0000
0000
,
3002
0000
0010
0000
,
0203
0000
0010
0000
,
0302
0000
1000
0000
,
0203
0000
0010
0000
,
0302
0000
1000
0000
,
0203
0000
0010
0000
,
0302
0000
0010
0000
,
2003
0000
0001
3001
,
1000
0100
0010
0001
,
0100
0010
0100
0001
,
0100
0010
1000
0100
,
0010
0100
1000
0010
,
0100
0001
0010
0100
,
1000
0010
0100
0010
,
1000
0100
0010
0001
,
0100
0010
0100
0001
,
1000
0100
1000
0000
0001
0000
0100
0000
,
0220
0000
0000
0330
,
0001
0010
0001
0000
1000
0000
0010
0000
,
0220
0000
0000
0330
,
0100
0001
0100
0000
0001
0000
1000
0000
,
2200
0000
0000
3300
,
0002
0000
0000
0100
0000
0100
0000
0000
,
2003
0000
0000
0010
0000
0010
0000
0000
,
3001
0001
0001
0001
,
1000
1000
1000
1000
,
0001
0001
0001
0001
,
1000
1000
1000
1000
,
0100
0010
0001
0010
,
0100
1000
0010
0100
;

//---------------dance-single - ----------------
#NOTES:
     dance-single:
     :
     Hard:
     7:
     0.506,0.475,0.077,0.454,0.000:
1000
0100
0010
0001
,
1000
0100
0010
0001
,
0100
1000
0100
0001
,
0010
1000
0010
0001
,
0100
0010
1000
0100
,
0001
0100
1000
0010
,
0001
0010
1000
0010
,
0100
0010
1000
0001
,
0200
0000
0301
0010
0100
1000
0000
0001
,
0100
0002
0000
0000
2003
0000
3002
0000
,
0203
0000
0301
0010
0100
1000
0000
0001
,
0100
0002
0000
0000
2003
0000
0000
0000
,
3020
0000
1030
0100
0010
0001
0000
1000
,
0100
2000
0000
0000
3002
0000
0203
0000
,
0320
0000
1030
0100
0010
0001
0000
1000
,
0100
2000
0000
0000
0000
0000
3000
0000
,
0010
1000
0000
0100
0000
0001
0000
0100
,
0000
1000
0020
0000
0000
0000
0130
0000
,
0010
1000
0000
0100
0000
0001
0000
0100
,
0000
1000
0020
0000
0000
0000
0030
0000
,
0100
0001
0010
0000
0100
0010
0100
0000
,
0010
0001
2000
0000
3020
0000
0230
0000
,
0310
1000
0100
0000
0010
0100
0010
0000
,
0100
1000
0001
0000
1000
0010
0110
0000
,
0001
0010
0200
0000
1000
0000
0010
0000
,
1000
0000
0310
0001
0100
0010
0100
0000
,
0001
0100
0020
0000
1000
0000
0100
0000
,
1000
0130
1100
0011
,
0100
1000
0010
0000
0100
0001
0010
0000
,
0100
0010
0002
0000
2003
0000
3020
0000
,
0130
0001
0010
0000
0100
1000
0010
0000
,
0100
0010
1000
0001
0010
0100
0110
0000
,
0001
1000
0200
0000
0010
0000
0001
0000
,
0010
0000
0301
0010
0100
1000
0010
0000
,
1000
0001
0200
0000
0010
0000
1000
0000
,
0010
1300
1010
0101
,
1000
0000
1000
0000
1000
0001
0010
0200
,
0000
1000
0000
1300
,
0001
0000
0001
0000
0001
1000
0100
0020
,
0000
0000
0000
0000
0000
0001
0031
0000
,
1000
0000
1000
0000
1000
0001
0010
0200
,
0000
1000
0000
1300
,
0020
0000
0000
0230
0000
0002
0000
0303
,
0200
0000
0000
0320
0000
2000
0000
3030
,
0002
0010
1000
0010
,
2003
0100
0001
3100
,
0002
0010
1000
0013
,
2000
0100
0001
3100
,
0020
0001
0100
0031
,
0200
1000
0010
1300
,
0020
0001
0100
0031
,
0200
1000
0010
1300
,
0001
0010
0100
1000
0100
0001
0000
0100
,
1000
0100
0010
0000
0001
1000
1000
0000
,
1000
0100
0010
0001
0100
1000
0000
0100
,
0001
0010
0100
0000
1000
0001
0001
1000
,
0010
0100
0010
1000
0010
0001
0000
0010
,
0100
0001
0010
0000
0100
0010
0001
0000
,
0100
0001
0100
1000
0000
1100
0000
0000
,
0010
1000
0010
0001
0100
0010
0100
0000
,
0001
0010
1000
0010
0001
0010
0100
1000
,
0020
0100
0001
0130
,
0001
0100
1000
0100
0001
0100
0010
1000
,
0200
0010
0001
0310
,
0001
0100
0010
1000
0100
0010
0100
1000
,
0002
0100
1000
0103
,
2010
0000
0000
0100
0000
3100
0000
0000
,
0102
0000
0000
0010
0000
0013
0000
0000
,
0002
1000
0100
0013
,
2000
0001
0010
3100
,
0002
0010
0100
1003
,
2000
0100
0010
3001
,
0002
1000
0010
0103
,
2000
0000
0001
0000
0100
0000
0010
3000
;

//---------------dance-single - ----------------
#NOTES:
     dance-single:
     :
     Challenge:
     8:
     0.612,0.633,0.086,0.351,0.099: // measure 1
0001
1000
0100
0000
1000
0100
0000
0010
,  // measure 2
0100
0000
0010
0100
0000
1000
0001
0000
,  // measure 3
1000
0001
0000
0010
0100
0000
0010
0100
,  // measure 4
0000
0010
0001
0000
0010
0001
0000
0010
,  // measure 5
0100
0010
0001
0000
0010
0001
0000
0010
,  // measure 6
0100
0000
0010
0100
0000
1000
0010
0000
,  // measure 7
1000
0010
0000
0100
0001
0000
0100
0001
,  // measure 8
0000
0010
0100
0000
0010
0100
0000
1000
,  // measure 9
0001
0100
0001
0010
0100
1000
0000
0100
,  // measure 10
0001
0200
0000
0000
2300
0000
3002
0000
,  // measure 11
1003
0010
1000
0100
0010
0001
0000
0001
,  // measure 12
0010
0200
0000
0000
2300
0000
0000
0000
,  // measure 13
3001
0100
0001
0010
0100
1000
0000
0100
,  // measure 14
0001
0200
0000
0000
2300
0000
3002
0000
,  // measure 15
1003
0100
1000
0001
0010
1000
0000
0010
,  // measure 16
0002
2000
0000
0000
0000
0000
3003
0000
,  // measure 17
1000
0002
0000
0100
0000
1000
0000
0103
,  // measure 18
0000
1000
0002
0000
0000
0000
1003
0000
,  // measure 19
0001
2000
0000
0100
0000
0001
0000
3100
,  // measure 20
0000
0001
2000
0000
0000
0000
3000
0000
,  // measure 21
0001
0100
0010
0100
0001
0010
0100
0000
,  // measure 22
0010
0100
1000
0100
0001
0100
1000
0000
,  // measure 23
0010
1000
0100
1000
0001
0010
0100
0000
,  // measure 24
0010
0100
1000
0100
0001
1000
1100
0000
,  // measure 25
0001
0010
0100
0010
0001
1000
0010
0000
,  // measure 26
0100
0001
0010
1000
0010
0001
1000
0000
,  // measure 27
0100
0010
0100
1000
0001
0100
0010
0000
,  // measure 28
0100
0000
0001
0000
0010
0000
0100
0000
1000
0001
1000
0000
0001
0000
0000
0000
,  // measure 29
1000
0100
0001
0100
1000
0010
0001
0010
,  // measure 30
1000
0100
0010
0100
1000
0010
0100
0000
,  // measure 31
0001
0100
1000
0100
0001
0010
1000
0010
,  // measure 32
0001
1000
0010
0100
0001
0100
0101
0000
,  // measure 33
1000
0010
0001
0010
1000
0100
0001
0100
,  // measure 34
1000
0010
0100
0010
1000
0100
0010
0000
,  // measure 35
0001
0010
1000
0010
0001
0100
1000
0100
,  // measure 36
0001
0000
0010
0000
0100
0000
1000
0000
0001
1000
0001
0000
1000
0000
0000
0000
,  // measure 37
1200
0000
0310
0000
0001
0010
1000
0010
,  // measure 38
0001
0100
0001
0000
1000
0100
1000
0000
,  // measure 39
0201
0000
0310
0000
1000
0100
0001
0100
,  // measure 40
1000
0010
1000
0000
0001
0010
0011
0000
,  // measure 41
1200
0000
0310
0000
0001
1000
0100
0001
,  // measure 42
0100
1000
0010
0000
0100
0001
0010
0000
,  // measure 43
2200
0300
0000
3002
0000
0200
0303
0000
,  // measure 44
0202
0000
0300
0000
0000
0000
2003
0000
0000
0000
0100
0000
3100
0000
1000
0001
,  // measure 45
2000
0000
0000
0100
0100
0000
0000
0001
,  // measure 46
0000
0000
0000
0100
3100
0000
0000
0000
,  // measure 47
2000
0000
0000
0001
0001
0000
0000
0100
,  // measure 48
0000
0000
0000
0001
3001
0100
0110
0000
,  // measure 49
0002
0000
0000
0100
0100
0000
0000
1000
,  // measure 50
0000
0000
0000
0100
0103
0000
0000
0000
,  // measure 51
0002
0000
0000
1000
1000
0000
0000
0100
,  // measure 52
0000
0000
0000
0000
0000
0000
1000
0000
1003
0000
0010
0000
0100
0000
0001
1000
,  // measure 53
0001
0000
0100
0000
1000
0000
0100
0000
0001
0010
0001
0000
1000
0000
0010
0000
,  // measure 54
1000
0010
0100
0000
0001
0000
0000
0000
1000
0010
0100
0000
0001
0000
0000
0000
,  // measure 55
1000
0000
0010
0000
0001
0000
0010
0000
1000
0100
1000
0000
0001
0000
0100
0000
,  // measure 56
0001
0100
0010
0000
1000
0000
0000
0000
0001
0100
0010
0000
1000
0000
1000
0000
,  // measure 57
0001
0100
0001
0000
1000
0000
0100
0000
1000
0001
1000
0000
0100
0000
0001
0000
,  // measure 58
0100
1000
0010
0000
0100
0000
0000
0000
0010
1000
0100
0000
0010
0000
0000
0000
,  // measure 59
0001
1000
0001
0000
0010
0000
1000
0000
0010
0000
0002
0000
0000
0000
0000
0000
,  // measure 60
1003
0001
1000
0000
0100
0000
0001
0000
0100
1000
0100
0000
0010
0001
0010
0000
,  // measure 61
0001
1000
0001
0000
1000
0000
0100
0000
0001
0000
0100
0000
0010
0000
0001
0000
,  // measure 62
1000
0100
1000
1000
0001
0010
0001
0001
,  // measure 63
1000
0001
1000
0000
0001
0000
0010
0000
1000
0000
0010
0000
0100
0000
1000
0000
,  // measure 64
0001
0100
0001
0001
1000
0010
1000
1000
,  // measure 65
0001
1000
0001
0000
0100
0000
1000
0000
0100
0000
0010
0000
1000
0000
0001
0000
,  // measure 66
0100
0001
0001
1000
0100
1000
1000
0001
,  // measure 67
0100
1000
0100
0001
0000
1001
0000
0000
,  // measure 68
1000
0000
0010
0000
0001
0000
0010
0000
1000
0010
1000
0000
0001
0100
0001
0000
,  // measure 69
2000
0000
0000
0100
3200
0000
0000
0320
,  // measure 70
0000
0000
0000
0001
0032
0000
0000
0203
,  // measure 71
0000
0000
0000
0010
0320
0000
0000
2030
,  // measure 72
0000
0000
0000
0100
3200
0000
0000
0320
,  // measure 73
0000
0000
0000
0001
0032
0000
0000
0203
,  // measure 74
0000
0000
0000
0010
0320
0000
0000
1030
;

//---------------dance-single - ----------------
#NOTES:
     dance-single:
     :
     Beginner:
     1:
     0.056,0.093,0.009,0.000,0.000:
1000
0000
0000
0000
,
0000
0000
0000
0000
,
1000
0000
0000
0000
,
0000
0000
0000
0000
,
0001
0000
0000
0000
,
0000
0000
0000
0000
,
0001
0000
0000
0000
,
0000
0000
0000
0000
,
0100
0000
0000
0000
,
0000
0000
0000
0000
,
0010
0000
0000
0000
,
0000
0000
0000
0000
,
0100
0000
0000
0000
,
0000
0000
0000
0000
,
0001
0000
0000
0000
,
0000
0000
0000
0000
,
1000
0000
0000
0000
,
0000
0000
0000
0000
,
1000
0000
0000
0000
,
0000
0000
0000
0000
,
1001
0000
0000
0000
,
0000
0000
0000
0000
,
0001
0000
0000
0000
,
0000
0000
0000
0000
,
1000
0000
0000
0000
,
0000
0000
0000
0000
,
0001
0000
0000
0000
,
0000
0000
0000
0000
,
0100
0000
0000
0000
,
0000
0000
0000
0000
,
0010
0000
0000
0000
,
0000
0000
0000
0000
,
0000
0100
0000
0000
,
0000
0000
0000
0000
,
0010
0000
0000
0000
,
0000
0000
0000
0000
,
1000
0000
0000
0000
,
0000
0000
0000
0000
,
1000
0000
0000
0000
,
0000
0000
0000
0000
,
0001
0000
0000
0000
,
0000
0000
0000
0000
,
0001
0000
0000
0000
,
0000
0000
0000
0000
,
0001
0000
0000
0000
,
0000
0000
0000
0000
,
1000
0000
0000
0000
,
0000
0000
0000
0000
,
0100
0000
0000
0000
,
0000
0000
0000
0000
,
0010
0000
0000
0000
,
0000
0000
0000
0000
,
0001
0000
0000
0000
,
1000
0000
0000
0000
,
0001
0000
0000
0000
,
1000
0000
0000
0000
,
0010
0000
0000
0000
,
0100
0000
0000
0000
,
0010
0000
0000
0000
,
0100
0000
0000
0000
,
0001
0000
0000
0000
,
0001
0000
0000
0000
,
1000
0000
0000
0000
,
1000
0000
0000
0000
,
0001
0000
0000
0000
,
0001
0000
0000
0000
,
1000
0000
0000
0000
,
0001
0000
0000
0000
,
0100
0000
0000
0000
,
0000
0000
0000
0000
,
0100
0000
0000
0000
,
0000
0000
0000
0000
,
0100
0000
0000
0000
;
