#TITLE:popdod;
#SUBTITLE:;
#ARTIST:AKIRA YAMAOKA;
#TITLETRANSLIT:;
#SUBTITLETRANSLIT:;
#ARTISTTRANSLIT:;
#CREDIT:DigiMindAxel;
#BANNER:popdod.png;
#BACKGROUND:popdod-bg.png;
#LYRICSPATH:popdod.lrc;
#CDTITLE:pop'n music.png;
#MUSIC:popdod.mp3;
#OFFSET:-7.075;
#SAMPLESTART:66.599;
#SAMPLELENGTH:12.000;
#SELECTABLE:YES;
#BPMS:0.000=145.000;
#STOPS:14.000=0.414
,29.000=0.414
,106.000=1.241
,265.000=0.414
;
#BGCHANGES:;

//---------------dance-single - ----------------
#NOTES:
     dance-single:
     :
     Easy:
     4:
     0.278,0.348,0.172,0.196,0.000:
1000
0000
1000
0000
,
1000
0000
1000
0000
,
0001
0000
0001
0000
,
0001
0000
0001
1000
,
0100
1000
0000
0001
,
0010
0001
0000
0100
,
0010
0100
0000
0010
,
0100
0010
1000
0100
,
0010
0001
1000
0001
,
2000
0000
3001
0010
,
0100
1000
0001
1000
,
0002
0000
1003
0100
,
1000
0000
0001
0010
,
0001
0001
1000
0010
,
1000
0000
0001
0100
,
0001
0001
1000
0100
,
0010
0000
0001
1000
,
0001
0001
0001
0010
,
0100
0000
1000
0001
,
1000
1000
2002
3003
,
0100
0100
0220
0330
,
0010
0010
0220
0330
,
0001
0001
2002
3003
,
0100
0100
0220
0330
,
0010
0010
0220
0330
,
1000
1000
2002
3003
,
0010
0010
0000
1001
,
0010
0100
1000
0001
,
1000
0001
1000
0100
,
0000
0000
0000
1001
,
0000
0000
0000
1000
,
0001
1000
0001
1000
,
0100
0010
0001
0200
,
0000
0310
0000
0020
,
0000
0130
0000
1001
,
0000
0110
0000
0001
,
0010
0100
1000
1001
,
0000
0110
0000
1000
,
0100
0010
0001
1001
,
0000
0110
0000
0001
,
0010
0100
1000
1001
,
0000
0110
0000
1000
,
0100
0010
0001
1000
,
1000
0001
0001
1000
,
1000
0001
0001
1000
,
0100
0010
0001
1000
,
0010
0100
0000
1001
,
0000
0110
0000
0001
,
0010
0100
1000
0001
,
0001
1000
1000
0100
,
0010
0002
0000
1003
,
0000
1000
0000
2000
,
0000
0000
0000
3001
,
0000
0110
0000
0001
,
0010
0100
1000
0001
,
0000
0001
0000
0002
,
0000
0000
0000
1003
,
0000
0110
0000
1000
,
0100
0010
0001
1000
,
1000
0001
0001
1000
,
1000
0001
0001
0100
,
0100
0010
0010
0100
,
0100
0010
0010
1000
,
0100
0010
0001
2000
,
0000
0000
3000
0001
,
0010
0100
1000
0002
,
0000
0003
2002
0000
,
0000
0000
0000
0000
,
0000
0000
3003
0000
;

//---------------dance-single - ----------------
#NOTES:
     dance-single:
     :
     Medium:
     6:
     0.455,0.429,0.305,0.250,0.000:
0001
1000
0001
0000
0010
0100
0010
0000
,
0001
1000
0001
0000
0010
0100
0010
0000
,
1000
0100
1000
0000
0001
0010
0001
0000
,
0010
0100
0010
0000
0001
0000
1000
0100
,
0010
0000
0001
0100
0001
0000
0010
0100
,
1000
0000
0001
0100
0001
0000
0010
0001
,
0100
0000
0010
0100
0010
0000
0100
0001
,
0010
0100
1000
1100
,
1100
0101
0101
1100
,
1002
0000
0103
0101
,
0101
1100
1100
0101
,
2001
0000
0000
0000
3001
0010
0100
0000
,
0010
0100
1000
0000
0001
0010
0100
0000
,
2000
0000
3001
0000
1000
0100
0010
0000
,
0100
0010
0001
0000
1000
0100
0010
0000
,
0002
0000
1003
0000
0001
0100
1000
0000
,
1000
0100
0001
0000
0001
0100
1000
0000
,
0110
0000
1001
0000
1000
0100
0001
0000
,
0001
0100
1000
0000
1000
0100
0001
0000
,
0100
0000
1000
0000
0100
1000
0010
0100
,
0002
0000
1003
0000
0010
0001
0100
0010
,
2000
0000
3001
0000
0010
1000
0001
0010
,
0200
0000
1300
0000
0010
0001
0001
1000
,
2000
0000
3010
0000
0100
0001
1000
0000
,
1100
0000
0101
0000
0010
1000
0001
0000
,
0101
0000
1100
0000
0010
0100
1000
0000
,
0110
0000
0101
0000
0000
0000
0010
1000
,
0010
1000
0010
0100
0001
0100
0001
0000
,
0000
0000
0010
0100
1000
0001
0200
0000
,
0000
0010
0310
2002
,
0000
0000
0000
0000
3003
0000
0100
0001
,
0100
0001
0100
0010
1000
0010
1000
0000
,
1000
0000
1000
0001
0010
0100
2000
0000
,
0000
3010
0000
0200
,
0000
0301
0000
0101
,
1000
0000
0101
0000
1000
0000
0100
1000
,
0100
0000
0010
0001
0010
0000
1100
0000
,
0001
0000
1100
0000
0001
0000
0100
0001
,
0010
0000
0100
1000
0010
0000
1010
0000
,
0001
0000
1010
0000
0001
0000
0010
0001
,
0100
0000
0010
1000
0100
0000
0011
0000
,
1000
0000
0011
0000
1000
0000
0010
0100
,
0010
0100
0001
1000
0001
0000
0100
0001
,
0010
0000
0100
1000
0100
0000
0010
0001
,
0100
0000
0010
1000
0010
0000
1000
0100
,
0010
0000
0001
0100
0001
0000
0010
0100
,
1000
0000
0020
0000
0000
0000
0130
0001
,
0010
0000
0100
0010
0100
1000
0100
0010
,
0100
0010
0001
0000
1001
0000
0100
1000
,
0100
1000
0001
0000
1001
0000
0020
0000
,
0230
2300
3000
1001
,
0000
1001
0000
2200
,
0300
0002
3003
1001
,
0000
0000
1001
0000
0000
0000
0001
0010
,
0100
0000
0010
0100
1000
0001
0200
0000
,
0000
0000
0302
0000
0000
0000
1003
0100
,
0010
0001
1000
0000
1000
0000
1001
0000
,
1000
0000
1001
0000
0001
0000
1000
0100
,
0010
0000
0100
0010
0001
0000
0100
0001
,
1000
0000
0100
1000
0001
0000
0010
0100
,
1000
0000
0001
0010
0100
0000
1000
0100
,
0001
0000
0001
0100
1000
0000
0001
0100
,
1000
0000
1000
0100
0001
0000
0100
0001
,
0100
0001
2000
0000
0100
0000
3002
0000
,
0203
0000
0320
0000
2030
0000
3010
1000
,
0010
1000
0002
0000
0100
0000
2003
0000
,
3020
0130
2002
0000
,
0000
0000
0000
0000
,
0000
0000
3003
0000
;

//---------------dance-single - ----------------
#NOTES:
     dance-single:
     :
     Hard:
     9:
     0.628,0.616,0.289,0.289,0.415: // measure 1
1000
0010
0100
0001
0100
1000
0100
0000
,  // measure 2
0010
1000
0001
0010
1000
0010
0001
0000
,  // measure 3
0010
0100
1000
0001
0010
1000
0010
0000
,  // measure 4
0100
0000
1000
0000
0001
0000
0010
0000
0100
0000
0000
0000
1000
0000
0001
0100
,  // measure 5
0001
0010
0100
1000
0100
0010
0200
0000
,  // measure 6
1300
0000
0001
0000
0200
0000
0000
0000
0301
0000
0010
0000
0100
0000
1000
0010
,  // measure 7
1000
0001
1000
0100
0010
0001
0200
0000
,  // measure 8
0301
1000
0100
0000
1000
0100
0001
0100
,  // measure 9
1000
0100
0001
0100
1000
0100
0010
0001
,  // measure 10
1001
0000
0110
0000
1000
0010
0001
0010
,  // measure 11
1000
0010
0001
0010
1000
0100
0010
0001
,  // measure 12
1001
0000
0110
0000
1000
0100
0010
0000
,  // measure 13
0100
1000
0001
0100
0001
1000
0100
0000
,  // measure 14
0012
0000
2003
0000
3001
0010
0100
0000
,  // measure 15
0010
0001
1000
0100
0001
0100
0010
0000
,  // measure 16
2100
0000
0000
0000
3002
0000
0000
0000
0013
0000
0100
0000
1000
0001
1000
0000
,  // measure 17
0100
0000
0010
0000
0001
1000
0001
0000
0100
0000
0010
0000
1000
0100
1000
0000
,  // measure 18
0002
0000
0000
0000
2003
0000
0000
0000
3100
0000
0010
0000
0001
1000
0001
0000
,  // measure 19
0010
0000
0100
0000
1000
0001
1000
0000
0010
0000
0100
0000
0001
0010
0002
0000
,  // measure 20
1000
0000
0000
0000
1003
0000
0000
0000
0001
0000
1000
0100
0000
0100
1000
0000
,  // measure 21
0002
0000
0000
0203
0000
0000
0310
0000
1000
0000
0001
0000
0010
0000
0100
0000
,  // measure 22
0010
0000
0001
0000
1000
0100
1000
0100
1000
0000
0001
0100
0000
0100
0001
0000
,  // measure 23
2000
0000
0000
3020
0000
0000
0130
0000
0001
0000
1000
0100
0000
0100
0000
0100
,  // measure 24
0020
0000
0001
0000
0031
0000
0000
0000
0001
0000
1000
0010
0000
0010
1000
0000
,  // measure 25
0002
0000
0000
0023
0000
0000
0130
0000
1000
0000
0001
0000
0100
0000
0010
0000
,  // measure 26
0100
0000
0001
0000
1000
0000
0100
0000
0010
0000
0001
0100
0000
0100
0001
0000
,  // measure 27
2000
0000
0000
3200
0000
0000
0310
0000
0000
0000
0000
0000
0001
0000
0100
0000
,  // measure 28
1000
0100
0010
1000
0100
0001
0200
0000
,  // measure 29
1000
0000
1300
0001
0010
0100
2000
0000
,  // measure 30
0100
0001
3100
1002
,  // measure 31
0000
0000
0000
0000
0103
0000
0000
0010
0100
0000
0100
0000
0001
0000
0100
0000
,  // measure 32
1000
0100
0010
1000
0100
0001
0200
0000
,  // measure 33
0310
0000
0001
0000
1000
0000
0100
0000
0010
0000
0001
0000
0100
0001
0000
0100
,  // measure 34
0000
0001
1000
0000
0010
0100
0000
0010
0000
0100
0000
0000
0010
1000
0000
0010
,  // measure 35
0000
1000
0001
0000
0200
0000
0000
0000
0300
0000
0000
0000
1100
0000
0000
1001
,  // measure 36
0000
0000
0000
0000
1100
0000
0000
1001
0000
0000
0000
0000
1000
0000
0001
0000
,  // measure 37
0100
0000
1000
0000
0001
0000
0010
0000
1000
0000
0001
0000
0101
0000
0000
1001
,  // measure 38
0000
0000
0000
0000
0101
0000
0000
1001
0000
0000
0000
0000
0001
0000
1000
0000
,  // measure 39
0100
0000
0001
0000
1000
0000
0010
0000
0001
0000
1000
0000
1100
0000
0000
1001
,  // measure 40
0000
0000
0000
0000
1100
0000
0000
1001
0000
0000
0000
0000
1000
0000
0001
0000
,  // measure 41
0100
0000
1000
0000
0001
0000
0010
0000
1000
0000
0001
0000
0101
0000
0000
1001
,  // measure 42
0000
0000
0000
0000
0101
0000
0000
1001
0000
0000
0000
0000
0001
0000
1000
0000
,  // measure 43
0100
0000
0001
0000
1000
0000
0010
0000
0001
0000
1000
0000
0020
0000
0000
0100
,  // measure 44
0000
0000
0130
0000
0002
0000
0000
1000
0000
0000
1003
0000
0200
0000
0000
1000
,  // measure 45
0000
0000
1300
0000
0020
0000
0000
0001
0000
0000
0031
0000
0200
0000
0000
0010
,  // measure 46
0000
0000
0310
0000
2000
0000
0000
0001
0000
0000
3001
0000
0200
0000
0000
0010
,  // measure 47
0000
0000
0310
0000
1000
0000
0000
1000
0000
0000
1000
0000
0001
1000
0000
1000
,  // measure 48
0100
0000
1000
0000
0001
1000
0000
1000
0010
0000
0100
0001
0100
0000
0001
0000
,  // measure 49
0001
0000
0001
0000
1000
0000
0010
0100
0010
0100
0010
0000
1000
0100
0010
0000
,  // measure 50
0001
0100
0001
0000
1000
0000
0100
1000
0100
0000
0100
0000
0110
0000
0000
0000
,  // measure 51
1100
0000
0000
0000
2002
0000
0000
0000
3003
0000
0000
0000
0101
0000
0000
0001
,  // measure 52
0000
0000
0000
0000
0101
0000
0000
0001
0000
0000
0000
0000
2000
0000
0000
0100
,  // measure 53
0000
0000
0100
0000
0000
0000
0001
0000
3001
0000
0000
0000
1100
0000
0000
1001
,  // measure 54
0000
0000
0000
0000
1100
0000
0000
1001
0000
0000
0000
0000
1000
0000
0001
0000
,  // measure 55
0100
0000
1000
0000
0001
0000
0010
0000
1000
0000
0001
0000
1000
0000
0001
0100
,  // measure 56
0000
0100
0001
0000
1000
0000
0001
0100
0000
0100
0001
0000
1000
0000
0001
0010
,  // measure 57
0100
1000
0001
0100
0002
0000
0000
0100
0000
0000
0103
0000
0101
0000
0000
1001
,  // measure 58
0000
0000
0000
0000
0101
0000
0000
1001
0000
0000
0000
0000
0001
0000
1000
0000
,  // measure 59
0100
0000
0001
0000
1000
0000
0010
0000
0001
0000
1000
0000
0001
0000
0010
0001
,  // measure 60
0000
0010
0001
0000
1000
0000
0010
1000
0000
0010
1000
0000
0010
0000
0100
0001
,  // measure 61
0000
0100
0001
0000
1000
0000
0100
1000
0000
0100
1000
0000
0001
0000
0100
0010
,  // measure 62
0000
0100
0010
0000
1000
0000
0010
0100
0000
0010
0100
0000
0001
0000
0100
0001
,  // measure 63
0000
0100
0001
0000
1000
0000
0010
1000
0000
0010
1000
0000
0001
0000
0100
0001
,  // measure 64
0000
1000
0100
0000
1000
0000
0100
1000
0000
0001
0100
0000
0001
0000
1000
0100
,  // measure 65
0000
1000
0001
0000
1000
0000
0001
0010
0000
0001
1000
0000
0010
0000
0100
0010
,  // measure 66
0000
1000
0100
0000
0010
0000
0001
0010
0000
0001
0100
0000
0010
0000
1000
0010
,  // measure 67
0000
1000
0001
0000
0100
0000
0000
0000
2002
0000
0000
0000
0000
0000
0000
0000
,  // measure 68
0000
0000
0000
0000
,  // measure 69
0000
0000
3003
0000
;

//---------------dance-single - ----------------
#NOTES:
     dance-single:
     :
     Beginner:
     2:
     0.106,0.156,0.141,0.000,0.000:
1000
0000
0000
0000
,
0001
0000
0000
0000
,
1000
0000
0000
0000
,
0001
0000
0000
0100
,
0000
0000
0000
0010
,
0000
0000
0000
0100
,
0000
0000
0000
0010
,
0000
0000
1000
0000
,
0000
0000
0000
0000
,
1001
0000
0001
0000
,
0000
0000
0000
0000
,
1001
0000
1000
0000
,
0000
0000
0000
0000
,
0000
0000
1000
0000
,
0000
0000
0000
0000
,
0000
0000
0001
0000
,
0000
0000
0000
0000
,
0000
0000
0001
0000
,
0000
0000
0000
0000
,
0000
0000
1001
0000
,
1000
0000
0010
0000
,
0100
0000
1001
0000
,
0001
0000
0100
0000
,
0000
0000
1001
0000
,
0000
0000
1000
0000
,
0000
0000
1001
0000
,
0000
0000
0000
1001
,
0000
0000
0000
0000
,
0000
0000
0000
0001
,
0000
1000
0000
0001
,
0000
0000
0000
1000
,
0000
0000
0000
0100
,
0000
0000
0000
0010
,
0000
0000
0000
0001
,
0000
0000
0000
1001
,
0000
0000
0000
1000
,
0000
0000
0000
1001
,
0000
0000
0000
0001
,
0000
0000
0000
1001
,
0000
0000
0000
1000
,
0000
0000
0000
1001
,
0000
0000
0000
0001
,
0000
0000
0000
0100
,
0000
0000
0000
0100
,
0000
0000
0000
0100
,
0000
0000
0000
0100
,
0000
0000
0000
0010
,
0000
0000
0000
0010
,
0000
0000
0000
0010
,
0000
0000
0000
0110
,
0000
0000
0000
1001
,
0000
0000
0000
0001
,
0000
0000
0000
1001
,
0000
1001
0000
1000
,
0000
0000
0000
1001
,
0000
0000
0000
0001
,
0000
0000
0000
1001
,
0000
0001
0000
1000
,
0000
0000
0000
0010
,
0000
0100
0000
0010
,
0000
0100
0000
0001
,
0000
1000
0000
0001
,
0000
1000
0000
0001
,
0000
0010
0000
0100
,
0000
1000
0000
0001
,
0000
0010
0000
0100
,
0000
1000
1001
0000
;
