#TITLE:∞space;
#SUBTITLE:;
#ARTIST:m@sumi;
#TITLETRANSLIT:infinite space;
#SUBTITLETRANSLIT:;
#ARTISTTRANSLIT:;
#CREDIT:DigiMindAxel;
#BANNER:infinite space.png;
#BACKGROUND:infinite space-bg.png;
#LYRICSPATH:;
#CDTITLE:pop'n music.png;
#MUSIC:infinite space.mp3;
#OFFSET:-9.740;
#SAMPLESTART:39.360;
#SAMPLELENGTH:12.000;
#SELECTABLE:YES;
#BPMS:0.000=160.000;
#STOPS:3.000=1.125
;
#BGCHANGES:;

//---------------dance-single - ----------------
#NOTES:
     dance-single:
     :
     Easy:
     2:
     0.191,0.259,0.011,0.358,0.000:
0000
0000
0000
0000
,
1001
0000
1000
0000
,
0001
0000
0000
0000
,
0100
0000
0010
0000
,
0100
0000
0000
0000
,
0001
0000
0100
0000
,
0001
0000
0000
0000
,
1000
0000
0100
0000
,
1000
0000
0000
0000
,
0000
0000
1000
0000
,
0001
0000
0000
1000
0000
0000
0000
0000
,
0010
0000
0000
0000
0100
0000
0000
0010
,
0000
0000
1000
0000
,
0001
0000
0000
0100
0000
0000
0000
0000
,
0001
0000
2000
0000
,
3000
0001
0000
1000
,
0000
0010
0000
0000
0000
0000
1000
0000
,
0000
0000
0001
0000
0000
0100
0000
0000
,
0000
0001
0010
0100
,
2000
0000
3002
0000
,
2003
0000
3002
0000
,
0203
0000
0320
0000
,
2030
0000
0000
0000
,
3002
0000
0203
0000
,
0302
0000
2003
0000
,
3020
0000
2030
0000
,
3200
0000
0320
0000
,
0032
0000
2003
0000
,
3001
0010
0100
1000
,
0020
0000
0230
0000
,
0320
0000
0000
0000
,
2030
0000
3002
0000
,
0000
0000
0000
0000
,
2003
0000
0000
0000
,
3001
0000
0000
0000
,
0000
0000
0001
0000
,
1000
0000
0000
0100
0000
0000
0000
0000
,
1000
0000
0000
0000
0001
0000
0000
0100
,
0000
0000
0001
0000
,
1000
0000
0000
0010
0000
0000
0000
0000
,
2000
0000
3001
0010
,
0000
0001
0000
1000
,
0000
0010
0000
0000
0000
0000
1000
0000
,
0000
0000
0001
0000
0000
0100
0000
0000
,
0000
0001
0000
1000
,
0200
0000
2000
0000
,
0000
0000
0000
3300
,
0020
0000
0002
0000
,
0000
0000
0000
0000
,
0033
0000
0100
1000
,
0002
0000
1003
2000
,
0000
3002
0000
0000
,
0203
0000
0302
0000
,
0000
0000
0000
0000
,
0000
0000
0000
0003
;

//---------------dance-single - ----------------
#NOTES:
     dance-single:
     :
     Medium:
     5:
     0.332,0.346,0.032,0.252,0.063:
0000
0000
0000
0000
,
1001
0000
0100
0000
,
0100
0000
0000
0010
0000
0000
0000
0000
,
0010
0000
0100
0000
,
0010
0000
0000
1000
0000
0000
0000
0000
,
1000
0000
0010
0000
,
1000
0000
0000
0001
0000
0000
0000
0000
,
0001
0000
0000
0000
1000
0000
0000
1001
,
0000
0000
1000
0000
0000
0000
0001
1000
,
0001
0000
0000
0200
0000
0000
0000
0000
0000
0000
0301
0000
1000
0000
0000
0000
,
0010
0000
0000
0000
0100
0000
0001
0000
0000
0000
0000
0200
0000
0000
0000
0000
,
0000
0301
1000
0000
0010
0000
0100
0001
,
0000
0000
0000
0200
0000
0000
0000
0000
0000
0000
0301
0000
1000
0000
0000
0000
,
0010
0000
0100
0001
0100
0001
0000
1000
,
0000
0000
0001
0000
0010
0000
0001
0000
2000
0000
0000
0000
0000
0000
0000
3020
,
0000
0000
0000
1030
0001
0000
0100
0000
,
0010
0000
1000
0000
0000
0000
0000
0020
0000
0000
0000
0000
0000
0000
1030
0000
,
0001
0000
0100
0000
0010
1000
0010
0000
,
0000
1000
0001
0000
0010
0000
0100
0000
,
1000
0000
0000
0010
1000
0000
0000
0001
,
0010
0000
0000
0100
0020
0000
0100
0000
,
0130
0000
0000
0001
1000
0000
0000
1000
,
0020
0000
0100
0130
,
0001
0000
0000
0100
0001
0000
0000
1000
,
0100
0000
0000
1000
0002
0000
1000
0000
,
1003
0000
0000
0010
1000
0000
0000
0001
,
0020
0000
0031
1000
,
0010
0000
0000
1000
0010
0000
0000
0100
,
0001
0010
0100
1000
,
0001
0000
0000
0010
0001
0000
0000
1000
,
0200
0000
1000
1300
,
1000
0000
0000
0001
0000
0000
2000
0000
0000
0000
0000
0000
0000
0000
0000
0000
,
3001
0000
0000
0010
0000
0000
0100
0000
,
0010
0001
1000
0010
,
0220
0000
0000
0330
,
0000
0000
0000
1000
0000
0000
0000
0000
0001
0000
0000
0000
1000
0000
0010
0000
,
1000
0000
0010
0000
1000
0000
0001
0000
0000
0000
0000
0001
0000
0000
0000
0000
,
1000
0000
0001
0100
0001
0100
0001
1000
,
0000
0000
0000
1000
0000
0000
0000
0000
0001
0000
0000
0000
1000
0000
0100
0000
,
1000
0100
1000
0001
0100
0000
0000
0001
,
0000
0000
1000
0000
0010
0000
0000
0000
0010
0000
0100
0000
0010
0000
0000
1000
,
0000
0000
0001
0000
0100
0010
0100
0010
,
0100
0000
0001
0000
0000
0000
0000
0001
0000
0000
0000
0000
1000
0000
0000
0000
,
0010
0100
0010
0100
0010
1000
0010
0000
,
0000
1000
0001
0000
0010
0000
0100
0000
,
2000
0000
0020
0000
,
3000
1000
0000
1030
,
0002
0000
0000
0100
0200
0000
0003
0000
,
0001
0000
0000
0000
0000
0000
0000
0000
0001
0000
0000
0000
0000
0000
0000
0001
,
0000
0301
0010
0100
,
2000
0000
0100
3200
,
0000
0320
0000
0001
,
0032
0000
2003
0000
,
0001
0000
0100
0100
,
0000
0001
0002
0000
0000
0000
3003
0000
;

//---------------dance-single - ----------------
#NOTES:
     dance-single:
     :
     Hard:
     7:
     0.434,0.432,0.053,0.347,0.195:
0000
0000
0000
0000
,
0101
0000
0000
1000
0100
0000
0000
0000
,
0010
0000
0000
0100
0000
0000
1000
0000
0000
0000
0000
0000
0000
0000
0000
0000
,
1000
0000
0000
0001
0010
0000
0000
0000
,
0100
0000
0000
0010
0000
0000
0001
0000
0000
0000
0000
0000
1000
0000
0001
0000
,
0100
0000
0000
0010
0100
0000
0000
0000
,
0001
0000
0000
0010
0000
0000
0100
0000
0000
0000
0000
0000
0000
0000
0000
0000
,
1000
0000
0000
0010
0100
0000
0000
0110
,
0000
0000
0001
0000
0010
0000
0000
0000
0000
0000
0000
0000
0001
1000
0001
1000
,
0001
0000
0000
0200
0000
0000
0000
0000
0301
0000
0000
0000
0001
0000
1000
0000
,
0001
0000
0000
0010
0000
0000
1000
0000
0000
0000
0000
0020
0000
0000
0000
0000
,
1030
0000
0000
0000
1000
0000
0001
0000
1000
0000
0000
0010
0000
0000
0001
0000
,
0000
0000
0000
0020
0000
0000
0000
0000
0031
0000
0000
0000
0001
0000
1000
0000
,
0001
0010
0100
1000
0001
0001
0000
0100
,
0000
0000
0100
0000
0010
0000
0100
0000
0001
0000
0000
1000
0000
0000
0000
0200
,
0000
0000
0000
0000
1300
0000
0000
0000
1000
0000
0001
0000
1000
0000
0000
0100
,
0000
0000
0001
0000
0000
0000
0000
0200
0000
0000
0000
0000
0301
0000
0000
0000
,
0001
0000
1000
0000
0001
0000
0000
0100
0000
0000
1000
0000
0020
0000
0000
0000
,
0000
1030
0001
0010
0001
0010
0001
1000
,
0010
0000
0000
1000
0000
0000
0010
0000
1000
0000
0000
0001
0000
0000
0010
0000
,
0001
0000
0000
1000
0000
0000
0010
0000
2000
0000
0000
0000
0010
0000
0000
0000
,
3010
0000
0000
1000
0000
0000
0001
0000
0020
0000
0000
0000
0000
0000
0031
0000
,
2000
0000
3001
1001
,
0100
0000
0000
0001
0000
0000
0100
0000
0001
0000
0000
1000
0000
0000
0100
0000
,
1000
0000
0000
0001
0000
0000
0100
0000
0002
0000
0000
0000
0000
0000
1003
0000
,
0100
0000
0000
1000
0000
0000
0001
0000
0200
0000
0000
0000
0000
0000
0310
0000
,
2000
0000
0000
3001
1000
0000
1001
0000
,
0001
0000
0000
0010
0000
0000
0001
0000
1000
0000
0000
0010
0000
0000
1000
0000
,
0001
0000
0100
0001
0100
0001
0100
0001
,
1000
0000
0000
0100
0000
0000
1000
0000
0020
0000
0000
0000
0000
0000
0130
0000
,
0002
0000
1003
1001
,
1000
0000
0000
0001
0000
0000
0010
0000
0000
0000
0001
0000
1000
0000
0000
0000
,
0200
0000
0000
2300
0000
0000
3001
0000
,
0001
0010
0100
1000
0010
1000
0010
1000
,
0002
0000
0000
0000
0000
1003
0000
0000
,
0000
0000
0000
0200
0000
0000
0000
0000
1300
0000
0001
0000
1000
0000
0100
0000
,
0010
0000
0000
0001
0000
0000
1000
0000
0000
0000
0000
0200
0000
0000
0000
0000
,
1300
0000
0001
0000
1000
0000
0100
0000
0010
0000
0000
0001
0000
0000
0100
0000
,
0000
0000
0000
0020
0000
0000
0000
0000
1030
0000
0001
0000
1000
0000
0100
0000
,
0010
0000
0000
0001
0000
0000
0100
0000
0010
0000
0000
0000
0000
0000
1000
0000
,
0000
0000
0001
0000
0100
0000
0001
0000
1000
0000
0100
0000
0010
0000
0000
0002
,
0000
0000
1003
0001
0100
0001
0010
0100
,
1000
0000
0010
0000
0000
0000
0000
2000
0000
0000
0000
0000
3001
0000
1000
0000
,
0010
1000
0100
0010
0001
0100
0002
0000
,
0000
1003
0100
0010
0001
1000
0010
1000
,
0002
0000
0000
1000
2003
0000
0000
0000
,
0010
0000
0010
0000
0000
0001
3001
0000
,
2000
0000
0000
0001
3002
0000
0000
0000
,
0010
0000
0000
0000
0000
0000
0000
0000
0010
0000
0000
0000
0010
0000
0000
0010
,
0000
0000
0000
0000
1003
0000
0000
0000
0100
0000
0000
0000
0010
0000
0000
0001
,
2000
0000
0010
3020
,
0000
0000
0230
0000
0000
0001
0301
0000
,
2000
0000
0000
0001
3002
0000
0000
0000
,
0010
0000
1000
1000
,
0000
0010
0020
0000
0000
0000
0033
0000
;

//---------------dance-single - ----------------
#NOTES:
     dance-single:
     :
     Challenge:
     8:
     0.542,0.662,0.084,0.515,0.263: // measure 1
0000
0000
0000
0000
,  // measure 2
1100
0000
0000
0001
0100
0000
0000
0000
,  // measure 3
0110
0000
0000
0001
0000
0000
1000
0000
0000
0000
0000
0000
0000
0000
0001
0000
,  // measure 4
0001
0000
0000
1000
0010
0000
0000
0000
,  // measure 5
0110
0000
0000
1000
0000
0000
0001
0000
0000
0000
0100
0000
0001
0000
0001
0000
,  // measure 6
1000
0000
0000
0001
0010
0000
0000
0000
,  // measure 7
0110
0000
0000
1000
0000
0000
0001
0000
0000
0000
0000
0000
0000
0000
1000
0000
,  // measure 8
1000
0000
0000
1000
0010
0100
0000
0110
,  // measure 9
0000
0000
0001
0000
0001
0000
0000
0000
0000
0000
0000
0000
1000
0001
1000
0001
,  // measure 10
1000
0000
0000
0200
0000
0000
0000
0000
1300
0000
0001
0000
0010
0000
0001
0000
,  // measure 11
1000
0000
0100
0000
0010
0000
0001
0000
0000
0000
0000
0200
0000
0000
0000
0000
,  // measure 12
0301
1000
0100
1000
0001
0010
0100
1000
,  // measure 13
0000
0000
0000
0020
0000
0000
0000
0000
1030
0000
0001
0000
0100
0000
0001
0000
,  // measure 14
1000
0100
0010
0001
1000
0100
0000
2000
,  // measure 15
0000
0000
0001
0000
3001
0000
1000
0000
0010
1000
0010
1000
0000
0000
0000
0002
,  // measure 16
0000
0000
1003
0100
0010
0001
1000
0100
,  // measure 17
1000
0000
0001
0000
0000
0000
0000
2000
0000
0000
0000
0000
3001
0000
0010
0000
,  // measure 18
0100
1000
0001
0100
0001
0010
0200
0000
,  // measure 19
0000
1300
0100
0010
0001
1000
0100
1000
,  // measure 20
0002
0000
0000
0100
0000
0000
0103
0000
0020
0000
0000
1000
0000
0000
1030
0000
,  // measure 21
0002
0000
0000
1000
0000
0000
1003
0000
0010
0000
0000
0000
0110
0000
0000
0000
,  // measure 22
2000
0000
0000
0010
0000
0000
3010
0000
0200
0000
0000
0001
0000
0000
0301
0000
,  // measure 23
2000
0000
3100
0110
,  // measure 24
0002
0000
0000
1000
0000
0000
1003
0000
0200
0000
0000
1000
0000
0000
1300
0000
,  // measure 25
0020
0000
0000
0100
0000
0000
0130
0000
0002
0000
0000
0000
1003
0000
0001
0000
,  // measure 26
0020
0000
0000
0001
0000
0000
0031
0000
0200
0000
0000
0000
0000
0000
0310
0000
,  // measure 27
2000
0000
0000
3001
0100
0000
0110
0000
,  // measure 28
2000
0000
0000
0001
0000
0000
3001
0000
0020
0000
0000
0001
0000
0000
0031
0000
,  // measure 29
2000
0000
0000
0000
3001
0000
0010
0000
0100
0000
1000
0001
1000
0001
1000
0000
,  // measure 30
0002
0000
0000
1000
0000
0000
1003
0000
0020
0000
0000
0000
0000
0000
0130
0000
,  // measure 31
0002
0000
0000
1000
0000
0000
1003
0000
0020
0000
0000
0100
0000
0000
0130
0000
,  // measure 32
0002
0000
0000
1000
0000
0000
1003
0000
0000
0000
1000
0000
0010
1000
0010
0000
,  // measure 33
1000
0001
1000
0001
1000
0000
0001
0010
0001
0010
0001
0000
1000
0001
1000
0000
,  // measure 34
0100
0000
0010
0000
0001
0000
0010
0000
0100
0000
1000
0000
0001
0000
1000
0001
,  // measure 35
1000
0000
0000
0100
0000
0000
0001
0000
0000
0000
0100
0000
1000
0000
0001
0000
,  // measure 36
0000
0000
0000
0200
0000
0000
0000
0000
0301
0000
1000
0000
0100
0000
0001
0000
,  // measure 37
0100
0000
1000
0000
0001
0000
0001
0000
0000
0000
0000
0200
0000
0000
0000
0000
,  // measure 38
0301
1000
0001
0010
1000
0010
0001
1000
,  // measure 39
0000
0000
0000
0200
0000
0000
0000
0000
1300
0000
0001
0000
1000
0000
0100
0000
,  // measure 40
0001
0100
1000
0010
0100
0100
0000
0002
,  // measure 41
0000
0000
0103
0000
0001
0000
0100
0000
0010
1000
0010
1000
0000
0000
0000
0002
,  // measure 42
0000
0000
1003
0100
0001
0100
1000
0100
,  // measure 43
0010
0000
0001
0000
0000
0000
0000
2000
0000
0000
0000
0000
3001
0000
0010
0000
,  // measure 44
1000
0010
0001
0010
0100
1000
0200
0000
,  // measure 45
0000
1300
0001
0100
1000
0100
0001
0010
,  // measure 46
0200
0000
0000
1000
0000
0000
1300
0000
0002
0000
0000
0000
0000
0000
0000
0000
,  // measure 47
0100
0000
0100
0000
0000
1000
1003
0000
,  // measure 48
0020
0000
0000
0000
0000
0000
0130
0000
0002
0000
0000
1000
0000
0000
1003
0000
,  // measure 49
0020
0000
0000
0000
0000
0000
0000
0000
0100
0000
0000
0000
0130
0000
0000
0001
,  // measure 50
0000
0000
1000
0000
0010
0000
0000
0000
1000
0000
0010
0000
0100
0000
0000
0001
,  // measure 51
2000
0000
0000
0010
0000
0000
3010
0000
0200
0000
0000
0000
0302
0000
0000
0000
,  // measure 52
0000
0000
2003
0000
0000
0001
3001
0000
,  // measure 53
0020
0000
0000
0000
0000
0000
0130
0000
0002
0000
0000
0100
0000
0000
0103
0000
,  // measure 54
0020
0000
1000
1000
,  // measure 55
0030
2000
0002
0000
0000
0000
3003
0000
;

//---------------dance-single - ----------------
#NOTES:
     dance-single:
     :
     Beginner:
     1:
     0.057,0.086,0.000,0.000,0.000:
0000
0000
0000
0000
,
0001
0000
0000
0000
,
0000
0000
0000
0000
,
1000
0000
0000
0000
,
0000
0000
0000
0000
,
0001
0000
0000
0000
,
0000
0000
0000
0000
,
0001
0000
0000
0000
,
0000
0000
0000
0000
,
1000
0000
0000
0000
,
0000
0000
0000
0000
,
0001
0000
0000
0000
,
0000
0000
1000
0000
,
0000
0000
0000
0000
,
0001
0000
0000
0000
,
0000
0100
0000
0000
,
0000
0000
0000
0010
,
0000
0000
0000
0000
,
0000
0100
0000
0000
,
0001
0000
0000
0000
,
0000
0000
0000
0000
,
1000
0000
0000
0000
,
0000
0000
0000
0000
,
0001
0000
0000
0000
,
0000
0000
0000
0000
,
1000
0000
0000
0000
,
0001
0000
0000
0000
,
1000
0000
0000
0000
,
1000
0000
0000
0000
,
0001
0000
0000
0000
,
0001
0000
0000
0000
,
1000
0000
0000
0000
,
0001
0000
0000
0000
,
1000
0000
0000
0000
,
0100
0000
0000
0000
,
0010
0000
0001
0000
,
0000
0000
0000
0000
,
1000
0000
0000
0000
,
0000
0000
0001
0000
,
0000
0000
0000
0000
,
0010
0000
0000
0000
,
0000
0100
0000
0000
,
0000
0000
0000
1000
,
0000
0000
0000
0000
,
0000
0001
0000
0000
,
1000
0000
0000
0000
,
0000
0000
0000
0000
,
0000
0000
0010
0000
,
0000
0000
0000
0000
,
0000
0000
1000
0000
,
0001
0000
0000
0000
,
0000
0000
0000
0000
,
0000
0000
0001
0000
,
0000
0000
0000
0000
,
0000
1000
0000
0000
;
