#TITLE:gigadeli TRAVELのうた;
#SUBTITLE:;
#ARTIST:teranoid × BEMANIスタッフ;
#TITLETRANSLIT:gigadeli TRAVEL NO UTA;
#SUBTITLETRANSLIT:;
#ARTISTTRANSLIT:teranoid x BEMANI STAFF;
#CREDIT:DigiMindAxel;
#BANNER:gigadeli TRAVEL NO UTA.png;
#BACKGROUND:gigadeli TRAVEL NO UTA-bg.png;
#LYRICSPATH:;
#CDTITLE:BEMANI game remix.png;
#MUSIC:gigadeli TRAVEL NO UTA.mp3;
#OFFSET:-7.040;
#SAMPLESTART:12.562;
#SAMPLELENGTH:12.000;
#SELECTABLE:YES;
#DISPLAYBPM:173.000;
#BPMS:0.000=173.000,214.000=346.000,216.000=173.000,222.000=346.000,224.000=173.000,228.000=346.000,229.000=173.000,230.000=346.000,231.000=173.000,236.000=346.000,239.000=173.000,297.000=21.625,299.000=173.000;
#STOPS:214.000=0.058
,214.333=0.058
,214.667=0.058
,215.000=0.173
,222.000=0.058
,222.333=0.058
,222.667=0.058
,223.000=0.173
,228.000=0.058
,228.333=0.058
,228.667=0.058
,230.000=0.058
,230.333=0.058
,230.667=0.058
,236.000=0.173
,237.000=0.173
,238.000=0.173
;
#BGCHANGES:-21.000=gigadeli TRAVEL NO UTA.avi=1.000=1=1=0,
99999=-nosongbg-=1.000=0=0=0 // don't automatically add -songbackground-
;

//---------------dance-single - ----------------
#NOTES:
     dance-single:
     :
     Easy:
     4:
     0.335,0.352,0.204,0.090,0.000: // measure 1
1000
1000
1000
0000
,  // measure 2
0001
0001
1001
0000
,  // measure 3
1000
0001
1000
0001
,  // measure 4
0010
0100
1000
0000
,  // measure 5
1001
0001
1000
0001
,  // measure 6
0010
0100
1000
0000
,  // measure 7
0001
1000
0001
1000
,  // measure 8
0010
0100
0001
0000
,  // measure 9
0010
0100
0010
0100
,  // measure 10
0010
0001
1000
0000
,  // measure 11
0100
0010
0100
0010
,  // measure 12
0100
1000
0010
0000
,  // measure 13
1000
0001
1000
0001
,  // measure 14
1000
0100
0010
0000
,  // measure 15
0001
1000
0001
1000
,  // measure 16
0001
0010
0100
0000
,  // measure 17
0010
0100
0010
0100
,  // measure 18
0010
0001
1000
0000
,  // measure 19
0100
0010
0100
0010
,  // measure 20
0100
1000
0001
0000
,  // measure 21
1000
1000
0001
0001
,  // measure 22
1000
0100
0010
0000
,  // measure 23
0001
0001
1000
1000
,  // measure 24
0001
0010
0100
0000
,  // measure 25
1000
0001
1000
0001
,  // measure 26
1000
0100
0010
0000
,  // measure 27
0001
1000
0001
1000
,  // measure 28
0001
0000
0000
0000
,  // measure 29
1001
1000
1000
1000
,  // measure 30
0001
0010
0100
0000
,  // measure 31
1001
0001
0001
0001
,  // measure 32
1000
0100
0010
0000
,  // measure 33
1001
1000
0001
0001
,  // measure 34
0010
0100
1000
0000
,  // measure 35
0001
0001
1000
1000
,  // measure 36
0110
0110
0110
0000
,  // measure 37
0010
0100
0010
0100
,  // measure 38
0001
0010
0100
0000
,  // measure 39
1000
0001
1000
0001
,  // measure 40
1000
0100
0010
0000
,  // measure 41
0001
0100
0001
0100
,  // measure 42
0010
1000
0010
0000
,  // measure 43
1001
0000
0110
0000
,  // measure 44
1001
0000
0000
0000
,  // measure 45
1000
1000
1000
1000
,  // measure 46
0001
0001
0001
0001
,  // measure 47
1000
0100
0010
0001
,  // measure 48
1000
0010
0100
0001
,  // measure 49
1000
1000
1000
1000
,  // measure 50
0001
0001
0001
0001
,  // measure 51
0010
0100
1000
0100
,  // measure 52
0020
0000
0000
0030
,  // measure 53
1001
0001
0001
0001
,  // measure 54
1000
0100
0020
0030
,  // measure 55
0001
0001
1000
1000
,  // measure 56
0010
0000
0200
0300
,  // measure 57
0001
0000
1000
0000
,  // measure 58
0020
0030
0200
0300
,  // measure 59
1001
0000
0110
0000
,  // measure 60
2002
0000
0000
3003
,  // measure 61
1001
0001
0001
1000
,  // measure 62
0100
0010
0001
0000
,  // measure 63
1001
1000
1000
0001
,  // measure 64
0010
0100
1000
0000
,  // measure 65
0010
0100
0010
1000
,  // measure 66
0100
0010
0001
0000
,  // measure 67
0110
0000
1001
0000
,  // measure 68
0110
0010
0010
0010
,  // measure 69
1001
1000
1000
1000
,  // measure 70
0001
0010
0100
0000
,  // measure 71
1000
1000
1000
0100
,  // measure 72
0010
0001
0100
0000
,  // measure 73
0001
0010
0100
1000
,  // measure 74
0010
0100
2002
0000
,  // measure 75
0000
0000
0000
0000
0000
3003
0000
0000
0000
0000
0000
0000
0000
0000
0000
0000
,  // measure 76
0000
1000
1000
0001
,  // measure 77
0001
0010
0110
1001
,  // measure 78
0000
2002
0000
0000
,  // measure 79
0000
0000
3003
0000
;

//---------------dance-single - ----------------
#NOTES:
     dance-single:
     :
     Medium:
     7:
     0.515,0.640,0.571,0.400,0.212:
0001
0010
0100
1000
,
0100
0010
1001
1001
,
0001
0100
0010
1000
,
0010
0100
0001
0001
,
1000
0000
0010
1000
0000
0000
0001
0000
0100
0001
0000
0000
,
0010
0100
1000
1000
,
0001
0000
0010
0001
0000
0000
1000
0000
0100
1000
0000
0000
,
0001
0010
0100
1000
,
0001
0010
1000
0010
,
0001
0000
1000
0001
0000
0000
1000
0000
0000
0000
0000
0000
,
0001
0100
1000
0100
,
0001
0000
1000
0001
0000
0000
1000
0000
0000
0000
0000
0000
,
0100
0110
0101
1000
,
0001
0000
0100
0010
0000
0000
1000
0000
0000
0000
0000
0000
,
0010
0110
1010
0001
,
1000
0000
0010
0100
0000
0000
0001
0000
0000
0000
0000
0000
,
1000
0000
0001
0100
0000
0000
0002
0000
0000
1003
0000
0000
,
0010
0000
0100
0010
0000
0100
0010
0000
0000
0000
0000
0000
,
1001
0100
1001
0100
,
0100
0110
1001
0000
,
1000
0100
0001
0100
,
1000
0000
0010
0100
0000
0010
0100
0000
0000
0000
0000
0000
,
0001
0010
1000
0010
,
0001
0000
0100
0010
0000
0100
0010
0000
0000
0000
0000
0000
,
0100
0000
0001
1000
0000
0000
0100
0000
1000
0001
0000
0000
,
0010
0100
1000
0000
,
1001
0100
1001
0100
,
0220
0000
0000
0330
,
0001
0000
0001
0100
0000
0000
0001
0000
0001
1000
0000
0000
,
0010
0000
0100
0010
0000
0100
0010
0000
0000
0000
0000
0000
,
1000
0000
1000
0100
0000
0000
1000
0000
1000
0001
0000
0000
,
0010
0000
0100
0010
0000
0100
0010
0000
0000
0000
0000
0000
,
0101
0101
1100
1100
,
0110
0110
1001
1001
,
2100
3001
0102
1003
,
0110
0110
0110
0000
,
0200
0000
0000
0301
0000
1000
0100
0000
0000
0010
0000
0000
,
0200
0000
0000
1300
0000
0010
0100
0000
0000
0110
0000
0000
,
0020
0000
0000
1030
0000
0001
0010
0000
0000
0100
0000
0000
,
0020
0000
0000
0031
0000
0100
0010
0000
0000
0110
0000
0000
,
2000
0000
0000
3001
0000
0100
0010
0000
0100
0010
0000
0000
,
1000
0010
0100
0110
,
1001
0000
0110
0000
,
1001
1001
1001
1001
,
0200
0001
0010
0301
,
2000
0100
0010
3100
,
1002
0100
1000
0103
,
0020
1000
0100
1030
,
0001
0000
0100
0001
0000
0000
1000
0000
0010
0100
0000
0000
,
0001
0000
1000
0001
0000
1000
0001
0000
0000
0000
0000
0000
,
2000
0010
0100
3010
,
0220
0000
0000
0330
,
2000
3200
0320
0032
,
1003
0000
0010
0100
0000
0000
0020
0230
0320
0230
0000
0000
,
0301
0000
0001
0200
0000
0000
0320
0000
0000
2030
0000
0000
,
3001
0000
0000
0010
0000
0000
0200
0320
0230
0320
0000
0000
,
0130
0000
0000
0001
0000
0100
0020
0000
0000
0130
0000
0000
,
0002
2003
3002
2003
3000
0000
0220
0000
0000
0330
0000
0000
,
2200
3300
0022
0033
,
1001
1001
2002
3003
,
1000
0000
0010
0100
0000
0000
0001
0000
0010
0100
0000
0000
,
0010
0100
1000
0000
,
0001
0000
0100
0010
0000
0000
1000
0000
0100
0010
0000
0000
,
0100
0010
0001
0000
,
1000
0000
0010
0100
0000
0010
0100
0000
0000
0001
0000
0000
,
0010
0100
1000
0000
,
1010
0000
0101
0000
,
0110
0100
0100
0100
,
1001
0101
1010
0101
,
1010
0110
1001
0000
,
1001
0011
1100
0011
,
1100
0100
1001
0000
,
1001
0110
1001
1100
,
0011
0000
2002
0000
,
0000
0000
0000
0000
0000
3003
0000
0000
0000
0000
0000
0000
0000
0000
0000
0000
,
0000
0000
0000
0001
0000
0001
0100
0000
0000
0010
0000
0010
,
0100
1001
0110
1001
,
1001
2002
0000
0000
,
0000
0000
3003
0000
;

//---------------dance-single - ----------------
#NOTES:
     dance-single:
     :
     Hard:
     9:
     0.734,0.736,0.424,0.400,0.934:
1000
0000
0010
0100
0000
0010
0100
0000
0010
0100
0000
0001
,
1000
0000
0001
1000
0000
0001
2000
0000
0000
3010
0000
0000
,
1000
0000
0100
0010
0000
0100
0010
0000
0100
0010
0000
0001
,
1000
0000
0001
1000
0000
0000
0110
0000
0000
0110
0000
0000
,
0001
0000
1000
0100
0000
1000
0100
0010
0100
1000
0000
0000
,
0010
0100
0010
0100
0000
0001
1000
0000
0000
1001
0000
0000
,
1000
0000
0001
0100
0000
0001
0100
0010
0100
0001
0000
0000
,
0100
0010
0100
0001
0000
1000
0001
0000
0000
1001
0000
0000
,
2100
0000
0000
3100
0000
0000
0010
0001
0100
0010
0000
0000
,
0100
0001
0010
0100
0000
1000
0001
0000
0000
1000
0000
0000
,
0001
0000
0001
0100
0000
0100
0020
0000
0000
1030
0000
0000
,
0001
0010
0001
1000
0000
0100
0010
0000
0000
0002
0000
0000
,
1003
0000
1000
0010
0000
0010
0100
0000
0100
0001
0000
0000
,
0010
0000
0010
0100
0000
0100
1000
0010
0100
0010
0000
1000
,
0001
0000
0001
0100
0000
0100
0020
0000
0000
1030
0000
0000
,
0010
0000
0010
0100
0000
0100
0001
1000
0100
1000
0000
0000
,
0001
0000
0001
0010
0000
0010
0200
0000
0000
0310
0000
0001
,
1000
0000
1000
0100
0000
0100
0010
0001
0010
0001
0000
0000
,
0100
0001
1000
0100
0000
0000
0010
0100
1000
0001
0000
0000
,
0100
0110
1001
0000
,
0001
0000
0100
0020
0000
0000
1030
0000
0100
0020
0000
0000
,
0031
0000
0001
0010
0000
0010
0100
0000
1000
0002
0000
0000
,
1003
0000
0100
0020
0000
0000
0031
0000
0100
0020
0000
0000
,
1030
0000
0001
0100
0000
0100
0010
0000
0000
0000
0000
0000
,
1001
0000
0001
0010
0000
0010
0200
0000
0000
0310
0000
0010
,
0001
0000
0001
1000
0000
1000
0020
0000
0000
0130
0000
0000
,
0101
1001
1010
1001
,
0010
0100
0010
0100
0010
0100
0010
0100
0010
0100
0000
0000
,
0101
0000
0001
1000
0000
1000
0100
0000
0010
0100
0000
0100
,
2000
0000
0000
3010
0000
0010
0200
0000
0000
0301
0000
0000
,
1010
0000
1000
0001
0000
0001
0010
0000
0100
0010
0000
0010
,
0002
0000
0000
0103
0000
0100
0020
0000
0000
1030
0000
0100
,
0010
0000
0001
0010
0000
0100
1000
0010
0100
0010
0000
1000
,
0100
0010
0001
0100
0000
0001
0010
0001
1000
0010
0000
0000
,
1000
0100
0010
0001
0000
0000
0100
0010
1000
0001
0000
0000
,
1001
0110
0110
0000
,
1000
0000
0001
0100
0000
1000
0200
0000
0000
0301
0000
0000
,
0110
0000
0010
1000
0000
1000
0001
0000
0000
1001
0000
0000
,
0001
0000
1000
0100
0000
0001
0200
0000
0000
1300
0000
0000
,
0110
0000
0100
0001
0000
0001
1000
0000
0000
1001
0000
0000
,
0002
0000
0000
1003
0000
0001
0100
0000
1000
0100
0000
0001
,
1000
0000
0100
0010
0000
0001
0100
0000
0000
0110
0000
0000
,
1000
0100
1000
0001
0000
0000
0010
0100
1000
0001
0000
0000
,
1000
0001
1000
0001
1000
0001
1000
0001
1000
0001
0000
0000
,
0101
0000
0000
1100
0000
0000
0110
0000
0000
0100
0010
0001
,
1000
1100
0101
0000
,
0110
0011
1100
0110
,
1001
0000
0000
0001
0010
0100
1000
0000
0000
0010
0100
0010
,
0100
0001
0100
0010
0000
1000
0010
0000
0010
0200
0000
0000
,
0301
0000
0010
0100
0000
1000
0002
0000
0000
0003
0000
0000
,
1100
0000
0001
0100
0000
0000
0101
0000
1000
0100
0000
0000
,
0110
0100
0001
1001
,
0001
0000
1000
0100
0000
0010
0100
0000
1000
0100
0000
0001
,
0100
0000
1000
0001
0000
0000
2000
3020
0230
0302
0000
0000
,
1003
0000
0001
0010
0000
0100
0010
0000
0001
0100
0000
1000
,
0100
0000
0001
1000
0000
0000
0002
0203
0320
2030
0000
0000
,
3001
0000
0001
0100
0000
0100
2000
0000
0000
3001
0000
0000
,
0020
0230
2300
3001
0000
0000
0200
0302
2003
3010
0000
0000
,
0100
0001
0010
0200
0300
0000
1000
0010
0100
0002
0003
0000
,
2002
3003
0000
2002
3003
0000
2002
0000
0000
3003
0000
0000
,
0001
0000
0010
0100
0000
1000
0010
0100
0001
0010
0000
0100
,
0010
0000
0001
1000
0000
0100
0010
0001
1000
0100
0000
0000
,
1000
0000
0010
0100
0000
0001
0010
0100
0010
0001
0000
0010
,
0100
0000
1000
0010
0000
0100
0001
0010
0100
1000
0000
0000
,
0010
0000
0010
0100
0000
0100
0001
0010
0100
1000
0000
0000
,
0100
0000
0100
0010
0000
0010
0001
1000
0100
0010
0000
0000
,
0101
0100
1001
0001
,
0100
0001
0100
0001
0010
0100
1000
0010
0100
0010
0000
0000
,
1001
0000
0000
0110
0000
1000
0100
0000
0000
1100
0000
0010
,
0100
0000
0000
0110
0000
1000
0100
0010
0001
1000
0000
0000
,
1001
0000
0000
0110
0000
0001
0010
0000
0000
0011
0000
0100
,
0010
0000
0000
0110
0000
0001
0010
0100
1000
0001
0000
0000
,
1001
0000
0001
0100
0000
0100
1000
0000
1000
0100
0000
0100
,
0001
0000
0001
1000
0100
0010
2002
0000
0000
0000
0000
0000
,
0000
0000
0000
0000
0000
0000
0000
0000
0000
0000
0000
0000
0000
0000
0000
3003
0000
0000
0000
0000
0000
0000
0000
0000
0000
0000
0000
0000
0000
0000
0000
0000
0000
0000
0000
0000
1000
0000
0000
0000
0001
0000
0000
0000
1000
0000
0000
0000
,
0001
1000
0001
1000
0000
1000
0100
0000
0100
0001
0000
0001
,
0100
0000
0100
1000
0010
0100
0001
0100
1000
0001
0010
1000
,
0001
2002
0000
0000
,
0000
0000
3003
0000
;

//---------------dance-single - ----------------
#NOTES:
     dance-single:
     :
     Beginner:
     2:
     0.158,0.220,0.114,0.000,0.000:
1000
0000
0000
0000
,
1000
0000
0000
0000
,
0001
0000
0000
0000
,
0001
0000
0000
0000
,
1001
0000
1000
0000
,
1000
0000
0000
0000
,
0001
0000
0001
0000
,
0001
0000
0000
0000
,
0100
0000
0010
0000
,
0100
0000
0000
0000
,
0010
0000
0100
0000
,
0010
0000
0000
0000
,
1001
0000
1000
0000
,
0001
0000
1000
0000
,
0010
0000
0100
0000
,
0010
0000
0010
0000
,
1000
0000
0001
0000
,
1000
0000
1000
0000
,
1001
0000
0001
0000
,
1000
0000
0000
0000
,
0001
0000
0001
0000
,
0010
0000
0000
0000
,
0100
0000
0100
0000
,
1000
0000
0000
0000
,
0010
0000
0100
0000
,
0010
0000
0000
0000
,
1000
0000
1000
0000
,
0100
0000
0000
0000
,
1000
0000
0001
0000
,
1000
0000
1000
0000
,
0000
0001
1000
0000
,
0001
0000
0001
0000
,
0100
0000
0010
0000
,
0100
0000
0100
0000
,
0110
0000
1001
0000
,
1000
0000
0000
0000
,
0001
0000
0001
0000
,
0001
0000
0000
0000
,
1000
0000
1000
0000
,
1000
0000
0000
0000
,
0010
0000
0100
0000
,
0010
0000
0000
0000
,
0110
0000
1001
0000
,
1000
0000
0000
0000
,
0001
0000
0001
0000
,
0001
0000
0000
0000
,
1000
0000
1000
0000
,
1000
0000
0000
0000
,
0010
0000
0100
0000
,
0010
0000
0010
0000
,
0110
0000
0110
0000
,
0010
0000
0000
0000
,
1001
0000
0001
0000
,
1000
0000
0001
0000
,
0010
0000
0100
0000
,
1000
0000
0001
0000
,
1000
0000
0100
0000
,
0010
0000
0001
0000
,
1000
0000
1000
0000
,
1000
0000
0000
0000
,
1000
0000
1000
0000
,
1000
0000
0000
0000
,
0001
0000
0001
0000
,
0001
0000
0000
0000
,
0010
0000
0100
0000
,
1000
0000
0000
0000
,
0010
0000
0100
0000
,
0010
0000
0000
0000
,
0110
0000
0000
0000
,
1000
0000
0000
0000
,
0110
0000
0000
0000
,
0001
0000
0000
0000
,
1000
0000
0001
0000
,
1000
0000
1001
0000
,
0000
0000
0000
0000
,
0000
1000
0000
0001
,
0000
1000
0000
0000
,
0000
1001
0000
0000
;
