#TITLE:full moon;
#SUBTITLE:;
#ARTIST:Naomi "fut" Ryo Asakawa;
#TITLETRANSLIT:;
#SUBTITLETRANSLIT:;
#ARTISTTRANSLIT:;
#CREDIT:DigiMindAxel;
#BANNER:full moon.png;
#BACKGROUND:full moon-bg.png;
#LYRICSPATH:full moon.lrc;
#CDTITLE:pop'n stage.png;
#MUSIC:full moon.mp3;
#OFFSET:-9.500;
#SAMPLESTART:23.703;
#SAMPLELENGTH:12.000;
#SELECTABLE:YES;
#BPMS:0.000=134.100;
#STOPS:;
#BGCHANGES:;

//---------------dance-single - ----------------
#NOTES:
     dance-single:
     :
     Easy:
     2:
     0.201,0.238,0.068,0.088,0.000:
0001
1001
1000
0001
,
1000
0000
0001
0000
,
1000
0010
1000
0001
,
0100
0000
0010
0100
,
0001
1001
1000
0001
,
1000
0000
0001
0000
,
1000
0100
1000
0001
,
0200
0010
0010
0310
,
1000
1001
0001
1000
,
0001
0000
0100
0000
,
0001
0010
0100
1000
,
0010
0100
0010
0100
,
0010
0000
1001
0000
,
1000
0000
0001
0000
,
1000
0010
0100
0010
,
2000
0001
0001
3001
,
0001
0000
0000
0000
,
0100
0000
0000
0000
,
0001
0000
0000
0000
,
1000
0000
0000
0000
,
0010
0000
0000
0000
,
1000
0000
0000
0000
,
0001
0000
0000
0000
,
0001
0000
1000
0000
,
0001
0100
0001
0000
,
1000
0100
1000
0000
,
0002
0000
0000
0000
,
2003
0000
0000
0000
,
3001
0010
0001
0000
,
1000
0010
1000
0000
,
0020
0000
0100
0000
,
0130
0000
0000
0000
,
0001
0100
0001
0000
,
1000
0100
0010
0000
,
0001
0100
0001
0000
,
1000
0100
0010
0001
,
1000
0010
1000
0000
,
0001
0010
0100
0000
,
1000
0010
1000
0000
,
0001
0010
0100
1000
,
0001
1001
0000
0000
,
1000
0001
0010
0000
,
0002
0000
1000
0000
,
1003
0100
0010
0001
,
1000
1001
0000
0000
,
0001
1000
0100
0000
,
2000
0000
0001
0000
,
3001
0010
0100
1000
,
0220
0000
0000
0330
;

//---------------dance-single - ----------------
#NOTES:
     dance-single:
     :
     Medium:
     5:
     0.340,0.380,0.244,0.166,0.000:
1000
1100
1000
1100
,
0001
1000
0001
1000
,
0001
0101
0001
0101
,
1000
0001
1000
0001
,
1000
1010
1000
1010
,
0001
1000
0001
1000
,
0001
0011
0001
0011
,
0100
0010
0100
0010
0100
0010
0100
0010
,
0100
1001
0100
1001
,
0100
1000
0100
0000
1000
0100
1000
0000
,
0010
1001
0010
1001
,
0010
0001
0010
0000
0001
0010
0001
0000
,
1000
1001
0001
1001
,
0010
1000
0010
0000
1000
0010
1000
0000
,
0001
1001
1000
1001
,
0010
0100
0010
0100
0010
0100
0010
0100
,
0020
0000
0000
0000
,
0230
0000
0000
0000
,
0302
0000
0000
0000
,
2003
0000
0000
0000
,
3200
0000
0000
0000
,
0320
0000
0000
0000
,
0032
0000
0000
0000
,
1003
1000
0001
0001
,
1000
0100
0001
0100
,
1000
0010
0001
0010
,
2000
0001
0000
3001
,
0002
1000
0000
1003
,
0001
0100
1000
0100
,
0001
0010
1000
0010
,
0002
0000
1000
0000
,
1003
0000
0000
0000
0001
0001
0001
0000
,
1000
0010
1000
0000
0010
0100
0010
0000
,
1001
0010
0100
1000
,
0001
0100
0001
0000
0100
0010
0100
0000
,
1001
0100
0010
0001
,
0100
0010
0100
0010
0100
0000
1001
0000
,
0010
0100
0010
0100
0010
0000
1001
0000
,
0001
0100
0001
0100
0001
0000
1001
0000
,
1000
0010
1000
0010
1000
0001
1000
0001
,
1000
0100
0020
0000
0001
0000
0031
0000
,
0001
0010
0100
1000
0010
0000
0000
0000
,
2000
0001
3002
1000
,
1003
1100
0001
0011
,
0001
0010
0200
0000
1000
0000
1300
0000
,
1000
0100
0010
0001
0100
0000
0000
0000
,
0002
1000
2003
0001
,
3001
0011
1000
1100
,
0020
0000
0130
0001
;

//---------------dance-single - ----------------
#NOTES:
     dance-single:
     :
     Hard:
     8:
     0.517,0.526,0.215,0.117,0.195: // measure 1
0001
0100
1000
0000
0101
0000
1100
0000
,  // measure 2
0010
0001
1000
0000
0100
0010
0100
0000
,  // measure 3
1000
0100
0001
0000
1100
0000
0101
0000
,  // measure 4
0010
1000
0001
0000
0010
0001
0010
0100
,  // measure 5
1001
0000
0011
0000
1000
0100
0010
0001
,  // measure 6
1000
0000
1010
0000
1000
0001
0010
0100
,  // measure 7
1001
0000
1100
0000
0010
0001
1000
0000
,  // measure 8
0001
0100
1000
0100
0001
0010
1000
0010
,  // measure 9
0001
0100
0001
0000
0100
0000
0000
0000
0010
1000
0010
0000
1000
0000
0100
0000
,  // measure 10
0010
0001
1000
0000
1001
0000
0110
0000
,  // measure 11
1000
0010
1000
0000
0010
0000
0000
0000
0100
0001
0100
0000
0001
0000
0000
0000
,  // measure 12
1000
0010
0100
0001
0010
0100
0010
0001
,  // measure 13
1000
0100
1000
0000
0100
0000
0000
0000
0010
0001
0010
0000
0001
0000
0010
0000
,  // measure 14
0100
1000
0001
0000
1001
0000
0110
0000
,  // measure 15
0001
0100
0001
0000
0100
0000
0000
0000
0010
1000
0010
0000
1000
0000
0000
0000
,  // measure 16
0001
0100
1000
0100
0001
0010
1000
0010
,  // measure 17
0002
0000
0103
0000
1000
0100
0001
0010
,  // measure 18
0200
1000
0000
1300
,  // measure 19
0020
0001
0000
0031
,  // measure 20
2000
0001
0000
3001
,  // measure 21
2000
0000
3100
0000
0001
0100
1000
0100
,  // measure 22
0020
0000
0031
0000
0100
1000
0100
0010
,  // measure 23
0002
1000
0000
1003
,  // measure 24
0110
0000
0000
0000
0100
0000
0000
0000
1001
0000
0000
0100
0010
0000
1000
0000
,  // measure 25
1000
0100
1000
0100
0010
0001
0010
0000
,  // measure 26
0001
0010
0001
0010
0100
1000
0100
0000
,  // measure 27
2000
0001
0001
3001
,  // measure 28
0001
0100
0010
0000
1000
0010
0100
0000
,  // measure 29
0001
0100
0001
0100
0010
1000
0010
0000
,  // measure 30
1000
0010
1000
0010
0100
0001
0100
0001
,  // measure 31
2000
0000
3100
0010
0002
0000
0013
0100
,  // measure 32
1000
0000
0000
0000
0000
0000
0000
0010
0100
0000
0001
0000
0001
0000
0000
0000
,  // measure 33
0100
0000
0010
0000
1000
0000
0100
0000
1000
0001
0000
1000
0001
0000
0010
0100
,  // measure 34
0010
0000
0001
0000
0010
0000
0100
0000
1000
0010
0000
0010
0100
0000
0000
0000
,  // measure 35
0010
0000
0100
0000
0001
0000
0010
0000
0001
1000
0000
0001
1000
0000
0100
0010
,  // measure 36
0100
0000
1000
0000
0100
0000
0010
0000
0001
0100
0000
0100
0010
0000
0000
0000
,  // measure 37
1000
0000
0100
0000
0001
0000
0100
0000
1000
0010
0000
0100
0001
0000
0100
0010
,  // measure 38
0100
0000
0001
0000
0010
0000
0100
0000
1000
0010
0000
0100
0010
0000
1000
0000
,  // measure 39
0001
0000
0100
0000
1000
0000
0100
0000
0001
0010
0000
0100
1000
0000
0010
0100
,  // measure 40
0010
1000
0100
0010
0001
0010
1000
0010
,  // measure 41
0001
1000
0001
0000
1000
0000
0100
0000
0010
0000
0000
0000
0101
0000
0000
0000
,  // measure 42
1000
0001
1000
0000
0001
0000
0010
0000
0100
0000
1000
0000
0001
0000
0100
0000
,  // measure 43
0001
1000
0001
0000
1000
0000
0100
0000
1000
0001
1000
0000
0001
0000
0000
0000
,  // measure 44
1001
1100
0101
1001
,  // measure 45
1000
0001
1000
0000
0001
0000
0010
0000
0100
0000
0000
0000
1010
0000
0000
0000
,  // measure 46
0001
1000
0001
0000
1000
0000
0100
0000
0010
0000
0001
0000
1000
0000
0100
0000
,  // measure 47
1000
0001
1000
0000
0001
0000
0010
0000
0001
1000
0001
0000
1000
0000
0000
0000
,  // measure 48
0001
0000
0010
0000
0100
0000
1000
0000
0010
0100
0010
0100
0010
0100
0010
0100
,  // measure 49
0020
0000
1030
1002
,  // measure 50
1003
0000
0000
0000
;

//---------------dance-single - ----------------
#NOTES:
     dance-single:
     :
     Beginner:
     1:
     0.047,0.117,0.059,0.000,0.000:
1000
0000
0000
0000
,
0000
0000
0000
0000
,
0001
0000
0000
0000
,
0000
0000
0000
0000
,
1000
0000
0000
0000
,
0000
0000
0000
0000
,
1000
0000
0000
0000
,
0000
0000
0000
0000
,
0001
0000
0000
0000
,
0000
0000
0000
0000
,
0001
0000
0000
0000
,
0000
0000
0000
0000
,
1001
0000
0000
0000
,
0000
0000
0000
0000
,
0001
0000
0000
0000
,
0000
0000
0000
0000
,
1000
0000
0000
0000
,
0000
0000
0000
0000
,
0000
0000
0000
0000
,
0000
0000
0000
0000
,
0010
0000
0000
0000
,
0000
0000
0000
0000
,
0010
0000
0000
0000
,
0000
0000
0000
0000
,
0100
0000
0000
0000
,
0100
0000
0000
0000
,
0000
0000
0000
0000
,
0000
0000
0000
0000
,
0001
0000
0000
0000
,
0001
0000
0000
0000
,
0000
0000
0000
0000
,
1001
0000
0000
0000
,
1000
0000
0000
0000
,
0000
0000
0000
0000
,
0001
0000
0000
0000
,
0000
0000
0000
0000
,
1000
0000
0000
0000
,
0000
0000
0000
0000
,
1001
0000
0000
0000
,
0001
0000
0000
0000
,
1001
0000
0000
0000
,
1000
0000
0000
0000
,
0000
0000
0000
0000
,
0000
0000
0000
0000
,
1001
0000
0000
0000
,
0001
0000
0000
0000
,
0001
0000
0000
0000
,
1000
0000
0000
0000
,
1001
0000
0000
0000
;
