#TITLE:caramelldansen;
#SUBTITLE:(恋ラジMIX);
#ARTIST:OSTER project feat. 初音ミク;
#TITLETRANSLIT:;
#SUBTITLETRANSLIT:(KOI RAJI MIX);
#ARTISTTRANSLIT:OSTER project feat. HATSUNE MIKU;
#CREDIT:DigiMindAxel;
#BANNER:caramelldansen (KOI RAJI MIX).png;
#BACKGROUND:caramelldansen (KOI RAJI MIX)-bg.png;
#LYRICSPATH:caramelldansen (KOI RAJI MIX).lrc;
#CDTITLE:DMAxel original simfile.png;
#MUSIC:caramelldansen (KOI RAJI MIX).mp3;
#OFFSET:-7.200;
#SAMPLESTART:51.748;
#SAMPLELENGTH:12.000;
#SELECTABLE:YES;
#BPMS:0.000=167.000;
#STOPS:;
#BGCHANGES:-24.000=caramelldansen (KOI RAJI MIX).avi=1.000=1=1=0,
99999=-nosongbg-=1.000=0=0=0 // don't automatically add -songbackground-
;

//---------------dance-single - ----------------
#NOTES:
     dance-single:
     :
     Easy:
     3:
     0.243,0.283,0.117,0.136,0.000:
1000
0000
0000
0000
,
1000
0000
0000
0000
,
0001
0000
0000
0000
,
1001
0000
0000
0000
,
0220
0000
0000
0000
,
0000
0000
0330
0000
,
0001
0000
0001
0000
,
0001
0000
1000
0000
,
0010
0000
0010
0000
,
1000
0000
0001
0000
,
1000
0000
0100
0000
,
0010
0000
0001
0000
,
1000
0000
0001
0000
,
1000
0000
0001
0000
,
0220
0000
0000
0330
,
0001
0000
0001
0000
,
0001
0000
0001
0000
,
1000
0000
1000
0000
,
1000
0000
1000
0000
,
0010
0000
0100
0000
,
0010
0000
0100
0000
,
0001
0000
1000
0000
,
1001
0000
0000
0000
,
0001
0000
1000
0000
,
0001
0000
1000
0000
,
0001
0000
0010
0000
,
0001
0000
0010
0000
,
0100
0000
1000
0000
,
0100
0000
1000
0000
,
0001
0000
1000
0000
,
1001
0000
0000
0000
,
0001
0001
0001
0000
,
1000
0001
1000
0000
,
1000
1000
1000
0000
,
0001
1000
0001
0000
,
0100
0000
0100
0000
0110
0000
0000
0001
,
0000
1000
0001
1000
,
0001
0000
0001
0000
0001
0000
0000
2002
,
0000
0000
0000
3003
,
1000
1000
1000
1000
,
0200
0000
0000
0000
,
0301
0001
0001
0001
,
0200
0000
0000
0000
,
1300
1000
1000
1000
,
0020
0000
0000
0000
,
0031
0001
0001
0001
,
0020
0000
0000
0000
,
1030
0001
1000
0000
,
0010
0100
0010
0000
,
1000
0010
1000
0001
,
1000
0001
0100
0001
,
0100
0000
0100
0000
0110
0000
0000
0001
,
0000
1000
0001
1000
,
0001
0000
0010
0000
0100
0000
0000
2002
,
0000
0000
0000
3003
,
1000
0001
1000
0000
,
0010
0100
0010
0100
,
0010
0010
0010
0000
,
1000
0001
1000
1000
,
0010
0000
0010
0000
0110
0000
0000
1000
,
0000
0001
1000
0001
,
0010
0000
0100
0000
1000
0000
0000
1001
,
0000
0001
1000
0001
,
2002
0000
0000
0000
,
0000
0000
0000
3003
;

//---------------dance-single - ----------------
#NOTES:
     dance-single:
     :
     Medium:
     6:
     0.445,0.440,0.534,0.126,0.000:
0001
0100
1000
0100
,
0001
0010
0100
1000
,
0220
0000
0000
0330
,
2002
0000
0000
3003
,
0220
0000
0000
0300
,
1000
1000
1030
0000
,
1000
0001
1000
0000
0100
0000
0110
0000
,
0001
1000
0001
0000
0010
0000
0110
0000
,
1000
0001
1000
0000
0010
0000
0110
0000
,
0001
1000
0001
0000
0100
0000
0110
0000
,
1001
0000
0100
0000
0010
0000
0001
1000
,
0001
0000
0010
0000
0100
0000
1000
0001
,
1000
0000
0001
0000
0100
0010
0100
0000
,
1001
0000
0010
0000
0100
0000
1000
0010
,
0000
0100
0000
0010
0000
0100
0001
0000
,
1001
0001
0001
0100
,
0010
1000
1000
1000
,
0001
0010
0100
1000
,
0001
1000
0010
0100
,
0010
2000
0000
0100
,
0000
3100
0010
0001
,
2000
0001
0000
3001
,
0010
0100
1000
1000
,
0001
0000
0010
0000
0100
0000
1000
0001
,
1000
0010
0100
0010
,
0001
0000
1000
0001
1000
0000
0100
0000
,
0010
0001
1000
0010
,
0100
0002
0000
1000
,
0000
1003
0100
0010
,
0001
1000
0010
0100
,
0220
0000
0000
0330
,
1010
1010
1010
0000
,
1000
0001
1000
0000
0001
0000
0100
0000
,
0101
0101
0101
0000
,
0001
1000
0001
0000
1000
0000
0100
0000
,
1100
0000
0100
1000
0100
0000
0000
1001
,
0000
1000
0001
0010
,
0011
0000
0010
0001
0010
0000
0000
1001
,
0000
0001
0000
1000
0010
0000
0110
0000
,
1001
0000
1001
0000
0001
1000
0001
1000
,
0000
0010
0000
0100
0000
0010
0000
0000
,
1001
0000
1001
0000
1000
0001
1000
0001
,
0000
0100
0010
0000
1000
0000
0001
0000
,
1001
0000
1001
0000
0001
1000
0001
1000
,
0000
0010
0000
0100
0000
0010
0000
0000
,
1001
0000
1001
0000
1000
0001
1000
0001
,
0000
0100
0100
0100
,
0101
0101
0101
0000
,
0001
1000
0001
0000
1000
0000
0100
0000
,
1010
1010
1010
0000
,
1000
0001
1000
0000
0001
0000
0100
0000
,
0011
0000
0010
0001
0010
0000
0000
1001
,
0000
0001
1000
0010
,
1100
0000
0100
1000
0100
0000
0000
1001
,
0000
1000
0000
0001
0100
0000
0110
0000
,
1001
1001
1001
0000
,
0100
0010
0100
0000
0001
0000
1000
0000
,
0110
0110
0110
0000
,
0010
0100
0010
0000
1000
0000
0001
0000
,
0110
0000
0110
0000
0110
0000
0000
0110
,
0000
0100
0001
1000
,
0110
0000
0110
0000
0110
0000
0001
1000
,
0000
0001
1000
0000
0010
0100
0010
0000
,
2002
0000
0000
0000
,
0000
0000
0000
3003
;

//---------------dance-single - ----------------
#NOTES:
     dance-single:
     :
     Hard:
     8:
     0.540,0.472,0.320,0.184,0.029: // measure 1
2001
0000
0000
0000
0000
0001
0000
3001
,  // measure 2
0200
0000
0000
0000
0000
0010
0000
0310
,  // measure 3
1000
0100
0010
0001
,  // measure 4
0100
1000
0100
0000
0001
1000
0001
0000
,  // measure 5
2002
0000
0000
3003
,  // measure 6
0100
0100
0100
0110
,  // measure 7
0001
0000
0000
0100
0000
0000
0001
0000
0000
0000
0100
0000
0000
0000
0010
0000
,  // measure 8
1000
0000
0000
0010
0000
0000
1000
0000
0010
0000
0000
0100
0000
0000
0001
0000
,  // measure 9
1000
0100
0010
0000
0001
0010
0100
1000
,  // measure 10
0001
0100
0001
0100
0010
0100
0001
0000
,  // measure 11
1000
0000
0000
0010
0000
0000
1000
0000
0000
0000
0010
0000
0100
0000
0000
0000
,  // measure 12
0001
0000
0000
0100
0000
0000
0001
0000
0000
0000
0100
0000
0010
0000
0000
0000
,  // measure 13
1000
0100
0010
0000
0001
0010
0100
1000
,  // measure 14
0010
0100
0010
0000
0100
0010
0100
0001
,  // measure 15
0000
0100
0010
0100
0001
0010
0100
1000
,  // measure 16
0001
0011
1000
1010
,  // measure 17
0010
0100
0000
0002
0000
0000
0000
0000
,  // measure 18
1003
1100
0001
0101
,  // measure 19
0100
0010
0000
2000
0000
0000
3001
0000
,  // measure 20
0100
0010
0100
0002
0000
0000
1003
0000
,  // measure 21
0010
0000
1000
0000
0001
0100
0001
1000
,  // measure 22
0100
0000
1000
0002
0000
0000
0000
0000
,  // measure 23
1003
0110
0001
0110
,  // measure 24
1000
0010
0100
0010
1000
0000
0001
0000
,  // measure 25
0100
0010
0000
2000
0000
0000
3001
0000
,  // measure 26
0001
0100
0010
0100
0001
0010
0100
1000
,  // measure 27
0001
0000
0100
0020
0000
0000
1030
0000
,  // measure 28
0001
0100
0010
0200
0000
0000
0001
0000
,  // measure 29
0000
0000
0301
1000
0000
0100
0010
0100
,  // measure 30
1000
0001
0100
0001
,  // measure 31
2100
0000
0001
0000
0001
0001
3001
0000
,  // measure 32
0101
0000
1000
0100
0010
0000
0001
1000
,  // measure 33
0010
0100
0010
1000
0010
0100
0010
0000
,  // measure 34
1010
0000
0001
0010
0100
0000
1000
0001
,  // measure 35
0100
0001
0010
0001
0100
0001
0010
0000
,  // measure 36
1100
0000
0001
0010
0100
0000
0000
2001
,  // measure 37
0000
0000
0100
0000
3100
0010
0001
0000
,  // measure 38
2000
0000
3010
0100
0001
0000
1000
0001
,  // measure 39
0000
0100
0001
1000
0100
0010
0001
0000
,  // measure 40
1001
0000
1001
0000
1000
0001
0010
0100
,  // measure 41
0000
1000
0000
0100
0000
0001
0100
0000
,  // measure 42
1001
0000
1001
0000
0001
0010
0100
2000
,  // measure 43
0000
0001
3001
0000
0100
0010
0100
0000
,  // measure 44
1001
0000
1001
0000
0001
1000
0100
0010
,  // measure 45
0000
0001
0000
0100
0000
1000
0100
0000
,  // measure 46
1001
0000
1001
0000
0001
0010
0100
1000
,  // measure 47
0000
0000
0000
0000
0010
0000
0000
0100
0010
0000
0100
0000
0010
0000
0000
0000
,  // measure 48
1010
0000
0001
0010
0100
0000
1000
0100
,  // measure 49
0010
0100
1000
0100
0010
0001
1000
0000
,  // measure 50
0101
0000
1000
0100
0010
0000
0001
0010
,  // measure 51
0100
0010
0001
0010
0100
1000
0001
0000
,  // measure 52
1100
0000
0001
0010
0100
0000
1000
0002
,  // measure 53
0000
0000
1000
0000
1003
0010
0100
0000
,  // measure 54
0011
0000
1000
0100
0010
0000
0001
2000
,  // measure 55
0000
0000
0001
0000
3001
0100
0010
0000
,  // measure 56
1001
0000
1000
0100
0001
0000
0100
1000
,  // measure 57
0010
0100
0010
1000
0001
0000
0011
0000
,  // measure 58
1001
0000
0001
0100
1000
0000
0100
0001
,  // measure 59
1000
0010
0100
0010
1000
0000
1100
0000
,  // measure 60
1001
0000
0010
0100
1000
0000
0001
1000
,  // measure 61
0010
0100
0001
0100
0010
0100
0001
0000
,  // measure 62
1001
0000
0100
0010
0001
0000
1000
0001
,  // measure 63
0100
0010
1000
0010
0100
0010
1000
0000
,  // measure 64
2002
0000
0000
0000
,  // measure 65
0000
0000
0000
3003
;

//---------------dance-single - ----------------
#NOTES:
     dance-single:
     :
     Beginner:
     1:
     0.096,0.122,0.136,0.000,0.000:
0001
0000
0000
0000
,
0000
0000
0000
0000
,
1000
0000
0000
0000
,
0000
0000
0000
0000
,
1001
0000
0000
0000
,
0000
0000
0000
0000
,
1000
0000
0000
0000
,
0100
0000
0000
0000
,
1000
0000
0000
0000
,
0100
0000
0000
0000
,
1000
0000
0000
0000
,
0001
0000
0000
0000
,
0010
0000
0000
0000
,
0001
0000
0000
0000
,
1000
0000
0000
0000
,
1001
0000
0000
0000
,
0001
0000
0000
0000
,
0010
0000
0000
0000
,
0001
0000
0000
0000
,
1000
0000
0000
0000
,
0000
0000
0000
0000
,
1000
0000
0000
0000
,
0010
0000
0000
0000
,
0010
0000
0000
0000
,
0100
0000
0000
0000
,
0010
0000
0000
0000
,
0100
0000
0000
0000
,
0100
0000
0000
0000
,
0000
0000
0000
0000
,
0001
0000
0000
0000
,
1000
0000
0000
0000
,
1001
0000
0000
0000
,
1000
0000
0000
0000
,
0010
0000
0000
0000
,
1000
0000
0000
0000
,
1001
0000
0000
0000
,
0001
0000
0000
0000
,
0100
0000
0000
0000
,
0001
0000
0000
0000
,
1001
0000
0000
0000
,
0000
0000
0000
0000
,
0110
0000
0000
0000
,
0000
0000
0000
0000
,
1001
0000
0000
0000
,
0000
0000
0000
0000
,
0110
0000
0000
0000
,
0000
0000
0000
0000
,
1001
0000
0000
0000
,
0001
0000
0000
0000
,
0100
0000
0000
0000
,
0001
0000
0000
0000
,
1001
0000
0000
0000
,
1000
0000
0000
0000
,
0010
0000
0000
0000
,
1000
0000
0000
0000
,
1001
0000
0000
0000
,
0001
0000
0000
0000
,
1000
0000
0000
0000
,
0001
0000
0000
0000
,
0110
0000
0000
0000
,
1000
0000
0000
0000
,
1001
0000
0000
0000
,
0010
0000
0000
0000
,
1001
0000
0000
0000
;

//---------------dance-single - ----------------
#NOTES:
     dance-single:
     :
     Challenge:
     9:
     0.653,0.629,0.466,0.252,0.126: // measure 1
1002
0023
0230
2300
,  // measure 2
3002
0203
0320
2030
,  // measure 3
3001
0010
0100
1000
0001
0010
0100
1000
,  // measure 4
0010
0100
0010
1000
0100
0001
0100
1000
,  // measure 5
2002
0000
0000
3003
,  // measure 6
0010
0010
0010
0110
,  // measure 7
1000
0010
0000
1000
0000
0010
0200
0000
0000
0000
0301
0000
0000
0000
1000
0000
,  // measure 8
0001
0100
0000
0001
0000
0100
0020
0000
0000
0000
1030
0000
0100
0000
0010
0000
,  // measure 9
0001
0000
1000
0010
1000
0000
0001
0000
0010
0000
0100
0000
1000
0001
1000
0001
,  // measure 10
1000
0010
0100
0001
0010
0100
0010
0001
,  // measure 11
1000
0010
0000
0100
0000
0010
2000
0000
0000
0000
3001
0000
0000
0000
1000
0000
,  // measure 12
0001
0100
0000
0010
0000
0100
0002
0000
0000
0000
1003
0000
0100
0000
0010
0000
,  // measure 13
0001
0000
1000
0010
1000
0000
0001
0000
0010
0000
0100
0000
1000
0001
1000
0001
,  // measure 14
1000
0010
0100
0001
0010
0100
1000
1010
,  // measure 15
0000
0100
0001
0010
0100
1000
0001
0001
,  // measure 16
1000
0100
1000
0100
1000
0001
0010
0100
,  // measure 17
1000
0002
0000
1000
1003
0000
0000
0000
,  // measure 18
0001
0010
0001
0010
0001
1000
0100
0010
,  // measure 19
0001
2000
0000
0001
3001
0000
0000
0000
,  // measure 20
1000
0100
0010
0002
0000
0000
1003
0000
,  // measure 21
0001
0000
1000
0000
0001
0010
0100
1000
,  // measure 22
0002
0000
1000
1003
0010
0000
0100
0000
,  // measure 23
0001
0100
1000
0100
0001
0000
1001
0000
,  // measure 24
1000
0010
0100
0010
1000
0010
0100
0001
,  // measure 25
0010
0200
0000
1000
1300
0000
0000
0000
,  // measure 26
0001
0100
0010
0100
0001
0100
0010
1000
,  // measure 27
0200
0000
0010
0310
0000
0000
0001
0000
,  // measure 28
1000
0100
0010
0002
0000
0000
1003
0000
,  // measure 29
0010
0000
0100
0000
0001
0010
0100
1000
,  // measure 30
0001
0010
0100
1000
,  // measure 31
0010
0000
0100
0000
0010
0000
1000
0000
0001
0000
0000
0000
0001
1000
0001
1000
,  // measure 32
0001
0100
0010
1000
0100
0000
0001
0100
,  // measure 33
1000
0100
0010
0001
0100
1000
0100
0000
,  // measure 34
1000
0010
0100
0001
0100
0000
1000
0100
,  // measure 35
0001
0010
0100
1000
0100
0001
0100
0000
,  // measure 36
1001
0000
0101
0100
0110
0000
0000
1020
,  // measure 37
0000
0000
0100
0000
0130
0001
1000
0000
,  // measure 38
0100
0010
0001
1000
0100
0000
0010
0110
,  // measure 39
0000
1010
0010
0010
0110
0000
1001
0000
,  // measure 40
1100
0000
0101
0000
1100
0010
0001
1000
,  // measure 41
0000
1100
0000
0101
0000
1000
1001
0000
,  // measure 42
0101
0000
1100
0000
0101
0010
1000
0001
,  // measure 43
0000
0100
0001
0010
0100
1000
0001
0000
,  // measure 44
0101
0000
1100
0000
0101
0010
1000
0001
,  // measure 45
0000
0101
0000
1100
0000
0001
1001
0000
,  // measure 46
1100
0000
0101
0000
1100
0010
0001
1000
,  // measure 47
0000
0000
0010
0100
0010
0000
0100
0010
0100
0000
0001
0000
1000
0000
0000
0000
,  // measure 48
0001
0100
0010
1000
0100
0000
0001
0100
,  // measure 49
1000
0100
0010
0001
0100
0000
1100
0000
,  // measure 50
1000
0010
0100
0001
0100
0000
1000
0100
,  // measure 51
0001
0010
0100
1000
0010
0000
0011
0000
,  // measure 52
1001
0000
1010
0010
0110
0000
0000
0201
,  // measure 53
0000
0000
0001
0000
0301
0010
0100
0000
,  // measure 54
1000
0010
0100
0001
0100
0000
1000
1100
,  // measure 55
0000
0101
0100
0100
0110
0000
1001
0000
,  // measure 56
0001
0010
0100
1000
0100
0000
0001
0100
,  // measure 57
1000
0100
0010
0001
0100
0000
1100
0000
,  // measure 58
1000
0100
0010
0001
0100
0000
1000
0100
,  // measure 59
0001
0010
0100
1000
0010
0010
0110
0000
,  // measure 60
1001
0000
0101
0100
0110
0000
0000
1020
,  // measure 61
0000
0000
1000
0000
1030
0100
0010
0000
,  // measure 62
0001
0000
1000
0000
0001
0000
0010
0100
0010
0000
0001
0000
0001
0000
1000
0000
,  // measure 63
0100
0010
0100
0000
1000
0000
0010
0000
0100
0000
0001
1000
0001
1000
0001
0000
,  // measure 64
2002
0000
0000
0000
,  // measure 65
0000
0000
0000
3003
;
