#TITLE:birds;
#SUBTITLE:;
#ARTIST:Sana;
#TITLETRANSLIT:;
#SUBTITLETRANSLIT:;
#ARTISTTRANSLIT:;
#CREDIT:DigiMindAxel;
#BANNER:birds.png;
#BACKGROUND:birds-bg.png;
#LYRICSPATH:birds.lrc;
#CDTITLE:pop'n music.png;
#MUSIC:birds.mp3;
#OFFSET:-7.680;
#SAMPLESTART:41.976;
#SAMPLELENGTH:12.000;
#SELECTABLE:YES;
#BPMS:0.000=147.000;
#STOPS:;
#BGCHANGES:;

//---------------dance-single - ----------------
#NOTES:
     dance-single:
     :
     Easy:
     2:
     0.149,0.190,0.000,0.198,0.000:
2000
0000
0000
3000
,
0000
0000
0000
0000
,
0002
0000
0000
0003
,
0000
0000
0000
0000
,
0000
0000
0000
0000
,
1000
0000
0001
0000
,
1000
0000
0000
0000
,
0010
0000
0100
0000
,
0010
0000
0000
0000
,
1000
0000
0100
0000
,
1000
0000
0000
0000
,
0001
0000
0010
0000
,
0001
0000
0000
0000
,
0100
0000
0010
0000
,
0200
0000
0310
0000
,
0010
0000
0100
0000
,
0020
0000
0130
0000
,
0001
0000
1000
0000
,
0002
0000
1003
0000
,
1000
0000
0001
0000
,
2000
0000
3001
0000
,
0100
0001
0100
0020
,
0000
0000
0130
0000
,
0010
0100
0001
0200
,
0000
0000
0310
1000
,
0002
0000
0000
0000
,
0003
0000
0000
0000
,
0100
0000
0010
0000
,
0100
0000
0001
0000
,
0010
0001
0010
0200
,
0000
0000
1300
0000
,
0100
1000
0100
0020
,
0000
0000
0031
1000
,
0002
0000
0000
0000
,
0003
0000
0000
0000
,
0100
0000
0010
0000
,
0100
0000
0001
0000
,
2000
0000
0000
3001
,
0000
0000
0000
0000
,
0020
0000
0000
0130
,
0000
0000
0000
0000
,
2000
0000
0000
3001
,
0000
0000
0000
0000
,
0200
0000
0000
0310
,
0000
0000
0000
0000
,
1000
0100
0000
0001
,
0100
0000
0000
1000
,
0002
0000
0000
0103
,
0000
0000
0000
0000
,
0020
0000
0000
1030
,
0000
0000
0000
0000
,
0010
0000
0000
0100
0000
0000
0020
0000
,
0000
0000
0000
0030
,
0100
0000
0000
0100
0000
0000
0200
0000
,
0000
0000
0000
0300
;

//---------------dance-single - ----------------
#NOTES:
     dance-single:
     :
     Medium:
     4:
     0.263,0.299,0.010,0.258,0.000:
0001
0000
0000
0010
0000
0000
0002
0000
,
0000
0000
0000
0003
,
0100
0000
0000
0010
0000
0000
0200
0000
,
0000
0000
0000
0300
,
0020
0000
0000
0000
,
0130
0001
0100
0000
,
0020
0000
0000
1030
0000
0000
0000
0000
,
0010
1000
0010
0000
,
0200
0000
0000
0301
0000
0000
0000
0000
,
0100
0010
0100
0001
,
0002
0000
0000
1003
0000
0000
0000
0000
,
0010
0100
0010
1000
,
2000
0000
0000
3001
0000
0000
0000
0000
,
0001
0010
0100
1000
,
0010
0100
0000
0010
0000
0000
0000
0000
,
1000
0100
0010
0001
,
0100
0010
0000
0100
0000
0000
0000
0000
,
0001
0100
0010
1000
,
0001
0010
0000
0001
0000
0000
0000
0000
,
1000
0010
0100
0001
,
1000
0100
0000
1000
0000
0000
0000
0000
,
0010
1000
0010
0000
0100
0000
0001
2000
,
0000
0001
0000
0000
0000
0000
3000
0000
,
0010
0100
0010
2000
,
0000
0000
0000
3001
0100
0001
1000
0000
,
0002
0000
0000
1000
0000
0000
2000
0000
,
0000
0000
0000
3003
0000
0000
0100
0010
,
0000
0000
0100
0010
0000
0000
1000
0001
,
0000
0000
1000
0001
0000
0000
0000
0000
,
0100
0001
0100
0000
0010
0000
1000
0002
,
0000
1000
0000
0000
0000
0000
0003
0000
,
0100
0010
0100
0002
,
0000
0000
0013
0100
,
2000
0000
0000
0001
0000
0000
0002
0000
,
0000
0000
0000
3003
0000
0010
0100
0010
,
0000
0000
1000
0001
0000
1000
0001
0000
,
1000
0001
0000
0100
0010
0100
0010
0100
,
0001
0100
0000
1000
,
0100
0000
0001
0000
,
0200
0000
0000
0320
0000
0000
0130
0000
,
0000
0000
0000
0000
0000
0000
0001
2000
,
0000
0000
0000
0100
0000
0000
3100
0000
,
0000
0000
0000
0000
0000
0010
0001
0010
,
0200
0000
0000
0320
0000
0000
0130
0000
,
1000
0000
1000
0000
,
0001
0100
0000
1000
,
0100
0000
0001
0000
,
0200
0000
0000
0320
0000
0000
0130
0000
,
0000
0000
0000
0000
0000
0000
0001
2000
,
0000
0000
0000
0100
0000
0000
3100
0000
,
0000
0000
0000
0000
0000
0010
0001
0010
,
0100
0000
1000
0001
0000
1000
0002
0000
,
1000
1000
1003
0000
,
0001
0000
0000
0100
0000
0000
2200
0000
,
0000
0000
0000
3300
;

//---------------dance-single - ----------------
#NOTES:
     dance-single:
     :
     Hard:
     7:
     0.425,0.407,0.079,0.307,0.010: // measure 1
0002
0000
0000
0203
0000
0000
0302
0000
,  // measure 2
0000
0000
1000
0000
0000
1003
0000
0010
,  // measure 3
0100
0000
0010
0100
0000
0001
2000
0000
,  // measure 4
0000
0000
0000
0000
,  // measure 5
3002
0000
0000
0000
0000
1003
0000
1000
,  // measure 6
0002
0103
0020
1030
,  // measure 7
0001
0100
0000
0100
0000
0001
0010
0001
,  // measure 8
2000
3100
0020
0031
,  // measure 9
1000
0010
0000
0010
0000
1000
0100
1000
,  // measure 10
0002
0000
0013
0000
0200
0000
1300
0010
,  // measure 11
0000
0010
0000
0100
0000
0001
0100
0001
,  // measure 12
2000
0000
3010
0000
0200
0000
0301
0100
,  // measure 13
0000
0100
0000
0010
0000
1000
0010
1000
,  // measure 14
0001
0100
1000
0000
1100
0000
0001
0000
,  // measure 15
1000
0100
0000
1000
0000
0100
0010
0001
,  // measure 16
1000
0100
0001
0000
0101
0000
1000
0000
,  // measure 17
0001
0010
0000
0001
0000
1000
0100
0010
,  // measure 18
0001
0100
1000
0000
1100
0000
0010
0001
,  // measure 19
0010
0100
0000
0100
0000
0010
0100
1000
,  // measure 20
0001
0100
1000
0000
1100
0000
0010
0000
,  // measure 21
0001
1000
0000
0100
0100
1000
0100
0010
,  // measure 22
0001
0100
1000
0000
0100
0000
0001
1000
,  // measure 23
0000
0100
0000
1100
0000
0100
0000
0110
,  // measure 24
0000
0100
1000
0002
0000
0000
2003
0000
,  // measure 25
0000
0000
0000
3100
0010
0001
1000
0010
,  // measure 26
2000
0000
0000
0001
0000
0000
0001
0000
,  // measure 27
0001
0000
3001
0000
0000
0000
0100
0020
,  // measure 28
0000
0030
1000
0200
0000
0300
1000
0002
,  // measure 29
0000
0003
0010
0200
0000
1300
0100
0010
,  // measure 30
0001
0100
1000
0000
0100
0000
0001
1000
,  // measure 31
0000
0100
0000
1100
0000
0100
0000
0110
,  // measure 32
0000
0100
1000
0002
0000
0000
1000
0000
,  // measure 33
0000
0003
0000
1000
0100
0010
0001
1000
,  // measure 34
0002
0000
0000
1000
0000
0000
1000
0000
,  // measure 35
1000
0000
1003
0000
0000
0100
1000
0002
,  // measure 36
0000
0000
1003
0100
0000
0001
0100
0000
,  // measure 37
1000
0010
0000
0001
0010
1000
0100
0010
,  // measure 38
0001
0100
1000
0100
0000
0010
1000
0001
,  // measure 39
0010
0000
0200
0000
0000
0000
1000
0000
0000
0000
0000
1300
0000
0000
0001
0000
,  // measure 40
0010
0000
0000
0100
0000
0000
1000
0000
0001
0000
0000
0000
0200
0000
0000
0000
,  // measure 41
0010
0000
0310
0000
0000
0001
1000
0100
,  // measure 42
0010
0000
0001
0100
0000
0010
1000
0100
,  // measure 43
0010
0000
0010
0000
0000
0001
0100
1000
,  // measure 44
0100
0000
0001
1000
0000
0100
0010
0000
,  // measure 45
0002
1000
1003
0000
,  // measure 46
1000
0100
0001
0100
0000
0010
0001
1000
,  // measure 47
0100
0010
0000
0000
0000
0001
1000
0001
,  // measure 48
0100
0010
0000
1000
0000
1000
0020
0000
,  // measure 49
0100
0000
0130
0000
0000
0100
0001
1000
,  // measure 50
0020
0000
0000
0100
0000
0130
0001
0010
,  // measure 51
0100
0000
0100
0000
0000
1000
0100
0001
,  // measure 52
0100
0000
1000
0001
0000
0010
0100
0000
,  // measure 53
1000
1000
0001
0001
0100
0000
0010
1000
,  // measure 54
0002
0000
0000
0203
0000
0000
0020
0000
,  // measure 55
0000
0000
0000
0330
;

//---------------dance-single - ----------------
#NOTES:
     dance-single:
     :
     Beginner:
     1:
     0.044,0.079,0.000,0.000,0.000:
0000
0000
0000
0000
,
0000
0000
0000
0000
,
0000
0000
0000
0000
,
0000
0000
0000
0000
,
0000
0000
0000
0000
,
1000
0000
0000
0000
,
0000
0000
0000
0000
,
1000
0000
0000
0000
,
0000
0000
0000
0000
,
0001
0000
0000
0000
,
0000
0000
0000
0000
,
0001
0000
0000
0000
,
0000
0000
0000
0000
,
0100
0000
0000
0000
,
0010
0000
0000
0000
,
0100
0000
0000
0000
,
0001
0000
0000
0000
,
1000
0000
0000
0000
,
0001
0000
0000
0000
,
1000
0000
0000
0000
,
0100
0000
0000
0000
,
0010
0000
0000
0000
,
0000
0000
0000
0000
,
0010
0000
0000
0000
,
0000
0000
0000
0000
,
0100
0000
0000
0000
,
0000
0000
0000
0000
,
0010
0000
0000
0000
,
0000
0000
0000
0000
,
0001
0000
0000
0000
,
0000
0000
0000
0000
,
0001
0000
0000
0000
,
0000
0000
0000
0000
,
1000
0000
0000
0000
,
0000
0000
0000
0000
,
1000
0000
0001
0000
,
1000
0000
0000
0000
,
1000
0000
0000
0000
,
0000
0000
0000
0000
,
0001
0000
0000
0000
,
0000
0000
0000
0000
,
0001
0000
0000
0000
,
0000
0000
0000
0000
,
0100
0000
0000
0000
,
0000
0000
0000
0000
,
0100
0000
0000
0000
,
0000
0000
0000
0000
,
0010
0000
0000
0000
,
0000
0000
0000
0000
,
0010
0000
0000
0000
,
0000
0000
0000
0000
,
1000
0000
0000
0000
,
0000
0000
0000
0000
,
1000
0000
0000
0000
;
