#TITLE:X-Plan;
#SUBTITLE:;
#ARTIST:Tom-H@ck feat. Nadia;
#TITLETRANSLIT:;
#SUBTITLETRANSLIT:;
#ARTISTTRANSLIT:;
#CREDIT:DigiMindAxel;
#BANNER:X-Plan.png;
#BACKGROUND:X-Plan-bg.png;
#LYRICSPATH:;
#CDTITLE:GuitarFreaksXG & DrumManiaXG.png;
#MUSIC:X-Plan.mp3;
#OFFSET:-8.760;
#SAMPLESTART:32.260;
#SAMPLELENGTH:12.000;
#SELECTABLE:YES;
#BPMS:0.000=250.000;
#STOPS:49.000=0.240
,51.000=0.240
,53.000=0.240
,55.000=0.240
,208.000=0.720
,281.000=0.720
;
#BGCHANGES:;

//---------------dance-single - ----------------
#NOTES:
     dance-single:
     :
     Easy:
     4:
     0.305,0.400,0.191,0.017,0.000:
1000
0000
0001
0000
,
1000
0000
0001
0000
,
0100
0000
0010
0000
,
1000
0000
0010
0000
,
0100
0000
0101
0000
,
1000
0000
1100
0000
,
0001
0000
0101
0000
,
1000
0000
1100
0000
,
0001
0000
0010
0000
,
0100
0000
1000
0000
,
0001
0000
0001
0000
,
0001
0000
0000
0000
,
0100
0000
0001
0000
,
1000
0000
0100
0000
,
1000
0000
0000
0000
,
0001
0000
0001
0000
,
0001
0000
0001
0000
,
1000
0000
1000
0000
,
1001
0000
0000
0000
,
1000
0000
1000
0000
,
1000
0000
1000
0000
,
0001
0000
1000
0000
,
0010
0000
0100
0000
,
0001
0000
1000
0001
,
1000
0010
0100
0000
,
0001
0100
0001
1000
,
0100
0000
1000
0100
,
1000
0010
0100
0001
,
1000
0000
1000
0000
,
0001
0000
0001
0000
,
1000
0000
0010
0000
,
0100
0000
0000
0000
,
0001
1000
0001
0100
,
0001
0000
1000
0000
,
1000
0010
1000
0001
,
0010
0001
1000
0000
,
1001
0000
1000
0100
,
0010
0001
1000
0000
,
1001
0000
0001
0010
,
0100
1000
0001
0000
,
1001
0000
0000
0000
,
0000
0000
1000
0000
,
0002
0000
0000
0000
,
0000
0000
0000
0000
,
1003
0000
0010
0000
,
0100
0000
0001
0000
,
1000
0000
1000
0000
,
1001
0000
0000
0000
,
0001
0000
0100
0000
,
0010
0000
1000
0000
,
0001
0000
0001
0000
,
1001
0000
0000
0000
,
0000
1000
0000
0000
,
0100
0000
0010
0000
,
0000
0001
0000
0100
,
0000
0000
0010
0100
,
0010
1000
0000
0100
,
0000
0010
0000
0000
,
0001
0000
0010
0000
,
0000
0100
0000
1000
,
0001
1000
0000
0010
,
0000
0100
0000
0000
,
0001
0000
1000
0000
,
0000
0010
0000
0100
,
0010
0100
0000
0001
,
0000
1000
0000
0000
,
0100
0000
1000
0000
,
0000
0001
0000
1000
,
0001
1000
0010
0100
,
0001
0000
0000
0000
,
0000
0000
1001
0000
,
1000
0001
1000
0010
,
0100
0001
0000
0001
,
0100
0010
1000
0001
,
1000
0001
1000
0000
,
1000
0000
1000
0000
,
0001
0000
0001
0000
,
0100
0000
0010
0000
,
0000
0000
1001
0000
,
1000
0001
1000
0010
,
0100
0001
0000
0001
,
0100
0010
1000
0001
,
1000
0001
1000
0000
,
1000
0000
0001
0000
,
0001
0000
1001
0000
,
0100
0000
0100
0000
,
0010
0000
0020
0000
,
0000
0000
0000
0000
,
0100
0000
0130
0000
,
0000
0000
0000
0000
,
0000
0000
1001
0000
,
0010
0000
0100
0000
,
1000
0000
0010
0100
,
0010
0000
1000
0100
,
1000
0000
1001
0000
,
0101
0000
1010
0000
,
1001
0000
0001
0010
,
0100
1000
0001
0000
,
0001
0000
1001
0000
,
1100
0000
0011
0000
,
1001
0000
1000
0100
,
0010
0001
1000
0000
,
1000
0001
0000
0000
;

//---------------dance-single - ----------------
#NOTES:
     dance-single:
     :
     Medium:
     6:
     0.469,0.444,0.208,0.243,0.000:
0001
0100
0010
0100
,
0001
1000
0100
0000
,
1000
0100
0010
0100
,
1000
0000
0001
0100
0000
0000
0001
0000
,
2001
0000
0100
3000
,
1002
0000
0100
0003
,
2001
0000
0010
3000
,
1002
0000
0010
0003
,
1000
0100
0010
0001
,
1000
0100
1000
0000
,
0100
0010
0100
1000
,
0002
0000
0000
1003
0000
0000
0000
0000
,
0001
1000
0100
0010
,
0001
1000
0010
0100
,
0001
1000
0000
0100
,
0010
0001
0010
0000
,
0100
1000
0100
0000
,
0010
0001
1000
0001
,
2000
0000
0000
0000
,
3001
0100
0001
0000
,
1000
0010
1000
0000
,
0010
0100
0001
0010
,
0100
1000
0001
1000
,
0001
0000
0000
0000
0100
0010
0100
0010
,
0100
0010
0100
0001
,
0100
0010
1000
0001
,
1000
0100
0010
0100
,
1000
0001
0100
0010
,
1002
0000
0100
0000
,
2003
0000
0100
0000
,
3002
0000
0100
0000
,
1003
0000
0000
0000
0010
0100
0010
0100
,
0010
0100
0010
1000
,
0010
0100
0001
1000
,
0001
0010
0100
0010
,
0001
1000
0010
0100
,
1001
0000
0000
0000
0001
0100
0001
0000
,
1000
0100
1000
0000
,
1001
0000
0000
0000
1000
0010
1000
0000
,
0001
0010
0001
0000
,
2001
0000
0001
0000
,
0001
0000
3200
0000
,
0302
0000
0203
0000
,
2300
0000
0000
0000
,
3001
0100
0010
0000
,
0100
0010
1000
0000
,
0100
0010
0001
1000
,
2002
0000
0000
3003
,
1000
0010
0100
0000
,
0010
0100
0001
0000
,
0010
0100
1000
0001
,
2002
0000
0000
3003
,
0000
0001
0010
0100
,
1000
0100
0001
0100
,
1000
0100
0010
0001
,
0010
1000
0010
0001
,
0100
0010
1000
0100
,
0001
0100
1000
0010
,
0100
0001
0100
1000
,
0100
0001
0010
0100
,
1000
0001
0100
1000
,
0100
0010
0100
1000
,
0010
0001
0010
0100
,
0010
0001
0100
1000
,
0100
0010
0100
1000
,
0010
0001
0010
0100
,
0010
0001
0100
0010
,
1000
0100
0001
0100
,
1000
0010
0100
0001
,
0020
0000
0000
0000
,
0000
0030
1001
1000
,
0010
0100
0001
0100
,
1000
0100
0010
0100
,
1000
0001
0010
1000
,
0010
0100
1002
0000
,
0100
0000
0100
0000
,
2003
0000
0100
0000
,
0100
0000
3001
0000
,
0000
0000
1001
0001
,
0100
0010
1000
0100
,
0001
0100
0010
1000
,
0100
0010
0100
1000
,
0001
1000
1001
0000
,
0001
0100
0001
0000
1000
0000
0100
0000
,
1000
0000
1001
0000
,
1000
0010
1000
0000
0001
0000
0010
0000
,
0001
0000
1002
0000
,
1000
0000
1000
0000
,
0203
0000
2300
0000
,
3200
0000
0302
0000
,
0000
0000
0000
0000
1003
0000
0000
0100
,
0000
0000
0001
0000
0100
0000
0000
0010
,
0000
1000
0001
0010
,
0100
0000
1000
0000
0002
0000
0000
1000
,
0000
0003
0101
0000
,
0101
0000
1100
0000
,
1100
0000
0010
0001
,
1000
0000
0100
0000
0020
0000
0000
0100
,
0000
0030
1010
0000
,
1010
0000
0011
0000
,
0011
0000
0100
1000
,
0001
0010
0100
0000
,
1000
0001
1000
0001
0000
0000
0000
0000
;

//---------------dance-single - ----------------
#NOTES:
     dance-single:
     :
     Hard:
     8:
     0.558,0.578,0.156,0.130,0.000:
1000
0100
1000
0000
0100
1000
0100
0000
,
1000
0000
0001
0100
0000
0000
0001
0000
,
0001
0100
0001
0000
0100
0001
0100
0000
,
0001
0000
1000
0100
0000
0000
1000
0001
,
2000
0000
0000
0100
0000
0000
0001
0000
,
3002
0000
0000
0100
0000
0000
1000
0000
,
2003
0000
0000
0010
0000
0000
0001
0000
,
3002
0000
0000
0010
0000
0000
1000
0000
,
1003
0010
0100
0001
,
0100
1000
0100
0001
,
0100
0010
0100
0001
,
2000
0000
0000
0000
3001
1000
0001
1000
,
0001
0100
0001
0000
1000
0100
1000
0000
,
0010
0100
0010
0000
0100
0001
0100
0000
,
0001
1000
0001
0000
0000
0000
1000
0100
,
1000
0100
1000
0000
,
0001
0100
0001
0000
,
1000
0100
1000
0010
,
0220
0000
0000
0330
,
0001
0100
0001
0000
,
1000
0100
1000
0000
,
0001
0000
0010
0000
0001
0000
0100
0010
,
0100
0001
0100
0010
,
1000
0001
1000
0001
1000
0000
0000
0000
,
1001
0000
0100
0000
0010
0000
0001
1000
,
0001
1000
0100
1000
,
0001
0000
0100
0000
0010
0000
1000
0001
,
1000
0100
0010
0001
,
1100
0000
0000
0000
0001
0100
0001
0000
,
0101
0000
0000
0000
1000
0100
1000
0000
,
1100
0000
0011
0000
,
1001
0000
0000
0000
0100
0010
0100
0010
,
0100
0000
0001
0000
0100
0000
0010
0100
,
0010
0100
0001
1000
,
0001
0000
0100
0000
0010
0000
1000
0001
,
1000
0010
1000
0001
,
0011
0000
0000
0000
1000
0010
0000
1000
,
0000
0010
0000
1000
0001
0000
0000
0000
,
1001
0000
0000
0000
0001
0100
0000
0001
,
0000
0100
0000
0001
1000
0000
0000
0000
,
0100
1000
0100
1000
,
0100
1000
0001
0100
,
0001
1000
0100
0001
,
0200
0000
0000
0000
,
0301
0100
0000
0000
0100
1000
0000
0000
,
1000
0100
0000
0000
0100
0001
0000
0000
,
0100
0001
0010
0100
,
2000
0000
0000
0001
0000
0000
3001
0000
,
1000
0100
0000
0000
0100
0001
0000
0000
,
0001
0100
0000
0000
0100
1000
0000
0000
,
0100
1000
0010
0100
,
0002
0000
0000
1000
0000
0000
1003
0000
,
0000
1000
0100
0001
,
0100
0010
0001
0100
,
1000
0100
0010
1000
,
0100
0001
0100
0010
,
0001
0100
1000
0100
,
0010
0001
0100
1000
,
0100
0010
1000
0100
,
0001
0100
0010
0001
,
1000
0010
0100
0001
,
0010
1000
0010
0100
,
1000
0010
0001
0010
,
0100
0001
0010
1000
,
0010
0100
1000
0010
,
0001
0010
0100
0001
,
0010
1000
0010
0001
,
0100
0010
1000
0100
,
0001
0100
1000
0010
,
0200
0000
0000
0000
,
0000
0300
1001
0001
,
0100
0001
0100
0000
0010
0000
1000
0000
,
0100
0000
0001
0000
1000
0000
0010
1000
,
0010
1000
0001
0010
,
0100
0010
1001
1000
,
0100
1000
0100
0000
1000
0000
0001
0000
,
0010
0001
0010
0000
0001
0000
0010
0000
,
0001
1000
0020
0000
,
0000
0000
0030
0000
1001
0000
1000
0100
,
1000
0000
0001
0100
0001
0000
1000
0000
,
0100
0000
0010
0000
1001
0000
0001
0010
,
0001
0000
1000
0010
1000
0000
0001
0000
,
0100
0010
1001
0000
,
1000
0010
0000
1000
0000
0001
0000
0010
,
0001
0000
1001
0000
,
0001
0100
0000
0001
0000
1000
0000
0100
,
1000
0000
0001
1000
0001
0000
0100
0000
,
1000
0100
0001
0100
,
0010
0000
1000
0000
0001
0000
0000
0011
,
0000
0000
1000
0000
0000
2200
0000
0000
,
0000
0000
3300
0000
1001
0000
0100
0001
,
0100
0000
0001
0000
1000
0000
0100
1000
,
0100
1000
0001
0010
,
0100
0000
0010
0000
0001
0000
1000
0001
,
1000
0001
1000
0000
0010
1000
0010
0000
,
1000
0010
1000
0000
0001
0010
0001
0000
,
0010
0001
0010
0000
0100
0000
1000
0000
,
0001
0000
0100
0000
0020
0000
0000
1000
,
0000
0000
1030
0000
0100
0001
0100
0000
,
0001
0100
0001
0000
1000
0100
1000
0000
,
0100
1000
0100
0000
0010
0000
0001
0000
,
1000
0000
0010
0000
0100
0000
0001
1000
,
0001
1000
0100
1000
0000
0000
0000
0000
;

//---------------dance-single - ----------------
#NOTES:
     dance-single:
     :
     Challenge:
     9:
     0.686,0.711,0.069,0.087,0.000: // measure 1
0001
0100
0010
0000
0100
0010
0100
0000
,  // measure 2
0001
0000
1000
0100
0000
1000
0100
0000
,  // measure 3
1000
0010
0100
0000
0010
0100
0010
0000
,  // measure 4
1000
0000
0001
0010
0000
0001
0010
0001
,  // measure 5
1000
0000
0010
1000
0010
0000
1000
0000
,  // measure 6
0001
0000
0100
0001
0100
0000
0001
0000
,  // measure 7
1000
0000
0100
0010
0100
0000
1000
0000
,  // measure 8
0100
0000
0000
0001
0000
0000
0100
0000
,  // measure 9
1000
0010
0100
0000
0010
0100
0001
0000
,  // measure 10
1000
0010
0100
0000
0010
0100
0001
0000
,  // measure 11
0100
1000
0100
0001
,  // measure 12
0200
0000
0000
0310
1000
0001
1000
0001
,  // measure 13
1000
0100
0010
0000
0001
0100
0010
0000
,  // measure 14
0100
0001
0010
0000
0100
1000
0010
0000
,  // measure 15
0100
0001
0010
0000
0100
1000
0010
0000
,  // measure 16
2000
0000
0010
0000
3010
0000
0100
0001
,  // measure 17
0000
1000
0000
0100
1000
0000
0001
0000
,  // measure 18
0200
0000
0001
0000
0301
1000
0000
1000
,  // measure 19
0020
0000
0100
0130
,  // measure 20
0002
0000
0100
0000
0103
0000
0010
1000
,  // measure 21
0000
0001
0000
0010
0001
1000
0010
1000
,  // measure 22
0001
0000
1000
0100
1000
0000
0001
0000
,  // measure 23
1001
0000
1000
0100
1000
0000
0001
0100
,  // measure 24
0001
1000
0001
1000
0001
1000
0001
1000
,  // measure 25
0001
0000
0100
0001
1000
0000
0100
1000
,  // measure 26
0100
0000
1000
0100
0010
0001
1000
0000
,  // measure 27
1000
0000
0010
1000
0001
0000
0010
0001
,  // measure 28
0010
0000
0001
0010
0100
1000
0001
0000
,  // measure 29
1001
0000
0001
0000
1000
0010
1000
0000
,  // measure 30
1010
0000
1000
0000
0001
0100
0001
0000
,  // measure 31
0101
1000
1100
0001
,  // measure 32
1001
0000
0010
0100
0010
0100
0010
0100
,  // measure 33
0010
0000
1000
0010
0100
0000
0001
0010
,  // measure 34
0001
0000
1000
0100
0010
0001
1000
0000
,  // measure 35
1000
0000
0001
0100
0010
0000
1000
0100
,  // measure 36
1000
0000
0001
0010
0100
1000
0001
0000
,  // measure 37
0101
0000
1000
0000
0001
0100
0001
1000
,  // measure 38
0000
0100
0000
0010
0100
0000
1000
0010
,  // measure 39
1000
0000
0001
0000
1000
0010
1000
0001
,  // measure 40
0000
0010
0000
0100
0010
0000
0001
0000
,  // measure 41
2000
0100
0100
0001
,  // measure 42
0001
0100
0100
0001
,  // measure 43
3001
0000
0100
0001
0000
1000
0100
0000
,  // measure 44
0010
0100
0010
0100
,  // measure 45
1000
0100
1000
0000
0100
0010
0100
0000
,  // measure 46
0010
0001
0010
0000
0100
1000
0100
0000
,  // measure 47
0010
0100
1000
0001
,  // measure 48
0010
0000
0000
1000
0000
0000
0010
0000
,  // measure 49
0001
0010
0001
0000
0010
0100
0010
0000
,  // measure 50
0100
1000
0100
0000
0010
0001
0010
0000
,  // measure 51
0100
0010
0001
1000
,  // measure 52
0100
0000
0000
0001
0000
0000
0100
0000
,  // measure 53
0000
0101
1000
0100
,  // measure 54
0001
0100
1000
0100
,  // measure 55
0010
1000
0010
0001
,  // measure 56
0010
0000
1000
0000
0010
0100
0010
0100
,  // measure 57
0010
0100
0010
0000
1000
0000
0010
0000
,  // measure 58
0001
0010
1000
0010
,  // measure 59
0100
1000
0100
0001
,  // measure 60
0100
0000
1000
0000
0100
0010
0100
0000
,  // measure 61
1000
0001
1000
0000
0010
0000
0001
0000
,  // measure 62
0010
1000
0010
0100
,  // measure 63
1000
0100
0001
0100
,  // measure 64
0010
0000
1000
0000
0001
1000
0001
1000
,  // measure 65
0001
1000
0001
0000
0010
0000
1000
0000
,  // measure 66
0010
0001
0010
0100
,  // measure 67
0001
0100
1000
0100
,  // measure 68
0001
0000
1000
0000
0010
0100
0010
0100
,  // measure 69
0001
1000
0001
0000
1000
0100
0010
0001
,  // measure 70
1000
0200
0000
0000
0000
0000
0000
0000
,  // measure 71
0000
0000
0300
0000
1000
0010
0100
0000
,  // measure 72
0010
0100
0010
0000
0100
0001
1000
0100
,  // measure 73
0010
0100
1000
0000
0001
0100
0010
0000
,  // measure 74
0100
0010
0100
0000
0010
1000
0001
0010
,  // measure 75
0100
0010
0001
0000
0100
0001
0100
0000
,  // measure 76
0010
1000
0010
0000
1000
0100
1000
0000
,  // measure 77
0001
0010
0001
0000
1000
0000
0010
0000
,  // measure 78
0100
0000
0001
0100
0020
0000
0000
0000
,  // measure 79
0000
0000
0030
0000
1000
0010
0100
0000
,  // measure 80
0010
0100
0010
0000
1000
0100
0010
0001
,  // measure 81
0010
0100
0010
0000
0001
0100
0010
0000
,  // measure 82
0100
0010
0100
0000
0001
0010
0100
1000
,  // measure 83
0100
0010
0100
0000
1000
0010
1000
0000
,  // measure 84
0001
0100
0000
0010
0000
1000
0000
0001
,  // measure 85
0010
0000
0001
0000
0001
0100
0001
0000
,  // measure 86
1000
0010
0000
0100
0000
0001
0000
1000
,  // measure 87
0100
0000
1000
0001
2000
0000
0100
0000
,  // measure 88
0100
0001
0001
0100
,  // measure 89
0100
0000
0001
0000
3001
0000
0100
0001
,  // measure 90
0000
1000
0100
0000
1000
0001
0000
0001
,  // measure 91
0100
0010
0000
0010
1000
0001
1000
0000
,  // measure 92
0001
1000
0001
0000
1000
0100
1000
0001
,  // measure 93
0010
0100
1000
0000
0001
0100
0001
0000
,  // measure 94
1000
0010
1000
0000
0001
0010
0001
0100
,  // measure 95
0010
0100
0010
0100
0001
0010
0100
0000
,  // measure 96
1000
0010
0100
0000
0001
0100
0010
0000
,  // measure 97
1000
0100
0010
0000
0001
0000
0100
0000
,  // measure 98
1000
0000
0100
0000
0002
0000
0000
1000
,  // measure 99
0000
0000
1003
0000
0001
0100
0010
0000
,  // measure 100
1000
0010
0100
0000
0001
0010
0100
0000
,  // measure 101
1000
0100
0010
0000
0001
0000
0010
0000
,  // measure 102
1000
0000
0010
0000
0001
0100
0001
0100
,  // measure 103
0010
1000
0100
0010
0000
0000
0000
0000
;

//---------------dance-single - ----------------
#NOTES:
     dance-single:
     :
     Beginner:
     2:
     0.093,0.177,0.130,0.000,0.000:
1000
0000
0000
0000
,
0000
0000
0000
0000
,
0001
0000
0000
0000
,
0000
0000
0000
0000
,
1000
0000
0000
0000
,
0000
0000
0000
0000
,
1000
0000
0000
0000
,
0000
0000
0000
0000
,
0001
0000
0000
0000
,
0000
0000
0000
0000
,
0001
0000
0000
0000
,
0000
0000
0000
0000
,
0100
0000
0000
0000
,
0000
0000
0000
0000
,
0000
0000
0000
0000
,
0010
0000
0000
0000
,
0000
0000
0000
0000
,
0010
0000
0000
0000
,
0000
0000
0000
0000
,
0100
0000
0000
0000
,
0000
0000
0000
0000
,
0100
0000
0000
0000
,
0000
0000
0000
0000
,
0000
0000
0000
0000
,
1001
0000
0000
0000
,
0001
0000
0000
0000
,
1000
0000
0000
0000
,
1000
0000
0000
0000
,
0001
0000
0000
0000
,
0000
0000
0000
0000
,
1000
0000
0000
0000
,
0000
0000
0000
0000
,
1001
0000
0000
0000
,
1000
0000
0000
0000
,
1000
0000
0000
0000
,
0001
0000
0000
0000
,
1000
0000
0000
0000
,
0000
0000
0000
0000
,
0010
0000
0000
0000
,
0000
0000
0000
0000
,
0100
0000
0000
0000
,
0000
0000
0000
0000
,
0010
0000
0000
0000
,
0000
0000
0000
0000
,
0010
0000
0000
0000
,
0000
0000
0000
0000
,
0000
0000
0000
0000
,
0000
0000
0000
0000
,
0100
0000
0000
0000
,
0000
0000
0000
0000
,
0000
0000
0000
0000
,
0000
0000
0000
0000
,
0000
0010
0000
0000
,
0000
0000
0000
0000
,
0000
0000
0000
0000
,
0000
0000
0000
0000
,
0000
1000
0000
0000
,
0000
0000
0000
0000
,
0000
0000
0000
0000
,
0000
0000
0000
0000
,
0000
1001
0000
0000
,
0000
0000
0000
0000
,
0000
0000
0000
0000
,
0000
0000
0000
0000
,
0000
0001
0000
0000
,
0000
0000
0000
0000
,
0000
0000
0000
0000
,
0000
0000
0100
0000
,
0000
0000
0001
0000
,
0000
0000
0000
0000
,
0000
0000
1001
0000
,
0000
0000
1000
0000
,
0000
0000
0001
0000
,
0000
0000
0010
0000
,
0000
0000
0100
0000
,
0000
0000
1000
0000
,
0000
0000
0001
0000
,
0000
0000
1001
0000
,
0000
0000
1001
0000
,
0000
0000
1000
0000
,
0000
0000
0001
0000
,
0000
0000
1000
0000
,
0000
0000
0110
0000
,
0000
0000
0000
0000
,
0000
0000
0110
0000
,
0000
0000
0000
0000
,
0000
0000
0001
0000
,
0000
0000
0000
0000
,
0000
0000
1001
0000
,
0000
0000
0000
0000
,
0000
0000
1000
0000
,
0000
0000
0001
0000
,
0000
0000
1000
0000
,
0000
0000
1000
0000
,
0000
0000
1001
0000
,
0000
0000
0110
0000
,
0000
0000
1001
0000
,
0000
0000
0000
0000
,
0000
0000
1001
0000
,
0000
0000
0110
0000
,
0000
0000
1001
0000
,
0000
0000
0000
0000
,
0001
0000
0000
0000
;
