#TITLE:WISE UP!;
#SUBTITLE:;
#ARTIST:木之下慶行 feat. 星野奏子;
#TITLETRANSLIT:;
#SUBTITLETRANSLIT:;
#ARTISTTRANSLIT:YOSHIYUKI KINOSHITA feat. KANAKO HOSHINO;
#CREDIT:DigiMindAxel;
#BANNER:WISE UP!.png;
#BACKGROUND:WISE UP!-bg.png;
#LYRICSPATH:WISE UP!.lrc;
#CDTITLE:beatmania IIDX.png;
#MUSIC:WISE UP!.mp3;
#OFFSET:-9.040;
#SAMPLESTART:54.364;
#SAMPLELENGTH:12.000;
#SELECTABLE:YES;
#BPMS:0.000=127.000;
#STOPS:;
#BGCHANGES:;

//---------------dance-single - ----------------
#NOTES:
     dance-single:
     :
     Easy:
     3:
     0.249,0.274,0.209,0.152,0.000:
1001
0010
0100
0010
,
1001
0010
0100
0010
,
1001
0100
0010
0100
,
1001
0100
0010
0100
,
1001
1000
0000
0001
,
1000
0010
0100
0100
,
0010
1001
0000
0000
,
0002
0000
0000
0000
,
1003
0100
0010
0010
,
0100
1000
0010
0010
,
0100
0001
0010
0010
,
0001
0010
0100
0100
,
0010
0001
1000
1000
,
0010
0100
0010
0010
,
1000
0100
0010
0010
,
0001
1000
0010
0100
,
0220
0000
0000
0000
0330
0000
0000
2000
,
0000
0000
0000
3001
0000
0000
0000
0000
,
0220
0000
0000
0000
0330
0000
0000
0002
,
0000
0000
0000
1003
0000
0000
0000
0000
,
1000
0100
0010
0001
,
1000
0010
0100
0010
,
1000
0100
0010
0001
,
2000
0000
0000
3000
,
1001
0000
1001
0000
0110
0000
0000
0100
,
0000
0001
0000
0100
0000
1000
0000
0000
,
0100
0001
1000
0100
,
1000
0100
0010
0001
,
1001
0000
1001
0000
0110
0000
0000
0100
,
0000
0001
0000
0100
0000
1000
0000
0000
,
0100
0001
0010
0001
,
1000
0100
0010
0001
,
1001
0000
1001
0000
0110
0000
0000
0100
,
0000
0001
0000
0100
0000
1000
0000
0000
,
0100
0001
1000
0100
,
1000
0001
0010
0100
,
1001
0000
1001
0000
0110
0000
0000
0100
,
0000
1000
0000
0100
0000
0001
0000
0000
,
0100
1000
0010
1000
,
0100
0010
0001
1000
,
0220
0000
0000
0000
,
0000
0000
0330
0000
,
2000
0000
0000
0000
0000
0001
0000
3002
,
0000
0000
0000
0003
,
0220
0000
0000
0000
,
0000
0000
0330
0000
,
0002
0000
0000
0000
1000
0000
0000
2003
,
0000
0000
0000
0000
,
3000
0000
0000
0000
;

//---------------dance-single - ----------------
#NOTES:
     dance-single:
     :
     Hard:
     7:
     0.499,0.503,0.238,0.267,0.209: // measure 1
0001
0000
0000
0001
0100
0000
0000
0000
0010
0000
1000
0000
0100
0000
0000
0000
,  // measure 2
1000
0000
0000
1000
0010
0000
0000
0000
0100
0000
0001
0000
0010
0000
0000
0000
,  // measure 3
0001
0000
0000
0001
1000
0000
0000
0000
0100
0000
0010
0000
0001
0000
0000
0000
,  // measure 4
1000
0000
0000
1000
0001
0000
0000
0000
0010
0000
0100
0000
1000
0000
0010
0000
,  // measure 5
0110
0000
0000
0000
0100
0000
0000
0000
0100
0000
0001
0000
0100
0001
0100
0000
,  // measure 6
0001
0000
0010
0000
0100
0000
0000
0000
1000
0010
1000
0000
0010
0100
0010
0000
,  // measure 7
0100
0000
0000
0000
0110
0000
0000
0000
0100
0000
0000
0000
0100
0000
0010
0100
,  // measure 8
0010
1000
0100
0010
0002
0000
0000
0000
,  // measure 9
0013
0000
0100
0000
0010
0000
0001
0000
1000
0000
0000
0010
0100
0000
0001
0000
,  // measure 10
0010
0000
0100
0000
0100
0000
0000
0000
1000
0000
0000
0010
0100
0000
0001
0000
,  // measure 11
0010
0000
0100
0000
0010
0000
0001
0000
1000
0000
0000
0010
0100
0000
0001
0000
,  // measure 12
0001
0000
0010
0000
0100
0000
0010
0000
0001
0000
0000
1000
0001
0000
0100
0000
,  // measure 13
0110
0000
1000
0000
1000
0000
0001
0000
0100
0010
0000
0010
1000
0000
0100
0000
,  // measure 14
0010
0000
0001
0000
1000
0000
0010
0000
0100
0001
0000
0001
1000
0000
0100
0000
,  // measure 15
0010
0000
0100
0000
1000
0000
0001
0000
0100
0001
0000
0001
1000
0000
0010
0000
,  // measure 16
0100
0010
1000
0001
0101
0000
0101
0000
,  // measure 17
1200
0000
2300
0000
3010
0100
0000
0002
,  // measure 18
0000
1000
0000
2003
0000
3100
0000
0001
,  // measure 19
0200
0000
2300
0000
3010
0100
0000
0002
,  // measure 20
0000
1003
0100
0010
0001
0010
0100
0000
,  // measure 21
1000
0000
0100
0000
0001
0000
0100
0000
1000
0000
0000
0010
0000
0000
0200
0000
,  // measure 22
0000
0301
1000
0100
0010
0100
1000
0000
,  // measure 23
0001
0000
0100
0000
1000
0000
0100
0000
0001
0000
0000
0100
0000
0000
2200
0000
,  // measure 24
0000
0000
0000
0000
0000
0000
3300
0000
0000
0000
0110
0000
0000
0110
0000
0000
,  // measure 25
0110
0000
1100
0000
1001
0010
0100
2000
,  // measure 26
0000
0000
3100
0000
0000
0000
0020
0000
0000
0000
0130
0000
1000
0001
1000
0000
,  // measure 27
0001
0000
0100
0000
0110
0000
0001
0000
0002
0000
0000
0103
0000
0000
0110
0000
,  // measure 28
0000
0010
0100
0001
0010
0100
1000
0010
,  // measure 29
0110
0000
0101
0000
1001
0100
0010
0002
,  // measure 30
0000
0000
0013
0000
0000
0000
0200
0000
0000
0000
0310
0000
0001
1000
0001
0000
,  // measure 31
1000
0000
0010
0000
0100
0000
0001
0000
0200
0000
0000
1000
0000
0000
1300
0000
,  // measure 32
0001
0010
0100
1000
0100
0010
0001
0100
,  // measure 33
0110
0000
0101
0000
1100
0001
0010
0200
,  // measure 34
0000
0000
1300
0000
0000
0000
0010
0000
0100
0010
0100
0000
1000
0001
1000
0000
,  // measure 35
0001
0000
0100
0000
0110
0000
0001
0000
0002
0000
0000
0103
0000
0000
0110
0000
,  // measure 36
0000
0000
1000
0000
0100
1000
0100
0000
0010
0001
0100
0000
0010
1000
0010
0000
,  // measure 37
0110
0000
1100
0000
0011
1000
0100
0020
,  // measure 38
0000
0000
0032
0000
0000
0000
0203
0000
0000
0000
0301
1000
0001
1000
0001
1000
,  // measure 39
0001
0000
0010
0000
0100
0000
1000
0000
0200
0000
0000
0001
0000
0000
0301
0000
,  // measure 40
1000
0100
1000
0000
0100
1000
0001
0000
0010
0001
0010
0000
0001
1000
0010
0000
,  // measure 41
0100
0000
0001
0000
0010
0000
0100
0000
1000
0000
0000
0100
0001
0000
0100
0000
,  // measure 42
2000
0000
0000
3001
0000
0000
0000
0000
,  // measure 43
0000
0000
0010
0000
0100
0000
1000
0000
0001
0000
0000
0100
1000
0000
0100
0000
,  // measure 44
0002
0000
0000
1003
0000
0000
0000
0000
,  // measure 45
1000
0000
0001
0000
0010
0000
0100
0000
1000
0000
0000
0100
0001
0000
0100
0000
,  // measure 46
1000
0000
0000
0010
0100
0000
0001
0000
0010
0000
0100
0000
0000
0000
0000
0000
,  // measure 47
0000
0000
1000
0000
0100
0000
0001
0000
0200
0000
0000
2300
0000
0000
3002
0000
,  // measure 48
0000
0000
0000
0000
,  // measure 49
0003
0000
0000
0000
;

//---------------dance-single - ----------------
#NOTES:
     dance-single:
     :
     Medium:
     5:
     0.333,0.320,0.209,0.228,0.014:
0102
0100
0100
0103
,
2100
0100
0100
3100
,
0012
0010
0010
0013
,
0100
0000
1000
0000
0001
0010
0100
1000
,
0002
0000
0103
0000
0001
1000
0100
0000
,
1000
0100
0001
0110
,
0001
0000
2000
0000
3010
0000
1000
0001
,
0200
0000
0000
0300
,
1100
0000
0001
0000
0010
0100
0010
0000
,
0101
0000
1000
0000
0100
0010
0100
0000
,
1100
0000
0001
0000
0100
0001
0100
0000
,
0011
0000
1000
0000
0010
1000
0010
0000
,
1001
0000
1000
0100
0010
0000
0002
0000
,
0103
0000
0001
0010
0100
0000
2000
0000
,
3010
0000
0100
0001
0100
0000
0010
1000
,
0010
0000
1000
0001
0100
0000
0110
0000
,
1001
0000
0001
0000
0000
0200
0000
0302
,
0000
0000
0000
2000
0000
0003
0000
0000
,
3001
0000
0001
0000
0000
0200
0000
0302
,
0000
0000
0000
2000
0003
0000
3000
0000
,
0001
0000
0101
0000
1100
0000
0000
0001
,
0000
1000
0000
0100
0000
0010
0000
0000
,
0001
0000
0000
0000
0101
0000
0000
0000
1000
0000
0000
0001
0000
0000
2000
0000
,
0000
0000
0000
0000
0000
0000
3000
0000
0000
0000
0010
0000
0000
0010
0000
0000
,
0010
0000
0110
0000
0001
0100
0000
0010
,
0000
0100
0000
0010
0000
1000
0000
0000
,
0001
0100
0001
0100
0010
0000
1000
0000
,
0100
0001
0110
1000
,
0010
0000
0110
0000
1000
0100
0000
1000
,
0000
0001
0000
0010
0000
0001
0000
0000
,
1000
0000
1000
0001
0100
0000
1000
0000
,
0100
0101
1000
1100
,
0001
0010
0100
0000
1000
1000
0000
0001
,
0000
1000
0000
0010
0100
0010
1000
0000
,
0010
0110
0001
1000
,
0010
0100
0010
1000
0001
1000
0001
0000
,
1000
0100
0010
0000
0001
0001
0000
0100
,
0000
0001
0000
1000
0000
0010
0100
0010
,
1000
0000
0010
0000
0100
0010
0100
0000
,
0001
0010
0100
0000
1000
0100
0010
0000
,
0102
0000
0000
0000
0000
1000
0000
2003
,
0000
0000
0000
3001
0000
0100
0010
0100
,
0002
0000
0000
0000
0000
1000
0000
2003
,
0000
0000
0000
3001
0000
0000
0000
0000
,
2020
0000
0000
0030
0000
0001
0000
3002
,
0000
0000
0000
1003
0000
0010
0100
0010
,
2000
0000
0000
0000
0000
0000
0000
0000
3001
0000
0000
1000
0000
0000
0002
0000
,
0000
0000
0000
0000
,
0003
0000
0000
0000
;

//---------------dance-single - ----------------
#NOTES:
     dance-single:
     :
     Beginner:
     1:
     0.064,0.109,0.057,0.000,0.000:
1000
0000
0000
0000
,
1000
0000
0000
0000
,
1000
0000
0000
0000
,
1000
0000
0000
0000
,
1001
0000
0000
0000
,
0001
0000
1000
0000
,
0001
0000
0000
0000
,
0100
0000
0000
0000
,
1001
0000
0000
0000
,
0001
0000
0000
0000
,
1000
0000
0000
0000
,
0001
0000
0000
0000
,
0010
0000
0000
0000
,
0100
0000
0000
0000
,
0010
0000
0000
0000
,
0001
0000
0000
0000
,
1001
0000
0000
0000
,
0000
0000
0000
0000
,
1000
0000
0000
0000
,
0000
0000
0000
0000
,
0001
0000
0000
0000
,
0000
0000
0000
0000
,
1000
0000
0000
0000
,
0000
0000
0000
0000
,
1001
0000
0000
0000
,
0001
0000
0000
0000
,
1000
0000
0000
0000
,
0001
0000
0000
0000
,
0100
0000
0000
0000
,
0010
0000
0000
0000
,
0100
0000
0000
0000
,
0001
0000
0000
0000
,
1001
0000
0000
0000
,
1000
0000
0000
0000
,
0010
0000
0000
0000
,
0100
0000
0000
0000
,
0010
0000
0000
0000
,
1000
0000
0000
0000
,
0001
0000
0000
0000
,
1000
0000
0000
0000
,
1001
0000
0000
0000
,
0000
0000
0000
0000
,
0001
0000
0000
0000
,
0000
0000
0000
0000
,
1000
0000
0000
0000
,
0000
0000
0000
0000
,
0001
0000
0000
0000
;
