#TITLE:うらもからだも落花微塵;
#SUBTITLE:;
#ARTIST:Nanako;
#TITLETRANSLIT:URA MO KARADA MO RAKKAMIJIN;
#SUBTITLETRANSLIT:;
#ARTISTTRANSLIT:;
#CREDIT:DigiMindAxel;
#BANNER:URA MO KARADA MO RAKKAMIJIN.png;
#BACKGROUND:URA MO KARADA MO RAKKAMIJIN-bg.png;
#LYRICSPATH:;
#CDTITLE:jubeat.png;
#MUSIC:URA MO KARADA MO RAKKAMIJIN.mp3;
#OFFSET:-6.820;
#SAMPLESTART:53.835;
#SAMPLELENGTH:12.000;
#SELECTABLE:YES;
#BPMS:0.000=158.000;
#STOPS:264.500=0.759
,270.500=0.380
;
#BGCHANGES:;

//---------------dance-single - ----------------
#NOTES:
     dance-single:
     :
     Easy:
     3:
     0.245,0.291,0.111,0.213,0.000:
1000
0100
1000
0001
,
0100
0001
1000
0100
,
0010
0001
0010
0100
,
1000
0001
1000
0001
,
1000
0100
1000
0001
,
0100
0001
1000
0001
,
1000
0100
0010
0001
,
1000
0000
0000
0000
,
1000
0000
0100
0000
,
0010
0000
0001
1000
,
0001
0000
0010
0000
,
0100
0000
0010
0000
,
1001
0000
0010
0000
,
0100
0000
0010
0000
,
0100
0000
1000
0000
,
0002
0000
0000
1003
,
1001
0000
0100
0000
,
0010
0000
0001
0000
,
1000
0000
0010
0000
,
0200
0000
0000
0310
,
0110
0000
1000
0000
,
0100
0000
1000
0000
,
0001
0000
0100
0000
,
0020
0000
0000
0000
,
0230
0000
0300
0000
,
0020
0000
0000
0000
,
0230
0000
0300
0000
,
0002
0000
0000
0000
,
2003
0000
3000
0000
,
0002
0000
0000
0000
,
1003
1001
0000
0000
,
1000
0000
0100
0000
,
1000
0000
0001
0010
,
0100
0000
1000
0001
,
2000
0000
0000
0001
,
3001
0000
0010
0000
,
0001
1000
0001
0000
,
2000
0000
0000
3001
,
0010
0100
1000
0001
,
1000
0000
0100
0000
,
1000
0000
0001
0010
,
0100
0000
1000
0001
,
2000
0000
0000
3001
,
1001
0000
1000
0000
,
0010
0100
0010
0000
,
2000
0000
0001
3001
,
0200
0000
0000
0000
,
0320
0000
0000
0000
,
0230
0000
0000
0000
,
0302
0000
0000
0003
,
2002
0000
0000
3003
,
0010
1000
0010
0000
,
2002
0000
0000
3003
,
0100
0001
0100
0000
,
0220
0000
0000
0330
,
1000
0100
1000
0000
,
0110
0000
1001
0000
,
0002
0000
0000
0000
,
2003
0000
0000
0000
,
3001
0010
0001
1000
,
0010
1000
0001
1000
,
0100
0010
0001
0010
,
0100
1000
0010
0100
,
0001
0010
0001
1000
,
0010
1000
0001
1000
,
0100
0010
0001
1000
,
1001
0000
0010
0100
,
1000
0001
1001
0000
,
0000
0110
0000
0000
;

//---------------dance-single - ----------------
#NOTES:
     dance-single:
     :
     Medium:
     6:
     0.416,0.408,0.162,0.264,0.000:
0002
0000
0103
0010
0100
0000
0001
1000
,
0001
0000
1000
0000
0001
0010
0001
0000
,
1001
0100
0010
0001
,
1000
0100
1000
0000
0001
0010
0001
0000
,
2000
0000
3010
0100
0010
0000
1000
0001
,
1000
0000
0001
0000
1000
0100
1000
0000
,
1001
0010
0100
1000
,
0001
0001
0000
0000
0000
2000
0000
0000
,
3001
0000
0000
0100
0010
0000
0000
0100
,
0010
0000
0000
0100
0010
0000
1000
0001
,
1000
0000
0000
0010
0100
0000
0002
0000
,
1003
0100
0001
0100
,
1001
0000
0000
0010
0100
0000
0000
0010
,
0100
0000
0002
0000
1003
0000
0001
1000
,
0002
0000
0103
0010
,
0100
0001
0100
1000
,
1001
0000
0000
0010
0100
0000
0000
0010
,
0100
0000
0000
0010
0100
0000
0001
1000
,
0001
0000
0000
0100
0010
0000
2000
0000
,
3001
0100
1000
0100
,
1001
0000
0000
0100
0010
0000
0000
0100
,
0010
2000
3001
1000
,
0020
0000
0130
0001
,
1000
2000
0000
0000
0001
0000
3001
0000
,
0010
0100
0010
0001
0000
0000
1000
0000
,
0001
0002
0000
0000
1000
0000
1003
0000
,
0100
0010
0100
1000
0000
0000
0001
0000
,
1000
2000
0000
0000
0001
0000
3001
0000
,
0010
0100
0010
0001
0000
1000
0100
0010
,
0100
1000
0010
0100
,
0001
1001
0000
0000
,
2000
0000
0000
0010
3020
0000
0000
0100
,
0230
0000
0000
0000
0301
1000
0001
0100
,
0020
0000
0000
1000
1030
0000
1001
0000
,
0001
0100
1000
0100
,
1002
0000
0000
0100
0203
0000
0000
0010
,
0310
2000
3001
0100
,
0020
0000
0000
0000
0000
1000
1030
0000
,
0010
0100
0010
0000
1000
0001
1000
0000
,
0002
0000
0000
0100
0203
0000
0000
0010
,
0320
0000
0000
1000
1030
0000
0010
0100
,
0020
0000
0000
1000
1030
0000
0002
0000
,
1003
0100
0001
0100
,
2001
0000
0000
0010
3020
0000
0000
0100
,
0130
0002
1003
0001
,
0200
0000
0010
0310
,
1000
0100
0001
0100
,
1000
0010
0001
0010
,
1000
0100
0001
0100
,
1000
0010
0001
0010
,
1001
0000
0000
1001
0000
0000
1000
0000
,
0100
0001
0100
1000
,
1001
0000
0000
1001
0000
0000
0001
0000
,
0010
1000
0010
0001
,
0110
0000
0000
0110
0000
0000
1000
0000
,
0100
0001
0100
1000
,
0110
0000
1001
0000
,
2000
0000
0000
0000
,
0001
0001
0001
3001
,
1001
0000
0100
1000
0010
0000
0100
0010
,
0100
0010
0100
0000
0001
1000
0001
0000
,
0100
0000
0100
0010
0100
0000
0100
0000
,
0010
0000
0010
0100
0010
0000
0010
0000
,
1001
0000
0010
0001
0100
0000
0010
0100
,
0010
0100
0010
0000
1000
0001
1000
0000
,
0010
0000
0010
0100
0010
0000
0010
0000
,
1000
0001
0000
0000
0100
0000
0100
0010
,
0100
0000
0100
0000
0001
1000
0000
0000
,
0020
0000
0100
0130
0000
0000
0000
0000
;

//---------------dance-single - ----------------
#NOTES:
     dance-single:
     :
     Hard:
     8:
     0.562,0.495,0.187,0.366,0.060: // measure 1
1000
0100
0001
0100
1000
0000
0001
0100
,  // measure 2
1000
0100
0001
0000
0100
0010
1000
0100
,  // measure 3
1000
0001
0010
0100
1000
0001
0010
0100
,  // measure 4
1000
0010
0001
0010
1000
0100
0010
0100
,  // measure 5
1000
0100
0001
0100
1000
0000
0001
0100
,  // measure 6
1000
0100
0001
0000
0100
0010
1000
0100
,  // measure 7
1000
0001
0010
0100
1000
0001
0010
0100
,  // measure 8
1000
1001
0000
0000
0000
0002
0000
0000
,  // measure 9
2003
0000
0000
0100
3200
0000
0000
0010
,  // measure 10
0320
0000
0000
0001
0031
1000
0100
0010
,  // measure 11
0002
0000
0000
1000
1003
0000
2000
0000
,  // measure 12
3001
0100
0010
0100
0001
0010
0100
1000
,  // measure 13
0002
0000
0000
0010
0023
0000
0000
0100
,  // measure 14
0130
0000
2000
0000
3001
0000
1000
0001
,  // measure 15
2000
0000
0000
0000
3010
0100
0002
0000
,  // measure 16
1003
0010
0100
0010
1000
0100
0010
0001
,  // measure 17
2000
0000
0000
0010
3020
0000
0000
0100
,  // measure 18
0230
0000
0000
0001
0301
1000
0100
0010
,  // measure 19
0002
0000
0000
1000
1003
0000
2000
0000
,  // measure 20
3001
0100
0010
0100
0001
0010
0100
1000
,  // measure 21
0002
0000
0000
0100
0203
0000
0000
0010
,  // measure 22
0310
0000
2000
0000
3001
0000
0100
0010
,  // measure 23
2000
0000
3001
1000
,  // measure 24
0010
0010
1000
0100
0010
0001
1000
0000
,  // measure 25
0100
0001
0100
1000
0001
1000
1001
0000
,  // measure 26
0100
0100
0001
0010
0100
1000
0001
0000
,  // measure 27
0100
1000
0100
0001
1000
0001
1001
0000
,  // measure 28
0010
0010
0001
0100
0010
1000
0001
0000
,  // measure 29
0100
1000
0100
0001
1000
0001
0010
0100
,  // measure 30
0010
0010
0001
0100
0010
1000
0001
0010
,  // measure 31
0100
2002
0000
3003
,  // measure 32
0002
0000
0000
0100
0203
0000
0000
0010
,  // measure 33
0320
0000
0000
0000
1030
0100
0010
0001
,  // measure 34
2000
0000
0000
0001
3001
0000
1001
0000
,  // measure 35
1000
0100
0010
0001
0100
1000
0100
0001
,  // measure 36
2000
0000
0000
0010
3020
0000
0000
0100
,  // measure 37
0130
0000
0002
0000
1003
0000
0010
0100
,  // measure 38
0002
0000
0000
0000
0000
1000
1003
0000
,  // measure 39
0001
0010
0100
1000
0100
0001
0100
1000
,  // measure 40
0002
0000
0000
0010
0023
0000
0000
0100
,  // measure 41
0230
0000
0000
1000
1300
0001
0010
0100
,  // measure 42
2000
0000
0000
0001
3001
0000
1001
0000
,  // measure 43
0001
0010
0100
1000
0100
0001
0100
1000
,  // measure 44
0002
0000
0000
0100
0203
0000
0000
0010
,  // measure 45
0310
0000
2000
0000
3001
0000
0100
0010
,  // measure 46
2000
0000
0001
0000
3001
0010
0100
0000
,  // measure 47
1001
0000
0000
1000
0000
0000
1000
0000
0000
0100
0000
0000
0010
0000
0001
0000
,  // measure 48
1001
0000
0000
0001
0000
0000
0001
0000
0000
0010
0000
0000
0100
0000
1000
0000
,  // measure 49
1001
0000
0000
1000
0000
0000
1000
0000
0000
0010
0000
0000
0100
0000
0001
0000
,  // measure 50
1000
0100
0010
0001
1000
0100
0010
0001
,  // measure 51
1000
0000
0000
1001
0000
0000
1001
0000
0000
1000
0000
0000
0010
0000
0100
0000
,  // measure 52
0010
2000
3002
0103
,  // measure 53
1001
0000
0000
1001
0000
0000
1001
0000
0000
0001
0000
0000
0100
0000
0010
0000
,  // measure 54
0100
0000
0000
0001
0000
0000
0010
0000
0000
0100
0000
0000
1000
0000
0000
0000
,  // measure 55
1001
0000
0000
1001
0000
0000
1001
0000
0000
1000
0000
0000
0010
0000
0100
0000
,  // measure 56
0010
0000
2000
0000
3002
0000
1003
0100
,  // measure 57
0010
0000
0001
0010
0100
0000
0100
0000
,  // measure 58
1002
0000
0000
0000
,  // measure 59
1000
1000
1000
1003
,  // measure 60
0001
0100
1000
0100
0001
0000
1000
0100
,  // measure 61
0001
0100
1000
0000
0100
1000
0010
0100
,  // measure 62
0001
0010
0100
1000
0001
0010
0100
1000
,  // measure 63
0001
0100
1000
0100
0001
0010
0100
0010
,  // measure 64
0001
0100
1000
0100
0001
0000
1000
0100
,  // measure 65
0001
0100
1000
0000
0100
1000
0010
0100
,  // measure 66
0001
0100
1000
0100
0001
0010
0100
1000
,  // measure 67
0001
1001
0000
0000
1000
0100
0001
0100
,  // measure 68
1000
0100
0010
0001
1000
1001
0000
0000
,  // measure 69
0010
0000
0110
0110
0000
0000
0000
0000
;

//---------------dance-single - ----------------
#NOTES:
     dance-single:
     :
     Challenge:
     9:
     0.650,0.757,0.401,0.068,0.311: // measure 1
1000
0000
0000
1000
0001
0000
0010
0000
0100
0000
0000
0000
1000
0000
0000
1000
,  // measure 2
0001
0010
0100
0000
1000
0100
0001
0100
,  // measure 3
1000
0000
0000
1000
0100
0000
0000
0100
0001
0000
0000
0001
1000
0000
0000
0000
,  // measure 4
0001
0000
0000
0001
0100
0000
0000
0100
1000
0000
0000
1000
0001
0000
0000
0000
,  // measure 5
1000
0000
0000
1000
0001
0000
0010
0000
0100
0000
0000
0000
1000
0000
0000
1000
,  // measure 6
0001
0010
0100
0000
1000
0100
0001
0100
,  // measure 7
1000
0000
0000
1000
0100
0000
0000
0100
0001
0000
0000
0001
1000
0000
0010
0000
,  // measure 8
0110
0110
0000
0000
0000
1001
0000
0000
,  // measure 9
0110
0000
0010
0100
0010
0000
0010
1000
,  // measure 10
0010
0000
0010
0100
0001
0010
0100
1000
,  // measure 11
0001
0000
0100
0001
1000
0000
1001
0000
,  // measure 12
1000
0001
0100
1000
0100
0001
1000
1000
,  // measure 13
0010
0000
0010
0100
0010
0000
0010
1000
,  // measure 14
0010
0000
0110
0000
1001
0000
0010
0100
,  // measure 15
2000
0000
0000
0000
3010
0100
0002
0000
,  // measure 16
0013
0100
1000
0100
0001
1000
1000
0001
,  // measure 17
0100
0000
0100
0010
0100
0000
0100
0001
,  // measure 18
0100
0000
0100
0001
1000
0100
0010
0001
,  // measure 19
1000
0000
0010
1000
0001
0000
1001
0000
,  // measure 20
0001
1000
0100
0001
0100
1000
0001
0001
,  // measure 21
0100
0000
0100
0010
0100
0000
0100
0001
,  // measure 22
0100
0000
0110
0000
1001
0000
0010
1000
,  // measure 23
0002
0000
0000
0000
0103
0010
1000
0000
,  // measure 24
0001
0000
0001
0000
1000
0010
1000
0010
1000
0000
0100
0000
0010
0000
0001
0000
,  // measure 25
0100
0010
0100
0010
0100
0010
0100
0000
0001
0000
0100
0000
0010
0000
1000
0000
,  // measure 26
0001
0000
0001
0000
1000
0100
1000
0100
1000
0000
0001
0000
0010
0000
0100
0000
,  // measure 27
1000
0001
1000
0001
1000
0001
1000
0000
0100
0000
0010
0000
0001
0000
1000
0000
,  // measure 28
0001
0000
0001
0000
0100
0001
0100
0001
0100
0000
0010
0000
1000
0000
0010
0100
,  // measure 29
0010
0100
0010
0100
0010
0100
0010
0000
0000
0000
1000
0100
1000
0100
1000
0000
,  // measure 30
0001
0000
0001
0000
0100
0010
0100
0000
0010
0100
0010
0100
0010
0100
0010
0100
,  // measure 31
0010
2002
0000
3003
,  // measure 32
0110
0000
0100
0001
0100
0000
0100
0010
,  // measure 33
0100
0000
0100
0001
0010
0100
1000
0001
,  // measure 34
0100
0000
0100
0010
0100
0000
1001
0000
,  // measure 35
0001
0000
0100
0000
1000
0000
0100
0000
0001
0100
0001
0000
1000
0000
1000
0000
,  // measure 36
0010
0000
0010
0100
0010
0000
0010
1000
,  // measure 37
0010
0000
0110
0000
1001
0000
0100
0001
,  // measure 38
2000
0000
0001
0000
3001
0100
1000
0000
,  // measure 39
0100
0000
0001
0000
1000
0000
0100
0000
0010
0001
0010
0000
0001
0000
0001
0000
,  // measure 40
0110
0000
0010
0100
0010
0000
0010
1000
,  // measure 41
0010
0000
0010
1000
0100
0010
0001
1000
,  // measure 42
0010
0000
0010
0100
0010
0000
1001
0000
,  // measure 43
1000
0000
0100
0000
0001
0000
0100
0000
1000
0100
1000
0000
0001
0000
0001
0000
,  // measure 44
0110
0000
0010
0100
0010
0000
0010
1000
,  // measure 45
0010
0000
0110
0000
1001
0000
0100
0010
,  // measure 46
0001
0000
1000
0001
1000
0000
0010
0100
0010
0100
0010
0100
0010
0000
0000
0000
,  // measure 47
1010
0000
0000
0010
0000
0000
1010
0000
0000
0010
0000
0000
0010
0000
0100
0000
,  // measure 48
0101
0000
0000
0100
0000
0000
0101
0000
0000
0100
0000
0000
0100
0000
0010
0000
,  // measure 49
1010
0000
0000
0010
0000
0000
0110
0000
0000
0010
0000
0000
0010
0000
0100
0000
,  // measure 50
0001
0100
1000
0100
0001
0010
1000
0010
,  // measure 51
0011
0000
0000
1010
0000
0000
1001
0000
0000
1000
0000
0000
1000
0000
0001
0000
,  // measure 52
0100
0000
0101
0000
1001
0000
1000
0010
,  // measure 53
1010
0000
0000
0011
0000
0000
0010
0000
0100
0000
0010
0000
1000
0000
0001
0000
,  // measure 54
0100
0000
0000
1000
0000
0000
0100
0000
0000
0001
0000
0000
0100
0000
0001
0000
,  // measure 55
0101
0000
0000
1100
0000
0000
0100
0000
0000
0100
0000
0000
0100
0000
0001
0000
,  // measure 56
1000
0000
1100
0000
1001
0000
0001
0100
,  // measure 57
0101
0000
1000
0100
1100
0000
0100
0000
,  // measure 58
2002
0000
0000
3003
,  // measure 59
0001
1000
0001
1001
,  // measure 60
0001
0000
1000
0001
1000
0000
0100
0000
0010
0000
0000
0000
0001
0000
1000
0001
,  // measure 61
1000
0100
0010
0000
0001
0100
1000
0100
,  // measure 62
0001
0000
0100
0001
0100
0000
0001
0100
0001
0000
1000
0100
1000
0000
0001
0000
,  // measure 63
1000
0000
0010
1000
0010
0000
1000
0010
1000
0000
0001
0010
0001
0010
0001
0000
,  // measure 64
1000
0000
0001
1000
0001
0000
0010
0000
0100
0000
0000
0000
1000
0000
0001
1000
,  // measure 65
0001
0010
0100
0000
1000
0100
0001
0100
,  // measure 66
1000
0000
0100
1000
0100
0000
1000
0100
1000
0000
0001
0100
0001
0000
1000
0000
,  // measure 67
0110
0000
0110
0000
0000
0000
0000
0000
0001
0000
0010
0001
0010
0000
0001
0010
,  // measure 68
0001
0000
1000
0010
1000
0000
0001
0000
0110
0000
0110
0000
0000
0000
0000
0000
,  // measure 69
1000
0000
1001
1001
0000
0000
0000
0000
;

//---------------dance-single - ----------------
#NOTES:
     dance-single:
     :
     Beginner:
     1:
     0.078,0.145,0.128,0.000,0.000:
1000
0000
0000
0000
,
0000
0000
0000
0000
,
1000
0000
0000
0000
,
0000
0000
0000
0000
,
0001
0000
0000
0000
,
0000
0000
0000
0000
,
0001
0000
0000
0000
,
1001
0000
0000
0000
,
0100
0000
0000
0000
,
0000
0000
0000
0000
,
0010
0000
0000
0000
,
0000
0000
0000
0000
,
0100
0000
0000
0000
,
0000
0000
0000
0000
,
0001
0000
0000
0000
,
0001
0000
0000
0000
,
1001
0000
0000
0000
,
0000
0000
0000
0000
,
0010
0000
0000
0000
,
0000
0000
0000
0000
,
0100
0000
0000
0000
,
0000
0000
0000
0000
,
0010
0000
0000
0000
,
0010
0000
0000
0000
,
0000
0000
0000
0000
,
0110
0000
0000
0000
,
0000
0000
0000
0000
,
1000
0000
0000
0000
,
0000
0000
0000
0000
,
1001
0000
0000
0000
,
0000
1001
0000
0000
,
0001
0000
0000
0000
,
0000
0000
0000
0000
,
1000
0000
0000
0000
,
0000
0000
0000
0000
,
0001
0000
0000
0000
,
0001
0000
0000
0000
,
1000
0000
0000
0000
,
1000
0000
0000
0000
,
1001
0000
0000
0000
,
0000
0000
0000
0000
,
0001
0000
0000
0000
,
0000
0000
0000
0000
,
1001
0000
0000
0000
,
0000
0000
0000
0000
,
1000
0000
0000
0000
,
0010
0000
0000
0000
,
0010
0000
0000
0000
,
0010
0000
0000
0000
,
0010
0000
0000
0000
,
0110
0000
0000
0000
,
0000
0000
0000
0000
,
1001
0000
0000
0000
,
0000
0000
0000
0000
,
0110
0000
0000
0000
,
0000
0000
0000
0000
,
1001
0000
0000
0000
,
1000
0000
0000
0000
,
0000
0000
0000
0000
,
1001
0000
0000
0000
,
0001
0000
0000
0000
,
1000
0000
0000
0000
,
0001
0000
0000
0000
,
0100
0000
0000
0000
,
0010
0000
0000
0000
,
0100
0000
0000
0000
,
0110
0000
0001
0000
,
0000
0000
1001
0000
,
0000
1001
0000
0000
;
