#TITLE:Take Me Higher;
#SUBTITLE:;
#ARTIST:Sota Fujimori feat. Sachi;
#TITLETRANSLIT:;
#SUBTITLETRANSLIT:;
#ARTISTTRANSLIT:;
#CREDIT:DigiMindAxel;
#BANNER:Take Me Higher.png;
#BACKGROUND:Take Me Higher-bg.png;
#LYRICSPATH:;
#CDTITLE:beatmania IIDX.png;
#MUSIC:Take Me Higher.mp3;
#OFFSET:-8.740;
#SAMPLESTART:75.387;
#SAMPLELENGTH:12.000;
#SELECTABLE:YES;
#BPMS:0.000=144.000;
#STOPS:;
#BGCHANGES:;

//---------------dance-single - ----------------
#NOTES:
     dance-single:
     :
     Easy:
     3:
     0.199,0.234,0.131,0.082,0.000:
0001
0001
1000
0000
,
0020
0000
0230
0000
,
0301
0001
1000
0000
,
0200
0000
0310
0000
,
1001
0000
0001
0000
,
1000
0001
1000
0000
,
1001
0000
1000
0000
,
0001
1000
0001
0000
,
0110
0000
0100
0000
,
0010
0100
0010
0000
,
0110
0000
0010
0000
,
0100
0010
0100
0000
,
1001
0000
0001
0000
,
0010
0001
0010
0000
,
1001
0000
1000
0000
,
0100
1000
0100
0000
,
1001
0000
0001
0000
,
0100
0001
0100
0000
,
1001
0000
1000
0000
,
0010
1000
0010
0000
,
0110
0000
0000
0000
,
0100
0000
0000
0000
,
0100
0000
0000
0000
,
0100
0000
0000
0000
,
1001
0000
0001
0000
,
0001
0000
1000
0000
,
1000
0000
0001
0000
,
0010
0000
0100
0000
,
1000
1000
0001
0000
,
0100
0000
0010
0000
,
0100
0100
0010
0000
,
1000
0000
0001
0000
,
0010
0010
0100
0000
,
1000
0000
0001
0000
,
1000
0000
0010
0000
,
0100
0010
0100
0000
,
2002
0000
0000
0000
,
0000
0000
0000
0000
,
3003
0000
0000
0000
,
0200
0000
0000
0310
,
1001
0000
1000
0001
,
1000
0000
0000
0010
,
0100
0010
0000
1000
,
0000
0001
0000
0010
,
0001
1000
0001
0000
,
0100
0000
0010
0000
,
1000
0100
1000
0000
,
0010
0100
0010
0000
,
0110
0000
1000
0000
,
0001
0010
0001
0100
,
0010
0000
0010
0000
,
0100
0001
0010
0000
,
0001
0000
1000
0000
,
0100
1000
0010
0000
,
0100
0010
0100
0000
,
2002
0000
3003
0000
,
1001
0001
0100
0000
,
0010
0000
0100
0000
,
0010
0010
1000
0000
,
0100
0000
0010
0000
,
0001
0001
0010
0000
,
0100
0000
1000
0000
,
0100
0100
1000
0000
,
0220
0000
0000
0330
;

//---------------dance-single - ----------------
#NOTES:
     dance-single:
     :
     Medium:
     6:
     0.427,0.396,0.196,0.367,0.000:
2000
0000
3001
0010
0100
0000
1000
0000
,
0200
0000
0302
0000
,
0203
0000
1300
0010
0100
0000
0001
0000
,
0110
0000
0000
0000
0100
0010
0100
0000
,
2002
3003
1000
0010
,
0100
0000
0001
0100
0002
0000
1003
0000
,
2002
3003
0001
0010
,
0100
0000
1000
0100
2000
0000
3001
0000
,
0220
0330
0010
0100
,
0001
0000
0010
0100
0020
0000
0031
0000
,
0220
0330
0100
0010
,
1000
0000
0100
0010
0200
0000
1300
0000
,
0001
0100
0001
0000
1000
0100
0010
0000
,
0100
1000
0100
0000
0010
0001
0001
0000
,
1000
0010
1000
0000
0001
0010
0100
0000
,
0010
0001
0010
0000
0100
1000
1000
0000
,
0010
0100
0010
0000
1000
0010
0100
0000
,
0001
0100
1000
0000
0100
0000
0001
0000
,
0010
0100
0010
0000
0001
0010
0100
0000
,
1000
0000
0010
0000
0001
0010
1000
0000
,
0110
0010
0010
0010
,
0100
0100
0100
0100
,
0010
0010
0010
0010
,
0100
0100
0100
0100
,
0002
0000
1003
0000
0001
1000
0002
0000
,
1003
0000
0001
1000
0002
0000
1003
0000
,
0010
0100
0000
0010
0100
0010
0000
0000
,
1000
0001
1000
0000
0010
0010
0100
0000
,
1001
0010
0200
1300
,
0010
0100
0010
0100
0002
0000
1003
0000
,
1001
0100
0020
0031
,
1000
0010
0100
0000
0010
0100
0010
0000
,
1001
0100
0020
0031
,
0100
0010
0100
0010
2000
0000
3001
0000
,
1001
0010
0200
1300
,
0001
0100
0010
0000
0100
0010
0100
0000
,
1001
0000
0000
2000
0000
3000
0000
1000
,
0000
0000
0000
2000
0000
3000
0000
0000
,
0001
0000
0000
0001
0000
0001
0000
0002
,
0000
1003
0000
1000
0000
1000
0110
0000
,
1002
0000
0203
0301
,
1000
0100
0010
0000
0001
1000
0001
0000
,
0110
1000
0110
0002
,
1000
0000
1003
0000
0010
0100
0010
0000
,
2001
0000
3002
0103
,
0001
0100
0010
0000
1000
0001
1000
0000
,
0110
0001
0110
1000
,
0100
0010
0001
1000
0100
0000
0000
0000
,
0220
0030
0302
1000
,
1003
0010
0100
0000
0010
0100
0010
0000
,
0110
0001
0110
1000
,
0010
0100
0010
1000
0001
0000
0001
0000
,
0220
0300
2030
0001
,
3001
0000
1000
0010
0100
0000
0010
0100
,
0010
0000
1000
0100
0010
0001
1000
0000
,
2002
0000
3003
0000
,
0001
0000
0100
0000
1000
0100
0001
1000
,
0002
0000
0103
0000
0010
0100
0010
0000
,
1000
0000
0100
0000
0001
0100
1000
0001
,
2000
0000
3010
0000
0100
0010
0100
0000
,
0001
0000
0010
0000
1000
0010
0001
0000
,
0010
0100
0020
0000
0031
1000
0001
0000
,
1000
0000
0010
0000
0001
0010
1000
0000
,
0110
0000
0000
0000
0010
0010
0100
0020
,
0000
0000
0000
0030
;

//---------------dance-single - ----------------
#NOTES:
     dance-single:
     :
     Hard:
     8:
     0.566,0.528,0.253,0.457,0.257: // measure 1
0001
0100
1000
0100
0002
0000
1003
0000
,  // measure 2
0010
0000
0000
0100
0001
0000
0000
0000
0010
0000
0100
0000
1000
0000
0000
0000
,  // measure 3
0001
0100
1000
0100
0002
0000
1003
0000
,  // measure 4
0110
0000
0000
0000
0100
0010
0110
0000
,  // measure 5
2002
0000
0000
3003
0000
0000
1000
0000
0020
0000
0000
0100
0000
0000
0230
0000
,  // measure 6
0000
0301
0010
0100
0002
0000
0103
0000
,  // measure 7
1000
0000
0000
0010
0000
0000
0100
0000
0010
0000
0000
1000
0000
0000
0001
0000
,  // measure 8
0000
0100
0001
0010
0200
0000
0310
0000
,  // measure 9
2002
0000
0000
3003
0000
0000
0001
0000
0200
0000
0000
0010
0000
0000
0320
0000
,  // measure 10
0000
1030
0100
0010
2000
0000
3010
0000
,  // measure 11
0001
0000
0000
0100
0000
0000
0010
0000
0100
0000
0000
0001
0000
0000
1000
0000
,  // measure 12
0100
0010
0100
1000
0020
0000
0130
0000
,  // measure 13
0220
0000
0000
0330
0000
0000
0010
0000
0200
0000
0000
0001
0000
0000
0301
0000
,  // measure 14
0000
1000
0100
0010
0100
0000
1100
0000
,  // measure 15
0110
0000
0000
0100
0000
0000
0001
0000
1000
0000
0000
0010
0000
0000
0001
0000
,  // measure 16
0000
0010
0100
0001
0010
0100
1000
0000
,  // measure 17
0220
0000
0000
0330
0000
0000
0010
0000
0100
0000
0000
0001
0000
0000
0010
0000
,  // measure 18
0100
0010
0001
1000
1010
0000
0110
0000
,  // measure 19
0001
0000
0000
0010
0000
0000
1000
0000
0010
0000
0000
0001
0000
0000
0100
0000
,  // measure 20
0000
0010
1000
0100
0010
0100
1000
0010
,  // measure 21
0210
0000
0000
0000
0302
0000
0000
0000
0203
0000
0000
0000
0301
0000
1000
0020
,  // measure 22
0000
0000
1030
0000
0000
1000
0000
0010
0100
0000
0100
0000
0001
0000
0001
0000
,  // measure 23
2000
0000
0000
0000
3200
0000
0000
0000
2300
0000
0000
0000
3001
0000
0100
0020
,  // measure 24
0000
0000
0130
0000
0000
0101
0000
0000
0010
0000
0100
0000
1000
0000
0001
0000
,  // measure 25
0200
0000
0301
1000
0100
0010
0000
2002
,  // measure 26
0000
3003
0000
1000
0100
0010
0001
0100
,  // measure 27
0010
0100
0010
0000
0000
0000
0100
0000
0000
0000
0110
0000
0000
0000
1000
0000
,  // measure 28
0000
0000
0100
0000
0010
0000
0001
0100
0000
0100
0000
0000
0010
0000
0100
0000
,  // measure 29
0110
0000
0000
0000
0100
0000
1000
0000
0002
0000
0000
0000
0103
0000
0010
0100
,  // measure 30
0010
1000
0001
0010
0100
1000
0001
0000
,  // measure 31
0020
0000
0000
0000
0230
0000
0000
0000
0320
0000
0000
0000
0031
0000
1000
0100
,  // measure 32
1000
0001
0010
1000
0010
0001
0100
0100
,  // measure 33
0010
0000
1001
0000
0010
0001
2000
0000
,  // measure 34
3010
0000
0100
0010
0100
0000
0001
0000
1000
0000
0010
0000
0100
0000
0001
0000
,  // measure 35
0020
0000
0130
0000
0102
0000
1003
0100
,  // measure 36
0001
0000
0100
0000
1000
0000
0001
0000
0001
0000
0100
0000
0010
0100
0010
0000
,  // measure 37
1001
0000
0000
1000
1000
1000
0000
0110
,  // measure 38
0000
0000
0000
0001
0001
0001
0000
0000
,  // measure 39
0100
0010
0000
0000
0000
0000
1000
0001
0000
0000
0001
1000
0000
0000
0001
1000
,  // measure 40
0001
1000
0001
0000
0000
0000
0100
0010
0000
0000
0100
0010
0100
0000
0000
0000
,  // measure 41
2001
0000
0000
0000
3100
0000
0010
0000
0200
0000
0000
1000
0000
0000
1300
0000
,  // measure 42
0001
0000
0000
0010
0000
0000
0100
0000
0000
0000
0001
0000
0100
0000
1000
0000
,  // measure 43
0001
0000
0101
0000
0001
0100
1000
0100
,  // measure 44
0001
0010
0100
1000
0100
0010
0100
0000
,  // measure 45
1002
0000
0000
0000
0103
0000
0010
0000
0200
0000
0000
0001
0000
0000
0301
0000
,  // measure 46
1000
0000
0000
0100
0000
0000
0010
0000
0000
0000
1000
0000
0010
0000
0001
0000
,  // measure 47
0000
0010
0100
1000
0001
0001
1000
0100
,  // measure 48
0001
0100
1000
0001
0100
0000
0010
0100
,  // measure 49
0210
0000
0000
0000
0000
0000
0301
0000
1100
0000
0000
1000
0000
0000
1000
0000
,  // measure 50
0001
0000
0000
0100
0000
0000
1000
0000
0000
0000
0100
0000
0010
0000
1000
0000
,  // measure 51
1001
0000
0110
0000
1001
0100
0010
0002
,  // measure 52
0000
1003
0100
0001
0100
1000
0010
0100
,  // measure 53
0120
0000
0000
0000
0000
0000
1030
0000
0101
0000
0000
0001
0000
0000
0001
0000
,  // measure 54
1000
0000
0000
0010
0000
0000
0100
0000
0000
0000
1000
0000
0100
0000
0001
0000
,  // measure 55
0000
0010
0100
1000
1000
0001
0100
0010
,  // measure 56
0220
0000
0000
0000
0000
0000
0000
0330
0000
0000
0100
0010
0100
0000
0000
0000
,  // measure 57
0001
0100
0001
0000
1000
0000
0100
0000
0001
0000
0000
0100
0000
0000
1000
0000
,  // measure 58
0010
0100
0000
0100
0002
0000
0000
0000
0103
0010
0000
1000
0000
0100
0000
0000
,  // measure 59
1000
0100
1000
0000
0001
0000
0010
0000
1000
0000
0000
0010
0000
0000
0001
0000
,  // measure 60
0100
0010
0000
0010
2000
0000
0000
0000
3010
0000
0100
0000
0001
1000
0000
0000
,  // measure 61
0100
1000
0100
0000
0010
0000
0010
0000
0002
0000
0000
0203
0000
0000
0310
0000
,  // measure 62
1000
0001
0000
0001
0200
0000
0000
0000
0310
1000
0000
0100
0000
0010
0000
0000
,  // measure 63
0001
0100
0001
0000
1000
0000
1000
0000
0200
0000
0000
0320
0000
0000
0130
0000
,  // measure 64
2002
0000
0000
0000
0000
0000
3003
0000
0001
0000
0001
0000
0010
0100
2000
0000
,  // measure 65
0000
0000
0000
3000
;

//---------------dance-single - ----------------
#NOTES:
     dance-single:
     :
     Beginner:
     1:
     0.103,0.154,0.098,0.000,0.000:
1000
0000
0000
0000
,
1000
0000
0000
0000
,
1000
0000
0000
0000
,
1000
0000
0000
0000
,
1001
0000
0000
0000
,
0000
0000
0000
0000
,
0001
0000
0000
0000
,
0000
0000
0000
0000
,
1000
0000
0000
0000
,
0000
0000
0000
0000
,
0001
0000
0000
0000
,
0000
0000
0000
0000
,
0110
0000
0000
0000
,
0100
0000
0000
0000
,
0010
0000
0000
0000
,
0100
0000
0000
0000
,
0010
0000
0000
0000
,
0010
0000
0000
0000
,
0001
0000
0000
0000
,
1000
0000
0000
0000
,
1001
0000
0000
0000
,
0000
0000
0000
0000
,
0001
0000
0001
0000
,
0001
0000
0001
0000
,
1001
0000
0000
0000
,
1000
0000
0000
0000
,
1000
0000
0000
0000
,
1000
0000
1000
0000
,
1001
0000
0000
0000
,
1000
0000
0000
0000
,
0001
0000
1000
0000
,
0001
0000
0000
0000
,
0100
0000
0000
0000
,
0010
0000
0000
0000
,
0100
0000
0010
0000
,
0100
0000
0000
0000
,
1001
0000
0000
0000
,
0000
0000
0000
0000
,
0001
0000
0000
0000
,
0000
0000
0000
0000
,
1001
0000
0000
0000
,
1000
0000
0000
0000
,
0001
0000
1000
0000
,
0001
0000
0000
0000
,
0110
0000
0100
0000
,
0100
0000
0000
0000
,
0010
0000
0100
0000
,
0010
0000
0000
0000
,
0110
0000
0010
0000
,
0010
0000
0000
0000
,
0100
0000
0010
0000
,
0100
0000
0000
0000
,
0001
0000
1000
0000
,
0001
0000
0000
0000
,
0100
0000
0100
0000
,
0110
0000
0000
0000
,
1001
0000
0001
0000
,
0001
0000
0001
0000
,
0010
0000
0010
0000
,
0010
0000
0010
0000
,
0100
0000
0100
0000
,
0100
0000
0100
0000
,
1000
0000
1000
0000
,
1001
0000
0000
0000
;
