#TITLE:突確全回転!;
#SUBTITLE:;
#ARTIST:マロンちゃん;
#TITLETRANSLIT:TOTSUKAKU ZENKAITEN!;
#SUBTITLETRANSLIT:;
#ARTISTTRANSLIT:MARON-CHAN;
#CREDIT:DigiMindAxel;
#BANNER:TOTSUKAKU ZENKAITEN!.png;
#BACKGROUND:TOTSUKAKU ZENKAITEN!-bg.png;
#LYRICSPATH:;
#CDTITLE:pop'n music.png;
#MUSIC:TOTSUKAKU ZENKAITEN!.mp3;
#OFFSET:-8.140;
#SAMPLESTART:21.612;
#SAMPLELENGTH:12.000;
#SELECTABLE:YES;
#BPMS:0.000=196.000;
#STOPS:;
#BGCHANGES:;

//---------------dance-single - ----------------
#NOTES:
     dance-single:
     :
     Hard:
     9:
     0.644,0.620,0.158,0.297,0.035: // measure 1
1000
0100
0000
1000
0000
0001
0100
0001
,  // measure 2
1000
0000
1000
0000
1000
0100
0000
1000
,  // measure 3
0000
0001
0100
0001
1000
0000
1000
0010
,  // measure 4
0000
0100
0000
0001
0010
0001
1000
0000
,  // measure 5
1000
0000
0001
0010
0100
1000
0001
0010
,  // measure 6
0100
0000
0100
0000
1001
0000
1000
0100
,  // measure 7
1000
0001
0101
0110
,  // measure 8
0001
0000
0001
0100
0001
0000
1100
0000
,  // measure 9
0110
0000
1000
0000
1000
0010
0100
0000
,  // measure 10
0110
0000
0101
0000
0001
0000
0001
0100
,  // measure 11
0001
0010
0100
1000
0010
0010
0100
0100
,  // measure 12
0001
0001
1000
0010
0000
0100
0001
1000
,  // measure 13
0100
1000
0001
0000
1000
1000
0001
0100
,  // measure 14
0000
0010
1000
0001
0010
0001
1000
0100
,  // measure 15
1000
0001
0001
0010
0100
1000
1000
0100
,  // measure 16
0010
0001
0100
0010
1000
0100
0001
0100
,  // measure 17
1000
0000
1000
0000
1001
0000
1000
0100
,  // measure 18
0010
0001
0200
0000
0000
0000
0301
0000
,  // measure 19
0001
0100
0020
0000
1000
0000
1030
0000
,  // measure 20
0000
0001
1000
0100
0010
0001
2000
0000
,  // measure 21
0000
3010
0200
0000
0001
0000
0000
0301
,  // measure 22
1000
1001
0100
0010
,  // measure 23
0001
0000
0001
0000
1001
0000
0010
0100
,  // measure 24
1000
0001
0200
0000
0001
0000
0301
0000
,  // measure 25
0001
1000
0020
0000
0100
0000
0130
0000
,  // measure 26
0001
1000
0100
0010
0001
1000
0020
0000
,  // measure 27
0100
0000
0130
0000
0001
1000
0100
0000
,  // measure 28
1001
0000
0100
0000
0010
0000
0001
1000
,  // measure 29
0010
0100
0001
0010
0200
0000
0000
0000
,  // measure 30
1300
0020
0000
0130
,  // measure 31
0002
0000
0013
0200
,  // measure 32
0000
0310
2000
0000
,  // measure 33
3001
0200
0000
0310
,  // measure 34
1000
0000
0001
0010
0100
1000
0002
0000
,  // measure 35
0000
0000
1003
1000
,  // measure 36
0001
0001
0100
0100
,  // measure 37
0010
0010
1000
1000
,  // measure 38
0001
0001
0010
0100
,  // measure 39
1000
0000
0001
1000
0002
0000
0000
0100
,  // measure 40
0103
0001
1000
2200
,  // measure 41
0000
0000
3300
0000
1001
0000
1000
0010
,  // measure 42
0000
0100
0000
0010
1000
0100
0010
0000
,  // measure 43
0100
1000
0001
0010
1000
0010
0001
0000
,  // measure 44
2000
0000
3001
0000
0100
0001
0010
0100
,  // measure 45
0010
0001
0100
0001
0010
0100
1000
0100
,  // measure 46
0001
0000
0000
0100
0000
0000
1000
0000
0010
0000
0100
0000
,  // measure 47
1001
0000
0001
0100
0000
0010
0000
0100
,  // measure 48
0001
0010
0100
0000
0010
0001
1000
0100
,  // measure 49
0001
0100
1000
0000
0002
0000
1003
0000
,  // measure 50
0010
1000
0100
0010
0100
1000
0001
0010
,  // measure 51
0100
1000
0001
0100
0000
0100
0010
0000
,  // measure 52
0010
1000
0100
0010
0001
0000
1000
0010
,  // measure 53
0000
0100
0000
0001
0100
0010
1000
0000
,  // measure 54
0100
0010
0001
0100
1000
0100
0002
0000
,  // measure 55
0103
0000
0010
0000
1000
0100
0001
0100
,  // measure 56
1000
0001
1000
0010
0001
0010
1000
0001
,  // measure 57
0100
0000
0000
0000
0000
0000
0001
0000
0000
1000
0000
0000
0001
0000
0000
0000
0010
0000
0000
0000
0100
0000
0000
0000
,  // measure 58
1000
0000
0001
0000
0001
0000
1000
0000
0010
0100
0010
0000
1000
0000
1000
0000
,  // measure 59
0001
0100
0010
0100
0001
0010
1000
0010
,  // measure 60
0001
0000
1000
0000
0001
0000
0100
0000
1000
0000
0100
0000
0000
0000
0001
1000
,  // measure 61
0001
0000
0010
0000
0100
0000
1000
0000
0010
0000
0001
0000
0010
0000
1000
0001
,  // measure 62
1000
0010
0200
0000
0000
0000
0000
0000
,  // measure 63
0020
0000
0000
0000
0330
0000
1000
0100
,  // measure 64
0001
0100
1000
0100
0001
0000
0100
0000
,  // measure 65
1000
0000
0001
0010
1000
0010
0001
0010
,  // measure 66
1000
0000
0110
0000
0001
0100
1000
0100
,  // measure 67
0001
0100
1000
0000
0100
0000
0001
0000
,  // measure 68
1000
0010
0001
0010
1000
0010
0001
0000
,  // measure 69
0110
0000
1000
0020
0000
0230
0000
0301
,  // measure 70
0100
1000
0100
0000
0010
0000
1000
0200
,  // measure 71
0000
0320
0000
0031
0010
1000
0020
0000
,  // measure 72
0031
0200
0000
0320
0000
1030
0010
0001
,  // measure 73
0010
0000
0100
0000
0001
0001
0010
0100
,  // measure 74
1000
1000
0001
0000
0002
0000
0003
0000
;

//---------------dance-single - ----------------
#NOTES:
     dance-single:
     :
     Medium:
     7:
     0.469,0.547,0.109,0.208,0.000:
0002
0000
0000
0103
0000
0001
0000
1000
,
0100
0000
0100
0000
2000
0000
0000
3010
,
0000
1000
0001
0000
0100
0000
0001
2000
,
0000
0100
0000
3100
0000
1000
0001
0000
,
0001
0000
0100
0010
0100
0010
0100
0010
,
0100
0000
1001
0010
,
0100
1000
0001
1000
,
0100
0010
0001
1000
,
0001
1000
0010
0100
,
0001
0000
1000
0000
0001
0000
1000
0100
,
1000
0000
0001
0100
0001
0000
1001
0000
,
1000
0000
0010
0100
0000
0010
0100
0000
,
0001
0000
1000
0000
0001
0000
0100
0010
,
0000
0100
0010
0000
1000
0000
0001
0000
,
1000
0010
0100
0000
0001
0100
0010
0000
,
1000
0000
0001
1000
0001
0100
0010
1000
,
0100
0000
1001
0010
,
0100
2000
0000
0000
,
3002
0000
0000
0003
,
0000
1000
0001
0000
0100
0010
0200
0000
,
0000
0000
0310
0000
0000
0000
0000
1000
,
0001
0010
0100
1000
,
0000
0000
1001
0010
,
0100
2000
0000
0000
,
3002
0000
0000
0003
,
0000
1000
0001
0000
0100
0010
0200
0000
,
0000
0310
1000
0001
,
0020
0000
0000
0032
,
0000
0000
1003
0000
,
0100
1000
0000
0010
,
0100
0000
0001
1000
,
0000
1000
0001
0000
,
0010
0001
0000
0100
,
0010
0000
1000
0100
,
0000
0000
1000
0001
,
1000
0001
1000
0001
,
0100
0010
0100
0010
,
0100
0010
1000
0100
,
1000
0100
0010
0001
,
0010
0100
1000
0001
,
0000
0000
0000
0000
1001
0000
0001
1000
,
0000
0100
0000
1000
0000
0001
0100
0000
,
0001
0010
0100
2000
,
3001
0000
0000
0000
1000
0100
1000
0100
,
0010
0000
0010
0000
0001
0010
0001
0010
,
0100
0100
2002
0000
,
3003
0000
1000
0001
0000
0100
0000
0001
,
0000
1000
0100
0000
1000
0000
0100
0000
,
0010
0002
1003
0000
,
0001
0100
0001
0100
0010
0000
1000
0010
,
1000
0010
0110
0000
0000
1001
0000
0000
,
0110
0000
1000
0001
1000
0000
0001
0100
,
0000
0001
0000
1000
0000
0100
1000
0000
,
0010
0100
0010
0000
1000
0000
0001
0000
,
0100
0000
0001
0000
1000
0100
1000
0010
,
0100
0000
0001
0010
0100
0000
1000
0001
,
1000
0001
2002
0000
,
3003
0000
1001
0000
0100
1000
0010
0000
,
0100
0001
0100
0001
1000
0000
0100
1000
,
0100
1000
0001
0100
0001
1000
0000
0001
,
1000
0000
0001
1000
0100
0000
1000
0100
,
0010
0001
0100
0000
0000
0000
0000
0000
,
0100
0000
0000
0100
,
0001
1000
0000
0001
1000
0000
0010
0000
,
0010
0000
0010
0000
1000
0001
0000
1000
,
0001
0000
0100
0000
0100
0000
0001
1000
,
0000
0001
1000
0000
0010
0000
0010
0000
,
0010
0000
1000
0001
0000
1000
0001
0000
,
0100
0000
0200
0000
0000
0001
0000
0301
,
0000
1000
0100
0000
1000
0000
0020
0000
,
0000
1000
0000
1030
0001
0000
0010
0000
,
0200
0000
0000
1000
0000
1300
0000
0001
,
0100
0000
0001
0000
0000
1000
0100
0010
,
0001
1000
0100
0000
0200
0000
0300
0000
;

//---------------dance-single - ----------------
#NOTES:
     dance-single:
     :
     Easy:
     3:
     0.201,0.327,0.059,0.040,0.000:
0002
0000
0000
0000
,
0000
0000
2003
0000
,
0000
0000
0000
3002
,
0000
0000
0000
0000
,
0000
0003
0000
0000
,
0000
0000
1001
0000
,
1000
0000
0001
0000
,
0100
0000
0010
0000
,
0100
0000
0001
0000
,
1000
0000
0001
0000
,
0100
0010
0100
0000
,
0010
0000
0000
0100
0000
0000
0010
0000
,
1000
0000
0001
0000
0100
0000
0000
0010
,
0000
1000
0001
0100
,
0000
0010
0000
0000
0100
0000
0001
0000
,
1000
0100
0010
0001
,
1000
0000
1001
0000
,
0000
0010
0000
0000
,
0100
0000
0000
0000
,
0000
0000
1000
0000
,
0000
0001
0000
0000
,
1000
0000
0000
0010
,
0000
0000
0110
0000
,
0000
0100
0000
0000
,
0100
0000
0000
0000
,
0000
0000
0001
0000
,
0000
1000
0000
0000
,
0001
0000
0000
1000
,
0000
0000
0010
0000
,
0000
0000
0000
0000
,
0010
0000
0000
0000
,
0000
0000
0010
0000
,
0000
0000
0000
0000
,
0010
0000
0000
0000
,
0000
0000
0100
0000
,
0000
0000
0000
0000
,
0010
0000
0000
0000
,
0000
0000
0100
0000
,
0000
0000
0000
0000
,
0100
0000
0000
0000
,
0000
0000
1001
0010
,
0100
1000
0001
1000
,
0001
0000
0000
0000
,
0000
0000
1000
0100
,
0010
0001
1000
0001
,
1000
0010
0100
0000
,
0000
0001
1000
0001
,
1000
0010
0100
0001
,
0010
0100
0000
0000
,
1000
0001
1000
0100
,
0010
0000
0001
0000
0000
1000
0000
0000
,
0001
0000
0000
0100
,
0001
0100
0001
1000
,
0100
0010
0001
1000
,
0000
0000
0010
0100
,
0010
1000
0100
0010
,
0001
1000
0001
0000
,
0000
1001
0010
0100
,
1000
0001
1000
0100
,
0010
0001
1000
0010
,
0100
0010
1000
0100
,
0010
0001
0000
0000
,
0000
0000
0000
1001
,
0000
0000
0000
0000
,
0000
0010
0000
0000
,
0000
0000
0100
0000
,
0000
0000
0000
0000
,
0010
0000
0000
0000
,
0000
1000
0000
0000
,
0000
0000
0000
0100
,
0000
0000
0000
0000
,
0010
0000
0000
0000
,
0000
0000
0002
0000
,
0000
0003
1000
0000
;

//---------------dance-single - ----------------
#NOTES:
     dance-single:
     :
     Beginner:
     1:
     0.076,0.109,0.049,0.000,0.000:
1000
0000
0000
0000
,
0000
0000
1000
0000
,
0000
0000
0000
1000
,
0000
0000
0000
0000
,
0000
1000
0000
0000
,
0000
0000
1001
0000
,
0000
0000
0000
0000
,
0001
0000
0000
0000
,
0000
1000
0000
0000
,
0000
0000
0000
0001
,
0000
0000
0000
0000
,
0100
0000
0000
0000
,
0000
0000
0100
0000
,
0000
0000
0000
0010
,
0000
0000
0000
0000
,
0000
0010
0000
0000
,
0000
0000
0110
0000
,
0000
0000
0000
0000
,
0000
0000
0000
0000
,
0000
0000
0010
0000
,
0000
0000
0000
0000
,
0010
0000
0000
0000
,
0000
0000
1001
0000
,
0000
0000
0000
0000
,
1000
0000
0000
0000
,
0000
0000
1000
0000
,
0000
0000
0000
0000
,
1000
0000
0000
0000
,
0000
0000
0001
0000
,
0000
0000
0000
0000
,
0000
0000
0000
0000
,
0000
0000
0100
0000
,
0000
0000
0000
0000
,
0000
0000
0000
0000
,
0000
0000
0010
0000
,
0000
0000
0000
0000
,
1000
0000
0000
0000
,
0000
0000
0001
0000
,
0000
0000
0000
0000
,
0000
0000
0000
0000
,
0000
0000
1001
0000
,
0000
0000
0000
0000
,
1000
0000
0000
0000
,
0000
0001
0000
0000
,
0000
0000
0000
1000
,
0000
0000
0000
0000
,
0010
0000
0000
0000
,
0000
0000
0100
0000
,
0000
0000
0000
0000
,
0010
0000
0000
0000
,
0000
0110
0000
0000
,
0000
0000
1000
0000
,
0000
0000
0000
0000
,
0001
0000
0000
0000
,
0000
0000
1000
0000
,
0000
0000
0000
0100
,
0000
0000
0000
0000
,
0010
0000
0000
0000
,
0000
0000
0001
0000
,
0000
0000
0000
1000
,
0000
0000
0000
0000
,
0000
1000
0000
0000
,
0000
0000
0000
0010
,
0000
0000
0000
0000
,
0000
0010
0000
0000
,
0000
0000
0000
0010
,
0000
0000
0000
0000
,
0100
0000
0000
0000
,
0000
0100
0000
0000
,
0000
0000
0000
0001
,
0000
0000
0000
0000
,
1000
0000
0000
0000
,
0000
0000
0001
0000
,
0000
0000
0001
0000
;
