#TITLE:TIN-DON-DANCE;
#SUBTITLE:;
#ARTIST:ノーボトム!;
#TITLETRANSLIT:;
#SUBTITLETRANSLIT:;
#ARTISTTRANSLIT:NO BOTTOM!;
#CREDIT:DigiMindAxel;
#BANNER:TIN-DON-DANCE.png;
#BACKGROUND:TIN-DON-DANCE-bg.png;
#LYRICSPATH:;
#CDTITLE:pop'n music.png;
#MUSIC:TIN-DON-DANCE.mp3;
#OFFSET:-7.260;
#SAMPLESTART:17.179;
#SAMPLELENGTH:12.000;
#SELECTABLE:YES;
#BPMS:0.000=145.000;
#STOPS:;
#BGCHANGES:;

//---------------dance-single - ----------------
#NOTES:
     dance-single:
     :
     Easy:
     3:
     0.240,0.273,0.077,0.102,0.000:
1000
0100
0010
0001
,
1000
0100
0010
0001
,
2000
0000
0001
0000
,
3001
0000
0000
0000
,
1001
0000
0000
0000
,
0002
0000
1003
0000
,
0001
0100
0001
0000
,
1000
0010
1000
0010
,
1000
0001
1000
0000
,
0100
1000
0100
0000
,
0010
0001
1000
0001
,
1000
0000
0100
0000
,
0010
0000
0001
0000
,
1000
0001
1000
0001
,
0100
0010
0100
0000
,
0010
0100
0010
0000
,
1000
0100
1000
0000
,
0001
0010
0001
0010
,
0002
0000
1003
0000
,
0200
0000
1300
0000
,
0020
0000
0031
0000
,
0200
0000
0310
0000
,
1000
0001
1000
0000
,
0010
0100
0010
0000
,
1000
0001
1000
0000
,
0010
0100
0010
0000
,
0220
0000
0000
0000
,
0000
0000
0000
0000
,
0000
0000
0000
0000
,
0330
0000
0000
0000
,
0100
0000
0100
0000
,
0100
0000
0100
0000
,
0010
0010
0010
0010
,
0020
0000
0000
0030
,
0110
0100
0010
0100
,
0001
1000
0001
1000
,
0010
0100
0010
0100
,
0001
1000
0001
1000
,
0110
0010
0000
0000
,
1000
0100
0010
0001
,
0110
0100
0000
0000
,
0001
0010
0100
1000
,
0110
0010
0010
0010
,
0100
0100
0100
0100
,
0001
1000
0001
1000
,
0100
0010
0001
1000
,
0020
0000
0000
0000
,
0130
0000
0000
0000
,
0110
0000
0000
0000
,
1001
0010
0100
1000
,
0010
1000
0001
0100
,
0001
0000
0001
0000
,
1000
0100
0010
0001
,
1000
0000
1000
0000
,
0001
0010
0100
1000
,
0001
0000
0001
0000
,
0100
0001
0100
0001
,
1000
0100
1000
0100
,
1000
0000
1000
0000
,
0001
0000
0001
0000
,
1000
0100
0010
0001
,
1000
0100
0010
0001
,
1000
0100
0010
0001
,
0220
0000
0000
0000
,
0330
0000
0000
0000
;

//---------------dance-single - ----------------
#NOTES:
     dance-single:
     :
     Medium:
     6:
     0.406,0.437,0.137,0.196,0.000:
0001
0000
0001
0000
1000
0000
1000
0001
,
0100
0000
0100
0000
0010
0000
0010
1000
,
0002
0000
1000
0000
,
1000
0000
1003
0000
,
2002
0000
0000
3003
,
1000
0001
0000
0100
0010
0100
0100
0000
,
0001
0100
0001
0100
0020
0000
1030
0000
,
0001
1000
0001
0000
0100
0001
0010
0100
,
1000
0020
0000
0100
0000
0000
0130
0000
,
0000
0010
0100
0001
1000
0000
1001
0000
,
0100
0000
0100
0000
0100
0010
0100
0000
,
0001
0000
0100
0000
1000
0100
0001
0000
,
0100
0110
1000
1001
,
1000
0010
1000
0010
0100
0001
0100
0000
,
0001
0010
0001
0010
0100
1000
0100
0000
,
1000
0100
0010
0001
0100
0000
0000
0001
,
1000
0010
0000
1000
0001
0000
0000
0000
,
1000
0001
1000
0001
1000
0001
1000
0000
,
0100
1000
0100
0000
2000
0000
3001
0000
,
0010
0001
0200
0000
0310
0000
1000
0000
,
0001
1000
0001
0000
0100
0010
0100
0000
,
0002
1000
1003
0000
,
0010
0001
0010
0000
0002
0000
1003
0000
,
0100
1000
0020
0000
0130
0000
0001
0000
,
1000
0001
1000
0000
0010
0100
0010
0000
,
2000
0001
3001
0000
,
2001
0000
0001
0000
,
0000
0000
0000
0000
,
3002
0000
0000
0000
,
0000
0000
0000
0000
,
1003
0000
0010
0000
,
0100
0000
0001
0000
,
0100
0100
0100
0100
,
0100
0010
0100
0010
0100
0010
0100
0000
,
0001
0100
0010
0000
0100
0010
0100
0000
,
0001
1001
1000
1001
,
1000
0010
0100
0000
0010
0100
0010
0000
,
1000
1001
0001
1001
,
0110
0000
0100
0100
0100
0000
0000
0001
,
0100
0001
0100
0001
2000
0000
3010
0000
,
0110
0000
0010
0010
0010
0000
0000
1000
,
0010
1000
0010
1000
0002
0000
0103
0000
,
0110
0100
0100
0100
,
0110
0010
0010
0010
,
1000
0001
1000
0001
1000
0001
1000
0000
,
0010
0100
0010
0100
0010
0100
0010
0000
,
0220
0000
0000
0000
,
0330
0000
0000
0000
,
2002
0000
0000
3003
,
1000
0010
1000
0010
0200
0000
0301
0000
,
0100
0001
0010
0000
0100
1000
0100
0000
,
1000
0001
0000
1000
0000
0001
1000
0000
,
0000
0001
0100
0001
2000
0000
3100
0000
,
0010
0000
0100
0000
1000
0001
1000
0001
,
1000
0100
0001
0100
,
1000
0010
0100
0000
0010
0100
0010
0000
,
1000
0010
1000
0010
1000
0010
1000
0000
,
0001
0100
0001
0100
0001
0100
0001
0000
,
0100
0001
1000
0000
0100
0000
1000
0000
,
0010
0100
0000
0001
1000
0000
0001
0000
,
0010
0001
0010
0001
0010
0001
0010
0000
,
0100
1000
0100
1000
0100
1000
0100
0000
,
1000
0001
1000
0001
1000
0001
1000
0000
,
0220
0000
0000
0000
,
0330
0000
0000
0000
;

//---------------dance-single - ----------------
#NOTES:
     dance-single:
     :
     Hard:
     8:
     0.501,0.519,0.128,0.196,0.077:
1000
0000
1000
0000
1000
0000
1000
1000
,
1000
0000
0001
0000
0001
0000
0001
0001
,
0001
0000
0100
0000
0010
1000
0010
0000
,
0100
0100
0100
0100
,
2002
0000
0000
3003
,
0001
0000
0001
0000
0000
0000
0100
0000
0010
0000
1000
0001
1000
0000
0000
0000
,
0001
0010
0100
0010
0001
1000
0100
0000
,
0010
0100
1000
0000
0001
0100
1000
0100
,
0001
1000
0000
0100
0010
0100
1000
0001
,
0000
1000
0100
0010
0001
0000
1001
0000
,
0010
0000
0110
0000
1000
0100
0001
0100
,
1000
0100
0010
0001
0010
0100
1000
0000
,
0010
0000
0110
0000
0001
0100
1000
0100
,
0001
0010
0100
1000
0100
0010
0001
0000
,
0100
0010
1000
0010
0001
0010
1000
0000
,
0010
0100
0001
0010
0200
0000
0000
1300
,
0001
0200
0000
0001
0301
0000
1000
0000
,
0001
0010
0100
1000
0001
0010
0100
1000
,
0001
0000
0100
0000
0001
0000
0000
0000
2000
0000
0000
3100
0000
0000
0001
0000
,
0100
0000
0000
0000
2000
0000
0000
3100
0000
0000
1000
0000
0000
0000
0001
0000
,
1000
0100
0010
0001
0010
0100
0010
0001
,
1000
0000
0000
0010
0000
0000
0200
0000
0000
0000
0301
0000
0000
0000
0000
0000
,
1000
0000
0100
0000
1000
0000
0000
0000
0002
0000
0000
0103
0000
0000
1000
0000
,
0100
0000
0000
0001
0000
0000
0200
0000
0000
0000
0310
0000
0000
0000
0000
0000
,
1000
0001
1000
0100
0010
0100
1000
0001
,
1000
0000
0000
0010
0000
0000
0200
0000
0000
0000
0301
0000
0000
0000
0000
0000
,
1002
0000
1000
0000
,
1000
0000
1000
0000
,
2003
0000
0001
0000
,
0001
0000
0001
0000
,
3002
0000
0203
0000
,
0320
0000
2030
0000
,
3001
1000
0001
1000
,
0001
1000
0001
1000
0001
1000
0001
1000
,
0001
0000
0000
0100
0001
0000
1000
0000
1000
0000
0100
0000
0010
0000
0001
0000
,
1000
0000
0000
0010
1000
0000
0001
0000
0001
0000
0010
0000
0100
0000
1000
0000
,
0001
0000
0000
0010
0001
0000
1000
0000
1000
0000
0100
0000
0010
0000
0001
0000
,
1000
0000
0000
0100
1000
0000
0001
0000
0001
0000
0010
0000
0100
0000
1000
0000
,
0110
0000
0001
0001
1001
0000
0000
1000
,
0100
0000
0010
0000
1000
0000
0100
0000
0010
0000
0000
1001
0000
0000
0001
0000
,
0110
0000
1000
1000
1001
0000
0000
0001
,
0010
0000
0100
0000
0001
0000
0010
0000
0100
0000
0000
1001
0000
0000
1000
0000
,
0010
0100
0010
0100
0001
0010
0001
0010
,
0100
1000
0100
1000
0010
0100
0010
0100
,
0001
0010
0100
1000
0001
0010
0100
1000
,
0100
0010
0001
1000
0100
0010
0001
1000
,
0020
0000
0000
0000
,
0200
0000
0000
0330
,
1001
1000
1001
0001
,
1000
0000
0100
1000
0100
0000
1000
0000
0002
0000
0000
0000
1003
0000
0000
0000
,
0100
0010
0100
0000
1000
0100
0001
0100
,
1000
0010
0100
0010
0100
0010
1000
0001
,
0000
0000
0010
0001
0010
0000
0001
0000
2000
0000
0000
0000
3001
0000
0000
0000
,
0010
0100
0010
0000
0001
0010
1000
0010
,
0001
0100
0010
1000
0100
0010
0001
0000
,
1000
0010
0100
0001
0010
0100
1000
0000
,
0001
0010
1000
0010
0001
0010
0100
0000
,
1000
0100
0001
0100
1000
0100
0010
0001
,
1000
0100
0001
0100
0010
0001
1000
0001
,
0010
0002
0000
1000
1003
0000
1001
0000
,
0001
0000
0010
0000
0100
0000
1000
0000
0001
0000
0100
0010
0100
0000
0001
0000
,
1000
0000
0100
0000
0010
0000
0001
0000
1000
0000
0010
0100
0010
0000
1000
0000
,
0001
0000
0100
0000
1000
0000
0100
0000
0001
0000
1000
0001
1000
0000
0010
0000
,
0220
0000
0000
0000
,
0330
0000
0000
0000
;

//---------------dance-single - ----------------
#NOTES:
     dance-single:
     :
     Challenge:
     9:
     0.603,0.628,0.119,0.085,0.286: // measure 1
0001
0001
0001
0100
0100
0100
0001
0001
,  // measure 2
0001
1000
1000
1000
0010
0010
0010
0000
,  // measure 3
1000
0100
0010
0001
0010
0100
1000
0001
,  // measure 4
0100
0000
0000
0100
0000
0000
0200
0000
0000
0000
0000
0000
0300
0000
0000
0000
,  // measure 5
2002
0000
0000
3003
,  // measure 6
1000
0000
1000
0000
0000
0000
0001
0000
0100
0000
0001
1000
0001
0000
0001
0000
,  // measure 7
1000
0000
0010
0000
0100
0000
0010
1000
0010
0000
0100
0001
0010
0000
0000
0000
,  // measure 8
0100
0000
0010
0000
0001
0000
1000
0000
0010
0000
1000
0010
1000
0000
0100
0010
,  // measure 9
0001
0000
1000
0000
0100
0000
1000
0000
0001
0000
0100
0010
0100
0000
0010
0000
,  // measure 10
0000
0000
1000
0100
1000
0000
0001
0000
0100
0000
0001
0010
0100
0000
0000
0000
,  // measure 11
1000
0000
0100
0000
0001
0000
0100
0000
1000
0000
0010
0100
0010
0000
1000
0001
,  // measure 12
1000
0000
0010
0000
0010
0000
0100
0000
0100
0000
0001
1000
0001
0000
0000
0000
,  // measure 13
0010
0000
0100
0000
1000
0000
0001
0000
0100
0000
0010
0100
0010
0000
1000
0000
,  // measure 14
0001
0000
0100
0001
0100
0000
0001
0100
0001
0000
0010
0100
0010
0000
0001
0000
,  // measure 15
1000
0000
0010
1000
0010
0000
1000
0010
1000
0000
0100
0010
0100
0000
1000
0000
,  // measure 16
0001
0000
0100
0010
0100
0000
0001
0000
0010
0000
0100
0000
1000
0000
0010
0000
,  // measure 17
1000
0001
0010
0100
0010
0001
1000
0000
,  // measure 18
0001
0000
0001
0000
0100
0000
0010
0000
1000
0000
0001
1000
0001
0000
0001
0000
,  // measure 19
1000
0000
0100
0000
1000
0000
0001
0000
0100
0000
0000
0101
0000
0000
1000
0000
,  // measure 20
0100
0000
0000
0000
1000
0000
0000
1100
0000
0000
0001
0000
0001
0000
1000
0000
,  // measure 21
1000
0001
0010
0100
1000
0100
0001
0100
,  // measure 22
1000
0000
0000
0010
0000
0000
0100
0000
0000
0000
0001
0000
1000
0000
1000
0000
,  // measure 23
0001
0000
0100
0000
0001
0000
1000
0000
0100
0000
0000
1100
0000
0000
0001
0000
,  // measure 24
0200
0000
0000
0001
0000
0000
0301
0000
0000
0000
0001
0000
1000
0000
1000
0000
,  // measure 25
0001
0000
0010
0000
0001
0000
1000
0000
0010
0000
0000
1010
0000
0000
0001
0000
,  // measure 26
0020
0000
0000
0001
0000
0000
0031
0000
0000
0000
0001
0000
1000
0000
0100
0000
,  // measure 27
2100
0000
0100
0000
,  // measure 28
0100
0000
3100
0000
,  // measure 29
0020
0000
0001
0000
,  // measure 30
0001
0000
0031
0000
,  // measure 31
0200
0000
1000
0000
,  // measure 32
0010
0000
0301
0000
,  // measure 33
0010
0001
1000
0100
,  // measure 34
1000
0001
1000
0001
1000
0100
0010
0001
,  // measure 35
1000
0000
0100
1000
0100
0000
1000
0000
0100
0000
0010
0001
0010
0000
0100
0000
,  // measure 36
0010
0000
0001
0010
0001
0000
0010
0000
0100
0000
1000
0100
1000
0000
0010
0000
,  // measure 37
0100
0000
0001
0100
0001
0000
0010
0000
0100
0000
1000
0010
1000
0000
0001
0000
,  // measure 38
0010
0000
0100
0010
0100
0000
1000
0000
0100
0000
0010
0100
0010
0000
0001
0000
,  // measure 39
1001
0000
0000
0000
1100
0000
0100
0000
1001
0000
0000
1000
0000
0000
0001
0000
,  // measure 40
0010
0000
0100
0000
1000
0000
0001
0000
0100
0000
0000
0010
0100
0000
0001
0000
,  // measure 41
1000
0000
0000
0000
0101
0000
0100
0000
1001
0000
0000
0001
0000
0000
1000
0000
,  // measure 42
0100
0000
0010
0000
0001
0000
1000
0000
0010
0000
0000
0100
0010
0000
1000
0000
,  // measure 43
0001
0100
0001
0100
1000
0100
1000
0100
,  // measure 44
0001
0100
0010
1000
0010
0010
0110
0000
,  // measure 45
1000
0100
0001
0100
1000
0001
0010
1000
,  // measure 46
0010
0001
0010
0100
1000
0100
0010
0001
,  // measure 47
0100
0100
0100
0100
,  // measure 48
0200
0000
0000
0300
,  // measure 49
1100
0000
0000
0000
0011
0000
0000
0000
0001
0000
1000
0010
1000
0000
1000
0000
,  // measure 50
0001
0000
0010
0001
0010
0000
0001
0010
0100
0000
1000
0000
1000
0000
0001
0000
,  // measure 51
1000
0000
0100
1000
0100
0000
1000
0100
0010
0000
0001
0000
0100
0000
0010
0000
,  // measure 52
1000
0100
0010
0100
1000
0001
0001
1000
,  // measure 53
1000
0000
0010
0100
0010
0000
1000
0100
0010
0000
0001
0000
1000
0000
1000
0000
,  // measure 54
0001
0000
0100
0010
0100
0000
0001
0010
0100
0000
1000
0001
1000
0000
0100
0000
,  // measure 55
0010
0000
0001
0000
0010
0000
0100
0000
0010
0000
0001
1000
0001
0000
1000
0000
,  // measure 56
0100
0000
0010
0000
0100
0000
1000
0000
0010
0000
0100
0001
0010
0000
0100
0000
,  // measure 57
1000
0000
0100
1000
0100
0000
1000
0100
1000
0000
0001
0100
0001
0000
1000
0000
,  // measure 58
0001
0000
0010
0001
0010
0000
0001
0010
0001
0000
1000
0010
1000
0000
0001
0000
,  // measure 59
1000
0000
0010
1000
0010
0000
0100
0000
0001
0000
0010
0000
0100
0000
1000
0010
,  // measure 60
0100
0000
0001
0000
0100
0000
0001
0000
1000
0000
0010
0100
0010
0000
0000
0000
,  // measure 61
1000
0000
0100
0000
0010
0000
0001
0000
1000
0000
0001
0100
0001
0000
1000
0001
,  // measure 62
1000
0000
0100
0000
0010
0000
0001
0000
1000
0000
0001
0100
0001
0000
1000
0001
,  // measure 63
1000
0000
0100
0000
0001
0000
0100
0000
1000
0000
0010
1000
0100
0000
0010
0001
,  // measure 64
0200
0000
0000
0000
,  // measure 65
0300
0000
0000
0000
;

//---------------dance-single - ----------------
#NOTES:
     dance-single:
     :
     Beginner:
     2:
     0.085,0.161,0.094,0.000,0.000:
1000
0000
0000
0000
,
1000
0000
0000
0000
,
1000
0000
0000
0000
,
0000
0000
0000
0000
,
1001
0000
0000
0000
,
0000
0000
0000
0000
,
1001
0000
0000
0000
,
0001
0000
0000
0000
,
1000
0000
0000
0000
,
0001
0000
0000
0000
,
1000
0000
0000
0000
,
0001
0000
0000
0000
,
0010
0000
0000
0000
,
0100
0000
0000
0000
,
1000
0000
0000
0000
,
0001
0000
0000
0000
,
1000
0000
0000
0000
,
0010
0000
0000
0000
,
0110
0000
0000
0000
,
0000
0000
0000
0000
,
0010
0000
0000
0000
,
0000
0000
0000
0000
,
0100
0000
0000
0000
,
0000
0000
0000
0000
,
0100
0000
0000
0000
,
0000
0000
0000
0000
,
1001
0000
0000
0000
,
0000
0000
0000
0000
,
0000
0000
0000
0000
,
0000
0000
0000
0000
,
0001
0000
0000
0000
,
0000
0000
0000
0000
,
1000
0000
0000
0000
,
0000
0000
0000
0000
,
1001
0000
0001
0000
,
0001
0000
0000
0000
,
1000
0000
1000
0000
,
1000
0000
0000
0000
,
1001
0000
0001
0000
,
0100
0000
0010
0000
,
1000
0000
1000
0000
,
0010
0000
0100
0000
,
0001
0000
0000
0000
,
1001
0000
0000
0000
,
1001
0000
0001
0000
,
1001
0000
0000
0000
,
1000
0000
0000
0000
,
0000
0000
0000
0000
,
1000
0000
0000
0000
,
1001
0000
0000
0000
,
0001
0000
0000
0000
,
1000
0000
0000
0000
,
0001
0000
0000
0000
,
0010
0000
0000
0000
,
0100
0000
0000
0000
,
1000
0000
0000
0000
,
0001
0000
0000
0000
,
1000
0000
0000
0000
,
0010
0000
0000
0000
,
0100
0000
0000
0000
,
0010
0000
0000
0000
,
0010
0000
0000
0000
,
0010
0000
0000
0000
,
0110
0000
0000
0000
;
