#TITLE:THE CHEETAHMEN;
#SUBTITLE:;
#ARTIST:Vince Perri;
#TITLETRANSLIT:;
#SUBTITLETRANSLIT:;
#ARTISTTRANSLIT:;
#CREDIT:DigiMindAxel;
#BANNER:THE CHEETAHMEN.png;
#BACKGROUND:THE CHEETAHMEN-bg.png;
#LYRICSPATH:;
#CDTITLE:DMAxel original simfile.png;
#MUSIC:THE CHEETAHMEN.mp3;
#OFFSET:-6.480;
#SAMPLESTART:12.820;
#SAMPLELENGTH:12.000;
#SELECTABLE:YES;
#BPMS:0.000=150.000;
#STOPS:161.500=0.400
,164.500=0.400
,167.500=0.400
,170.500=0.400
;
#BGCHANGES:;

//---------------dance-single - ----------------
#NOTES:
     dance-single:
     :
     Easy:
     2:
     0.176,0.188,0.020,0.172,0.000: // measure 1
2000
0000
0000
0000
,  // measure 2
3002
0000
0000
0000
,  // measure 3
2003
0000
0000
0000
,  // measure 4
3002
0000
0000
0000
,  // measure 5
0013
0000
0010
0000
,  // measure 6
0010
0000
0001
0010
,  // measure 7
0100
0000
0100
0000
,  // measure 8
0100
0000
1000
0100
,  // measure 9
0010
0000
0010
0000
,  // measure 10
0010
0000
0001
0100
,  // measure 11
0010
0000
0010
0000
,  // measure 12
0010
0000
1000
0010
,  // measure 13
0200
0000
0000
0000
,  // measure 14
0320
0000
0000
0000
,  // measure 15
0230
0000
0000
0000
,  // measure 16
0302
0000
0000
0000
,  // measure 17
2003
0000
0000
0000
,  // measure 18
3020
0000
0000
0000
,  // measure 19
0230
0000
0000
0000
,  // measure 20
0301
0001
1001
0000
,  // measure 21
0010
0010
0010
0010
,  // measure 22
0100
0000
0100
0000
,  // measure 23
1000
1000
1000
1000
,  // measure 24
0001
0000
0001
0000
,  // measure 25
1000
1000
1000
1000
,  // measure 26
0010
0000
0010
0000
,  // measure 27
0100
0100
0100
0100
,  // measure 28
0001
0000
0001
0000
,  // measure 29
1000
0001
1000
0000
,  // measure 30
0001
1000
0001
0000
,  // measure 31
0010
0001
0010
0000
,  // measure 32
0001
1000
0001
0000
,  // measure 33
1000
0100
1000
0000
,  // measure 34
0001
1000
0001
0000
,  // measure 35
0100
0010
0100
0000
,  // measure 36
0001
1000
0001
0000
,  // measure 37
1000
0000
0000
0000
,  // measure 38
1000
0000
0000
0000
,  // measure 39
0001
0000
0000
0000
,  // measure 40
0001
0000
0000
0000
,  // measure 41
0100
0000
0000
0010
,  // measure 42
0000
0000
0100
0000
,  // measure 43
0000
0010
0000
0000
,  // measure 44
1000
0000
0000
0000
,  // measure 45
0001
0000
0000
0000
,  // measure 46
1000
0000
0000
0000
,  // measure 47
0001
0000
0000
0000
,  // measure 48
2000
0000
0000
0000
,  // measure 49
3002
0000
0000
0000
,  // measure 50
0203
0000
0000
0000
,  // measure 51
0320
0000
0000
0000
,  // measure 52
2030
0000
0000
0000
,  // measure 53
3002
0000
0100
0103
,  // measure 54
1001
0000
0000
0000
;

//---------------dance-single - ----------------
#NOTES:
     dance-single:
     :
     Hard:
     8:
     0.499,0.510,0.081,0.213,0.223: // measure 1
0001
0000
0000
0001
0000
0000
0002
0000
0000
0000
0000
0000
0000
0000
0000
0000
,  // measure 2
1003
0000
0000
1000
0000
0000
2000
0000
0000
0000
0000
0000
0000
0000
0000
0000
,  // measure 3
3010
0000
0000
0010
0000
0000
0020
0000
0000
0000
0000
0000
0000
0000
0000
0000
,  // measure 4
0130
0000
0000
0100
0000
0000
0200
0000
0000
0000
0000
0000
0000
0000
0000
0000
,  // measure 5
0301
0000
0000
0010
0000
0000
0001
0000
0000
0000
1000
0000
0010
0000
1000
0000
,  // measure 6
1000
0000
0000
0100
0010
0001
0010
0001
,  // measure 7
1000
0000
0000
0100
0000
0000
1000
0000
0000
0000
0001
0000
0100
0000
0001
0000
,  // measure 8
0001
0000
0000
0010
0100
1000
0100
1000
,  // measure 9
0001
0000
0000
0010
0000
0000
0001
0000
0000
0000
1000
0000
0010
0000
1000
0000
,  // measure 10
1000
0000
0000
0010
0100
0001
0100
0001
,  // measure 11
1000
0000
0000
0100
0000
0000
1000
0000
0000
0000
0001
0000
0100
0000
0001
0000
,  // measure 12
0001
0000
0000
0100
0010
1000
0001
1000
,  // measure 13
0001
0000
0000
0100
0000
0000
0020
0000
0000
0000
0000
0000
0030
0000
1000
0000
,  // measure 14
0001
0000
0000
0100
0000
0000
0020
0000
0000
0000
0000
0000
0030
0000
1000
0000
,  // measure 15
0001
0000
0000
1000
0000
0000
0200
0000
0000
0000
0000
0000
0300
0000
1000
0000
,  // measure 16
0001
0000
0000
1000
0000
0000
0200
0000
0000
0000
0000
0000
1300
0000
0100
0000
,  // measure 17
0010
0000
0000
0001
0000
0000
0200
0000
0000
0000
0001
0000
0301
0000
0001
0000
,  // measure 18
1000
0000
0000
0001
0000
0000
0200
0000
0000
0000
0001
0000
0300
0000
0001
0000
,  // measure 19
1000
0000
0000
0001
0000
0000
0020
0000
0000
0000
0001
0000
0031
0000
1000
0000
,  // measure 20
0020
0000
0000
0100
0000
0130
0000
0010
2000
0000
0000
0000
0000
0000
0000
0000
,  // measure 21
3001
0100
0001
1000
0100
1000
0001
0100
,  // measure 22
0001
1000
0100
1000
0010
0000
0110
0000
,  // measure 23
1000
0010
1000
0001
0010
0001
1000
0010
,  // measure 24
1000
0001
0010
0001
0100
0000
0110
0000
,  // measure 25
0001
0010
0001
1000
0010
1000
0001
0010
,  // measure 26
0001
1000
0010
1000
0100
0000
0110
0000
,  // measure 27
1000
0100
1000
0001
0100
0001
1000
0100
,  // measure 28
1000
0001
0100
0001
1000
1000
1000
0001
,  // measure 29
1000
0100
0010
0001
0010
0001
0100
0100
,  // measure 30
0100
0000
0000
0001
1000
0100
1000
1000
,  // measure 31
0001
0010
0100
1000
0100
1000
0010
0010
,  // measure 32
0010
0000
0000
1000
0001
0010
0001
0001
,  // measure 33
1000
0100
0010
0010
0001
0001
1000
0010
,  // measure 34
1000
0000
0000
0001
1000
0010
1000
1000
,  // measure 35
0001
0010
0100
0100
1000
1000
0001
0100
,  // measure 36
0001
0000
0000
1000
0001
0100
0001
0001
,  // measure 37
0010
0000
0000
0010
0000
0000
0022
0000
0000
0000
0000
0000
0033
0000
0000
0000
,  // measure 38
0100
0000
0000
0100
0000
0000
2200
0000
0000
0000
0000
0000
3300
0000
0000
0000
,  // measure 39
0100
0000
0000
0100
0000
0000
2020
0000
0000
0000
0000
0000
3030
0000
0000
0000
,  // measure 40
0010
0000
0000
0010
0000
0000
0202
0000
0000
0000
0000
0000
0303
0000
0000
0000
,  // measure 41
0010
0000
0000
1000
0000
0000
0100
0000
0000
0000
1000
0000
0001
0000
0000
0100
,  // measure 42
0000
0000
0010
0000
0000
0000
0100
0000
0001
0000
0000
1000
0000
0000
0100
0000
,  // measure 43
0000
0000
1000
0000
0001
0000
0000
0010
0000
0000
0100
0000
1000
0000
0001
0000
,  // measure 44
1000
0000
0000
1000
0000
0000
0100
0000
0000
0000
1000
0000
0100
0000
0010
0000
,  // measure 45
0001
0000
0000
0001
0000
0000
0010
0000
0000
0000
0001
0000
0010
0000
0100
0000
,  // measure 46
1000
0000
0000
1000
0000
0000
0010
0000
0000
0000
1000
0000
0100
0000
0010
0000
,  // measure 47
0001
0000
0000
0001
0000
0000
0100
0000
0000
0000
0001
0000
0010
0000
0100
0000
,  // measure 48
1000
0000
0010
1000
0010
0000
1000
0000
0000
0100
0000
0010
0001
0000
0010
0000
,  // measure 49
0001
0000
0100
0001
0100
0000
0001
0000
0000
0100
0000
0010
1000
0000
0010
0000
,  // measure 50
1000
0000
0100
1000
0100
0000
1000
0000
0000
0100
0000
0010
0001
0000
0100
0000
,  // measure 51
0001
0000
0010
0001
0010
0000
0001
0000
0000
0100
0000
0010
1000
0000
0010
0000
,  // measure 52
1000
0000
0000
1000
0000
0000
1100
0000
0000
0000
1000
0000
0001
0000
0100
0000
,  // measure 53
0001
0000
0000
0001
0000
0000
0001
0000
0100
0000
0010
0000
0100
0000
0001
0000
,  // measure 54
1000
0000
0000
0000
;

//---------------dance-single - ----------------
#NOTES:
     dance-single:
     :
     Challenge:
     9:
     0.604,0.617,0.091,0.152,0.471: // measure 1
1000
0000
0000
1000
0000
0000
0001
0000
0000
0000
0100
0000
0010
0000
0100
0000
,  // measure 2
0001
0000
0000
0001
0000
0000
1000
0000
0001
0000
0010
0000
0100
0000
1000
0000
,  // measure 3
0001
0000
0000
0001
0000
0000
1000
0000
0000
0000
0010
0000
0100
0000
0010
0000
,  // measure 4
1000
0000
0000
1000
0000
0000
0001
0000
1000
0000
0100
0000
0010
0000
0001
0000
,  // measure 5
1000
0000
0000
0100
0000
0000
1000
0000
0000
0000
0001
0000
0100
0000
0001
0000
,  // measure 6
0001
0000
0000
1000
0000
0000
0001
0000
0001
0000
1000
0000
0100
0000
0010
0000
,  // measure 7
0001
0000
0000
0010
0000
0000
0001
0000
0000
0000
1000
0000
0010
0000
1000
0000
,  // measure 8
1000
0000
0000
0001
0000
0000
1000
0000
1000
0000
0001
0000
0010
0000
0100
0000
,  // measure 9
1000
0000
0000
0100
0000
0000
1000
0000
0000
0000
0001
0000
0100
0000
0001
0000
,  // measure 10
0001
0000
0000
1000
0000
0000
0001
0000
0001
0000
0100
0000
0010
0000
1000
0000
,  // measure 11
0001
0000
0000
0010
0000
0000
0001
0000
0000
0000
1000
0000
0010
0000
1000
0000
,  // measure 12
1000
0000
0000
0001
0000
0000
1000
0000
1000
0000
0010
0000
0100
0000
0001
0000
,  // measure 13
1000
0000
0000
0010
0000
0000
0100
0010
0100
0010
0100
0000
0001
0000
1000
0000
,  // measure 14
0010
0000
0000
0110
0000
0000
0200
0000
0000
0000
0000
0000
0000
0000
0301
0000
,  // measure 15
1000
0000
0000
0010
0000
0000
0100
0010
0100
0010
0100
0000
0001
0000
1000
0000
,  // measure 16
0010
0000
0000
0110
0000
0000
0200
0000
0000
0000
0000
0000
0301
0000
0010
0000
,  // measure 17
0100
0000
0000
1000
0000
0000
0010
0100
0010
0000
1000
0000
0010
0000
1000
0000
,  // measure 18
0001
0000
0000
1000
0000
0000
0010
0100
0010
0000
1000
0000
0100
0000
1000
0000
,  // measure 19
0001
0000
0000
0100
0000
0000
0001
1000
0001
0000
1000
0000
0001
0000
0100
0000
,  // measure 20
0010
1000
0000
0100
0000
0100
0000
1000
0002
0000
0000
0000
0000
0000
0000
0000
,  // measure 21
1003
0010
0100
0001
1000
0010
0100
0001
,  // measure 22
1000
0010
1000
0000
0010
0000
0010
0000
0100
0000
0001
0000
0001
0000
1000
0000
,  // measure 23
0001
0100
0010
1000
0001
0100
0010
1000
,  // measure 24
0001
0100
0001
0000
0100
0000
0010
0000
0010
0000
1000
0000
1000
0000
0001
0000
,  // measure 25
1000
0100
0010
0001
1000
0100
0010
0001
,  // measure 26
1000
0100
1000
0000
0100
0000
0010
0000
0010
0000
0001
0000
0001
0000
1000
0000
,  // measure 27
0001
0010
0100
1000
0001
0010
0100
1000
,  // measure 28
0001
0010
0001
0000
1000
0000
0010
0100
0000
0010
0000
0100
0001
0000
0001
0000
,  // measure 29
1000
0000
0010
0100
0010
0000
1000
0000
0100
0000
0010
0000
0001
0000
0100
0001
,  // measure 30
0000
2000
0000
0000
0000
0000
3001
0100
0001
0100
0000
0001
0000
0000
1000
0000
,  // measure 31
0001
0000
0100
0010
0100
0000
0001
0000
0010
0000
0100
0000
1000
0000
0010
2000
,  // measure 32
0000
0000
0000
0000
0000
0000
3001
0100
0001
0100
0000
0001
0000
0000
1000
0000
,  // measure 33
0001
0000
0100
0001
0100
0000
0001
0000
0100
0000
0010
0000
1000
0000
0100
1000
,  // measure 34
0000
0002
0000
0000
0000
0000
0013
0001
0010
0001
0000
1000
0000
0000
0001
0000
,  // measure 35
0100
0000
0010
1000
0010
0000
1000
0000
0010
0000
0100
0000
0001
0000
0010
0002
,  // measure 36
0000
0000
0000
0000
0000
0000
1003
0100
1000
0100
0000
1000
0000
0000
0001
0000
,  // measure 37
0100
0000
0000
0100
0000
0000
0100
0000
0000
0000
0001
0000
1000
0000
0010
0000
,  // measure 38
0100
0000
0000
0100
0000
0000
0100
0000
0001
0000
0010
0000
0100
0000
1000
0000
,  // measure 39
0010
0000
0000
0010
0000
0000
0010
0000
0000
0000
1000
0000
0001
0000
0100
0000
,  // measure 40
0010
0000
0000
0010
0000
0000
0010
0000
1000
0000
0100
0000
0010
0000
0001
0000
,  // measure 41
0100
0000
0000
0101
0000
0000
0010
0000
0000
0000
0001
0000
1000
0000
0000
1010
,  // measure 42
0000
0000
0100
0000
0000
0000
0010
0000
1000
0000
0000
0011
0000
0000
0010
0000
,  // measure 43
0000
0000
0001
0000
1000
0000
0000
1100
0000
0000
0010
0000
0001
0000
1000
0000
,  // measure 44
0002
0000
0000
0010
0000
0000
0010
0000
0000
0000
0013
0000
0100
0000
1000
0000
,  // measure 45
2000
0000
0000
0100
0000
0000
0100
0000
0000
0000
3100
0000
0000
0010
0001
0000
,  // measure 46
0002
0000
0000
0100
0000
0000
0100
0000
0000
0000
0103
0000
0010
0000
1000
0000
,  // measure 47
2000
0000
0000
0010
0000
0000
0010
0000
0000
0000
3010
0000
0100
0000
0001
0000
,  // measure 48
0100
0001
0100
0002
1000
0000
1000
0000
0000
1003
0000
0010
0100
0000
0100
0000
,  // measure 49
0010
1000
0010
2000
0001
0000
0001
0000
0000
3001
0000
0100
0010
0000
0010
0000
,  // measure 50
0100
0001
0100
0002
1000
0000
1000
0000
0000
1003
0000
0010
0100
0000
0100
0000
,  // measure 51
0010
1000
0010
2000
0001
0000
0001
0000
0000
3001
0000
0100
0010
0000
0010
0000
,  // measure 52
0100
0000
0000
0110
0000
0000
0101
0000
0000
0000
0001
0000
1000
0000
0010
0000
,  // measure 53
0100
0000
0000
0110
0000
0000
0010
0000
1000
0100
1000
0000
0001
0100
0001
0100
,  // measure 54
0001
0000
0000
0000
;

//---------------dance-single - ----------------
#NOTES:
     dance-single:
     :
     Beginner:
     1:
     0.072,0.107,0.030,0.000,0.000:
1000
0000
0000
0000
,
0000
0000
0000
0000
,
0001
0000
0000
0000
,
0000
0000
0000
0000
,
1000
0000
0000
0000
,
0000
0000
0000
0000
,
1000
0000
0000
0000
,
0000
0000
0000
0000
,
0010
0000
0000
0000
,
0000
0000
0000
0000
,
0010
0000
0000
0000
,
0000
0000
0000
0000
,
0100
0000
0000
0000
,
0001
0000
0000
0000
,
0100
0000
0000
0000
,
0001
0000
0000
0000
,
1000
0000
0000
0000
,
0010
0000
0000
0000
,
1000
0000
0000
0000
,
0010
0000
0000
0000
,
1000
0000
0000
0000
,
1000
0000
0000
0000
,
0001
0000
0000
0000
,
0001
0000
0000
0000
,
1000
0000
0000
0000
,
1000
0000
0000
0000
,
0001
0000
0000
0000
,
0001
0000
0000
0000
,
0010
0000
0000
0000
,
0100
0000
0000
0000
,
1000
0000
0000
0000
,
0100
0000
0000
0000
,
0010
0000
0000
0000
,
0001
0000
0000
0000
,
1000
0000
0000
0000
,
0001
0000
0000
0000
,
1000
0000
0000
0000
,
0000
0000
0000
0000
,
0001
0000
0000
0000
,
0000
0000
0000
0000
,
1000
0000
0000
0001
,
0000
0000
1000
0000
,
0000
0001
0000
0000
,
1000
0000
0000
0000
,
1000
0000
0000
0000
,
1000
0000
0000
0000
,
1000
0000
0000
0000
,
1001
0000
0000
0000
,
0001
0000
0000
0000
,
1001
0000
0000
0000
,
1000
0000
0000
0000
,
1001
0000
0000
0000
,
0001
0000
0000
0000
,
0100
0000
0000
0000
;

//---------------dance-single - ----------------
#NOTES:
     dance-single:
     :
     Medium:
     5:
     0.292,0.322,0.040,0.162,0.000: // measure 1
0002
0000
0000
0000
,  // measure 2
0023
0000
0000
0000
,  // measure 3
0230
0000
0000
0000
,  // measure 4
2300
0000
0000
0000
,  // measure 5
3100
1000
0100
1000
,  // measure 6
0001
0010
0001
0010
,  // measure 7
0001
0100
0001
0100
,  // measure 8
0010
1000
0010
1000
,  // measure 9
0010
0100
0010
0100
,  // measure 10
0010
0100
0001
1000
,  // measure 11
0001
0010
0100
1000
,  // measure 12
0100
0000
0010
0000
0001
1000
0001
0000
,  // measure 13
1000
0000
0000
0100
1000
0000
1000
0000
,  // measure 14
0001
0000
0000
0001
0000
0000
0001
0000
,  // measure 15
1000
0000
0000
0010
1000
0000
1000
0000
,  // measure 16
0001
0000
0000
0001
0000
0000
0001
0000
,  // measure 17
1000
0000
0000
0100
1000
0000
0001
0000
,  // measure 18
0001
0000
0000
0010
0001
0000
1000
0000
,  // measure 19
1000
0000
0000
0010
1000
0000
0001
0000
,  // measure 20
0100
0010
0100
0010
0100
0000
0000
0000
,  // measure 21
0001
0100
0000
0100
0000
0000
0000
0010
,  // measure 22
1000
0001
1000
0001
,  // measure 23
1000
0010
0000
0010
0000
0000
0000
0100
,  // measure 24
0001
1000
0001
1000
,  // measure 25
0001
0010
0000
0010
0000
0000
0000
0100
,  // measure 26
1000
0001
1000
0001
,  // measure 27
1000
0100
0000
0100
0000
0000
0000
0010
,  // measure 28
0001
0010
0000
0001
1000
0001
1000
0001
,  // measure 29
1000
0100
0010
0001
,  // measure 30
1000
0000
0001
0000
1000
0100
1000
0000
,  // measure 31
0001
0010
0100
1000
,  // measure 32
0001
0000
1000
0000
0001
0010
0001
0000
,  // measure 33
1000
0100
0010
0001
,  // measure 34
1000
0000
0001
0000
1000
0010
1000
0000
,  // measure 35
0001
0010
0100
1000
,  // measure 36
0001
0000
1000
0000
0001
0100
0001
0000
,  // measure 37
0202
0000
0000
0303
,  // measure 38
2020
0000
0000
3030
,  // measure 39
2200
0000
0000
3300
,  // measure 40
0022
0000
0000
0033
,  // measure 41
0010
0000
0000
0010
0000
0000
0100
0000
,  // measure 42
0000
0100
0000
0000
0010
0000
0000
0010
,  // measure 43
0000
0000
0100
0000
0000
0100
0000
0000
,  // measure 44
0002
0000
0000
0000
,  // measure 45
2003
0000
0000
0000
,  // measure 46
3020
0000
0000
0000
,  // measure 47
0230
0000
0000
0000
,  // measure 48
0301
0000
0000
0001
0000
0010
0100
0000
,  // measure 49
1000
0000
0000
1000
0000
0100
0010
0000
,  // measure 50
0001
0000
0000
0001
0000
0100
0010
0000
,  // measure 51
1000
0000
0000
1000
0000
0010
0100
0000
,  // measure 52
0001
0000
0000
1000
0000
1000
0001
0000
,  // measure 53
1000
0000
0000
0001
0010
0001
0010
0001
,  // measure 54
1000
0000
0000
0000
;
